  0
SECTION
  2
HEADER
  9
$ACADVER
  1
AC1009
  9
$INSBASE
 10
0.0
 20
0.0
 30
0.0
  9
$EXTMIN
 10
-900.107703
 20
-400.057749
 30
0.0
  9
$EXTMAX
 10
1049.344337
 20
576.62299
 30
0.0
  9
$LIMMIN
 10
-900.107703
 20
-400.057749
  9
$LIMMAX
 10
1049.344337
 20
576.62299
  9
$ORTHOMODE
 70
     1
  9
$REGENMODE
 70
     1
  9
$FILLMODE
 70
     1
  9
$QTEXTMODE
 70
     0
  9
$MIRRTEXT
 70
     0
  9
$DRAGMODE
 70
     2
  9
$LTSCALE
 40
25.0
  9
$OSMODE
 70
     0
  9
$ATTMODE
 70
     1
  9
$TEXTSIZE
 40
200.0
  9
$TRACEWID
 40
1.0
  9
$TEXTSTYLE
  7
STANDARD
  9
$CLAYER
  8
TEAM-MAS
  9
$CELTYPE
  6
BYLAYER
  9
$CECOLOR
 62
   256
  9
$DIMSCALE
 40
0.0
  9
$DIMASZ
 40
20.0
  9
$DIMEXO
 40
10.0
  9
$DIMDLI
 40
1.0
  9
$DIMRND
 40
0.0
  9
$DIMDLE
 40
0.0
  9
$DIMEXE
 40
1.0
  9
$DIMTP
 40
0.0
  9
$DIMTM
 40
0.0
  9
$DIMTXT
 40
35.0
  9
$DIMCEN
 40
1.0
  9
$DIMTSZ
 40
0.0
  9
$DIMTOL
 70
     0
  9
$DIMLIM
 70
     0
  9
$DIMTIH
 70
     0
  9
$DIMTOH
 70
     0
  9
$DIMSE1
 70
     0
  9
$DIMSE2
 70
     0
  9
$DIMTAD
 70
     0
  9
$DIMZIN
 70
     0
  9
$DIMBLK
  1

  9
$DIMASO
 70
     1
  9
$DIMSHO
 70
     0
  9
$DIMPOST
  1

  9
$DIMAPOST
  1

  9
$DIMALT
 70
     0
  9
$DIMALTD
 70
     2
  9
$DIMALTF
 40
25.4
  9
$DIMLFAC
 40
1.0
  9
$DIMTOFL
 70
     0
  9
$DIMTVP
 40
0.0
  9
$DIMTIX
 70
     0
  9
$DIMSOXD
 70
     0
  9
$DIMSAH
 70
     0
  9
$DIMBLK1
  1

  9
$DIMBLK2
  1

  9
$DIMSTYLE
  2
TEAM
  9
$DIMCLRD
 70
     9
  9
$DIMCLRE
 70
     9
  9
$DIMCLRT
 70
    11
  9
$DIMTFAC
 40
1.0
  9
$DIMGAP
 40
15.0
  9
$LUNITS
 70
     2
  9
$LUPREC
 70
     1
  9
$SKETCHINC
 40
1.0
  9
$FILLETRAD
 40
50.0
  9
$AUNITS
 70
     0
  9
$AUPREC
 70
     0
  9
$MENU
  1
ROPLANS
  9
$ELEVATION
 40
0.0
  9
$PELEVATION
 40
0.0
  9
$THICKNESS
 40
0.0
  9
$LIMCHECK
 70
     0
  9
$BLIPMODE
 70
     1
  9
$CHAMFERA
 40
0.0
  9
$CHAMFERB
 40
0.0
  9
$SKPOLY
 70
     0
  9
$TDCREATE
 40
2450392.957851
  9
$TDUPDATE
 40
2455493.945579
  9
$TDINDWG
 40
1.992456
  9
$TDUSRTIMER
 40
1.992456
  9
$USRTIMER
 70
     1
  9
$ANGBASE
 50
0.0
  9
$ANGDIR
 70
     0
  9
$PDMODE
 70
     0
  9
$PDSIZE
 40
0.0
  9
$PLINEWID
 40
0.0
  9
$COORDS
 70
     2
  9
$SPLFRAME
 70
     0
  9
$SPLINETYPE
 70
     6
  9
$SPLINESEGS
 70
     8
  9
$ATTDIA
 70
     0
  9
$ATTREQ
 70
     0
  9
$HANDLING
 70
     1
  9
$HANDSEED
  5
463
  9
$SURFTAB1
 70
    24
  9
$SURFTAB2
 70
    24
  9
$SURFTYPE
 70
     6
  9
$SURFU
 70
     6
  9
$SURFV
 70
     6
  9
$UCSNAME
  2

  9
$UCSORG
 10
0.0
 20
0.0
 30
0.0
  9
$UCSXDIR
 10
1.0
 20
0.0
 30
0.0
  9
$UCSYDIR
 10
0.0
 20
1.0
 30
0.0
  9
$PUCSNAME
  2

  9
$PUCSORG
 10
0.0
 20
0.0
 30
0.0
  9
$PUCSXDIR
 10
1.0
 20
0.0
 30
0.0
  9
$PUCSYDIR
 10
0.0
 20
1.0
 30
0.0
  9
$USERI1
 70
     0
  9
$USERI2
 70
     0
  9
$USERI3
 70
     0
  9
$USERI4
 70
     0
  9
$USERI5
 70
     0
  9
$USERR1
 40
0.0
  9
$USERR2
 40
0.0
  9
$USERR3
 40
0.0
  9
$USERR4
 40
0.0
  9
$USERR5
 40
0.0
  9
$WORLDVIEW
 70
     1
  9
$SHADEDGE
 70
     0
  9
$SHADEDIF
 70
    70
  9
$TILEMODE
 70
     1
  9
$MAXACTVP
 70
    16
  9
$PLIMCHECK
 70
     0
  9
$PEXTMIN
 10
-0.805942
 20
0.005011
 30
0.0
  9
$PEXTMAX
 10
20.250094
 20
11.356329
 30
0.0
  9
$PLIMMIN
 10
0.0
 20
0.0
  9
$PLIMMAX
 10
12.0
 20
9.0
  9
$UNITMODE
 70
     0
  9
$VISRETAIN
 70
     0
  9
$PLINEGEN
 70
     0
  9
$PSLTSCALE
 70
     0
  0
ENDSEC
  0
SECTION
  2
TABLES
  0
TABLE
  2
VPORT
 70
     2
  0
VPORT
  2
*ACTIVE
 70
     0
 10
0.0
 20
0.0
 11
1.0
 21
1.0
 12
74.618317
 22
88.282621
 13
0.0
 23
0.0
 14
1.0
 24
1.0
 15
50.0
 25
50.0
 16
0.0
 26
0.0
 36
1.0
 17
0.0
 27
0.0
 37
0.0
 40
1048.285476
 41
1.865779
 42
50.0
 43
0.0
 44
0.0
 50
0.0
 51
0.0
 71
     0
 72
   100
 73
     1
 74
     1
 75
     0
 76
     0
 77
     0
 78
     0
  0
ENDTAB
  0
TABLE
  2
LTYPE
 70
     2
  0
LTYPE
  2
CONTINUOUS
 70
     0
  3
Solid Line
 72
    65
 73
     0
 40
0.0
  0
LTYPE
  2
31
 70
     0
  3

 72
    65
 73
     4
 40
2.1
 49
1.5
 49
-0.3
 49
0.0
 49
-0.3
  0
ENDTAB
  0
TABLE
  2
LAYER
 70
     9
  0
LAYER
  2
0
 70
     0
 62
     7
  6
CONTINUOUS
  0
LAYER
  2
DEFPOINTS
 70
     0
 62
     7
  6
CONTINUOUS
  0
LAYER
  2
TEAM-BODY
 70
     0
 62
     2
  6
CONTINUOUS
  0
LAYER
  2
TEAM-AXE
 70
     0
 62
    10
  6
31
  0
LAYER
  2
TEAM-MAS
 70
     0
 62
     9
  6
CONTINUOUS
  0
LAYER
  2
TEAM-TXT
 70
     0
 62
    11
  6
CONTINUOUS
  0
LAYER
  2
TEAM-DET1
 70
     0
 62
     4
  6
CONTINUOUS
  0
LAYER
  2
TEAM-KAN
 70
     0
 62
     6
  6
CONTINUOUS
  0
LAYER
  2
TEAM-INSP
 70
     0
 62
     5
  6
CONTINUOUS
  0
ENDTAB
  0
TABLE
  2
STYLE
 70
     2
  0
STYLE
  2
STANDARD
 70
     0
 40
0.0
 41
1.0
 50
0.0
 71
     0
 42
200.0
  3
txt
  4

  0
STYLE
  2
TEAM
 70
     0
 40
0.0
 41
0.8
 50
15.0
 71
     0
 42
7.0
  3
ROMANS.shx
  4

  0
ENDTAB
  0
TABLE
  2
VIEW
 70
     0
  0
ENDTAB
  0
TABLE
  2
UCS
 70
     0
  0
ENDTAB
  0
TABLE
  2
APPID
 70
     1
  0
APPID
  2
ACAD
 70
     0
  0
ENDTAB
  0
TABLE
  2
DIMSTYLE
 70
     1
  0
DIMSTYLE
  2
TEAM
 70
     0
  3

  4

  5

  6

  7

 40
0.0
 41
20.0
 42
10.0
 43
1.0
 44
1.0
 45
0.0
 46
0.0
 47
0.0
 48
0.0
140
35.0
141
1.0
142
0.0
143
25.4
144
1.0
145
0.0
146
1.0
147
15.0
 71
     0
 72
     0
 73
     0
 74
     0
 75
     0
 76
     0
 77
     0
 78
     0
170
     0
171
     2
172
     0
173
     0
174
     0
175
     0
176
     9
177
     9
178
    11
  0
ENDTAB
  0
ENDSEC
  0
SECTION
  2
BLOCKS
  0
BLOCK
  8
0
  2
$MODEL_SPACE
 70
     0
 10
0.0
 20
0.0
 30
0.0
  3
$MODEL_SPACE
  1

  0
ENDBLK
  5
3E3
  8
0
  0
BLOCK
 67
     1
  8
0
  2
$PAPER_SPACE
 70
     0
 10
0.0
 20
0.0
 30
0.0
  3
$PAPER_SPACE
  1

  0
ENDBLK
  5
3E1
 67
     1
  8
0
  0
BLOCK
  8
0
  2
*D0
 70
     1
 10
0.0
 20
0.0
 30
0.0
  3
*D0
  1

  0
LINE
  5
3A
  8
0
  6
BYBLOCK
 62
     9
 10
4900.0
 20
56010.0
 30
0.0
 11
4900.0
 21
56561.800293
 31
0.0
  0
LINE
  5
3B
  8
0
  6
BYBLOCK
 62
     9
 10
3099.999973
 20
56010.0
 30
0.0
 11
3099.999973
 21
56561.800293
 31
0.0
  0
LINE
  5
3C
  8
0
  6
BYBLOCK
 62
     9
 10
4880.0
 20
56560.800293
 30
0.0
 11
4055.263766
 21
56560.800293
 31
0.0
  0
LINE
  5
3D
  8
0
  6
BYBLOCK
 62
     9
 10
3119.999973
 20
56560.800293
 30
0.0
 11
3944.736207
 21
56560.800293
 31
0.0
  0
SOLID
  5
3E
  8
0
  6
BYBLOCK
 62
     9
 10
4880.0
 20
56564.133626
 30
0.0
 11
4880.0
 21
56557.46696
 31
0.0
 12
4900.0
 22
56560.800293
 32
0.0
 13
4900.0
 23
56560.800293
 33
0.0
  0
SOLID
  5
3F
  8
0
  6
BYBLOCK
 62
     9
 10
3119.999973
 20
56564.133626
 30
0.0
 11
3119.999973
 21
56557.46696
 31
0.0
 12
3099.999973
 22
56560.800293
 32
0.0
 13
3099.999973
 23
56560.800293
 33
0.0
  0
TEXT
  5
40
  8
0
  6
BYBLOCK
 62
    11
 10
3954.486207
 20
56543.300293
 30
0.0
 40
35.0
  1
1800
  0
POINT
  5
41
  8
DEFPOINTS
  6
BYBLOCK
 62
     0
 10
4900.0
 20
56000.0
 30
0.0
  0
POINT
  5
42
  8
DEFPOINTS
  6
BYBLOCK
 62
     0
 10
3099.999973
 20
56000.0
 30
0.0
  0
POINT
  5
43
  8
DEFPOINTS
  6
BYBLOCK
 62
     0
 10
3099.999973
 20
56560.800293
 30
0.0
  0
ENDBLK
  5
45
  8
0
  0
BLOCK
  8
0
  2
*D1
 70
     1
 10
0.0
 20
0.0
 30
0.0
  3
*D1
  1

  0
LINE
  5
64
  8
0
  6
BYBLOCK
 62
     9
 10
4087.0
 20
56000.0
 30
0.0
 11
4969.795674
 21
56000.0
 31
0.0
  0
LINE
  5
65
  8
0
  6
BYBLOCK
 62
     9
 10
4910.0
 20
56400.0
 30
0.0
 11
4969.795674
 21
56400.0
 31
0.0
  0
LINE
  5
66
  8
0
  6
BYBLOCK
 62
     9
 10
4968.795674
 20
56020.0
 30
0.0
 11
4968.795674
 21
56151.73622
 31
0.0
  0
LINE
  5
67
  8
0
  6
BYBLOCK
 62
     9
 10
4968.795674
 20
56380.0
 30
0.0
 11
4968.795674
 21
56248.26378
 31
0.0
  0
SOLID
  5
68
  8
0
  6
BYBLOCK
 62
     9
 10
4965.462341
 20
56020.0
 30
0.0
 11
4972.129007
 21
56020.0
 31
0.0
 12
4968.795674
 22
56000.0
 32
0.0
 13
4968.795674
 23
56000.0
 33
0.0
  0
SOLID
  5
69
  8
0
  6
BYBLOCK
 62
     9
 10
4965.462341
 20
56380.0
 30
0.0
 11
4972.129007
 21
56380.0
 31
0.0
 12
4968.795674
 22
56400.0
 32
0.0
 13
4968.795674
 23
56400.0
 33
0.0
  0
TEXT
  5
6A
  8
0
  6
BYBLOCK
 62
    11
 10
4986.295674
 20
56161.48622
 30
0.0
 40
35.0
  1
400
 50
90.0
  0
POINT
  5
6B
  8
DEFPOINTS
  6
BYBLOCK
 62
     0
 10
4077.0
 20
56000.0
 30
0.0
  0
POINT
  5
6C
  8
DEFPOINTS
  6
BYBLOCK
 62
     0
 10
4900.0
 20
56400.0
 30
0.0
  0
POINT
  5
6D
  8
DEFPOINTS
  6
BYBLOCK
 62
     0
 10
4968.795674
 20
56400.0
 30
0.0
  0
ENDBLK
  5
6F
  8
0
  0
BLOCK
  8
0
  2
*D2
 70
     1
 10
0.0
 20
0.0
 30
0.0
  3
*D2
  1

  0
LINE
  5
56
  8
0
  6
BYBLOCK
 62
     9
 10
4900.0
 20
56010.0
 30
0.0
 11
4900.0
 21
56479.317306
 31
0.0
  0
LINE
  5
57
  8
0
  6
BYBLOCK
 62
     9
 10
4077.0
 20
56010.0
 30
0.0
 11
4077.0
 21
56479.317306
 31
0.0
  0
LINE
  5
58
  8
0
  6
BYBLOCK
 62
     9
 10
4880.0
 20
56478.317306
 30
0.0
 11
4535.724874
 21
56478.317306
 31
0.0
  0
LINE
  5
59
  8
0
  6
BYBLOCK
 62
     9
 10
4097.0
 20
56478.317306
 30
0.0
 11
4441.275126
 21
56478.317306
 31
0.0
  0
SOLID
  5
5A
  8
0
  6
BYBLOCK
 62
     9
 10
4880.0
 20
56481.650639
 30
0.0
 11
4880.0
 21
56474.983973
 31
0.0
 12
4900.0
 22
56478.317306
 32
0.0
 13
4900.0
 23
56478.317306
 33
0.0
  0
SOLID
  5
5B
  8
0
  6
BYBLOCK
 62
     9
 10
4097.0
 20
56481.650639
 30
0.0
 11
4097.0
 21
56474.983973
 31
0.0
 12
4077.0
 22
56478.317306
 32
0.0
 13
4077.0
 23
56478.317306
 33
0.0
  0
TEXT
  5
5C
  8
0
  6
BYBLOCK
 62
    11
 10
4451.025126
 20
56460.817306
 30
0.0
 40
35.0
  1
823
  0
POINT
  5
5D
  8
DEFPOINTS
  6
BYBLOCK
 62
     0
 10
4900.0
 20
56000.0
 30
0.0
  0
POINT
  5
5E
  8
DEFPOINTS
  6
BYBLOCK
 62
     0
 10
4077.0
 20
56000.0
 30
0.0
  0
POINT
  5
5F
  8
DEFPOINTS
  6
BYBLOCK
 62
     0
 10
4077.0
 20
56478.317306
 30
0.0
  0
ENDBLK
  5
61
  8
0
  0
BLOCK
  8
0
  2
*D3
 70
     1
 10
0.0
 20
0.0
 30
0.0
  3
*D3
  1

  0
LINE
  5
22
  8
0
  6
BYBLOCK
 62
     9
 10
4910.0
 20
56400.0
 30
0.0
 11
5034.54149
 21
56400.0
 31
0.0
  0
LINE
  5
23
  8
0
  6
BYBLOCK
 62
     9
 10
4910.0
 20
55600.0
 30
0.0
 11
5034.54149
 21
55600.0
 31
0.0
  0
LINE
  5
24
  8
0
  6
BYBLOCK
 62
     9
 10
5033.54149
 20
56380.0
 30
0.0
 11
5033.54149
 21
56046.51378
 31
0.0
  0
LINE
  5
25
  8
0
  6
BYBLOCK
 62
     9
 10
5033.54149
 20
55620.0
 30
0.0
 11
5033.54149
 21
55953.48622
 31
0.0
  0
SOLID
  5
26
  8
0
  6
BYBLOCK
 62
     9
 10
5030.208157
 20
56380.0
 30
0.0
 11
5036.874823
 21
56380.0
 31
0.0
 12
5033.54149
 22
56400.0
 32
0.0
 13
5033.54149
 23
56400.0
 33
0.0
  0
SOLID
  5
27
  8
0
  6
BYBLOCK
 62
     9
 10
5030.208157
 20
55620.0
 30
0.0
 11
5036.874823
 21
55620.0
 31
0.0
 12
5033.54149
 22
55600.0
 32
0.0
 13
5033.54149
 23
55600.0
 33
0.0
  0
TEXT
  5
28
  8
0
  6
BYBLOCK
 62
    11
 10
5051.04149
 20
55963.23622
 30
0.0
 40
35.0
  1
800
 50
90.0
  0
POINT
  5
29
  8
DEFPOINTS
  6
BYBLOCK
 62
     0
 10
4900.0
 20
56400.0
 30
0.0
  0
POINT
  5
2B
  8
DEFPOINTS
  6
BYBLOCK
 62
     0
 10
4900.0
 20
55600.0
 30
0.0
  0
POINT
  5
2C
  8
DEFPOINTS
  6
BYBLOCK
 62
     0
 10
5033.54149
 20
55600.0
 30
0.0
  0
ENDBLK
  5
2E
  8
0
  0
ENDSEC
  0
SECTION
  2
ENTITIES
  0
DIMENSION
  5
20
  8
TEAM-MAS
  2
*D3
 10
1033.54149
 20
-400.0
 30
0.0
 11
1033.54149
 21
0.0
 31
0.0
 12
-4000.0
 22
-56000.0
 32
0.0
 13
900.0
 23
400.0
 33
0.0
 14
900.0
 24
-400.0
 34
0.0
 50
90.0
1001
ACAD
1000
DSTYLE
1002
{
1070
    40
1040
1.0
1002
}
  0
ARC
  5
2F
  8
TEAM-BODY
 10
642.403456
 20
-550.346092
 30
0.0
 40
288.383444
 50
39.477259
 51
86.50176
  0
POLYLINE
  5
31
  8
TEAM-BODY
 66
     1
 10
0.0
 20
0.0
 30
0.0
 70
     1
  0
VERTEX
  5
3E9
  8
TEAM-BODY
 10
-865.0
 20
-367.0
 30
0.0
  0
VERTEX
  5
3EA
  8
TEAM-BODY
 10
865.0
 20
-367.0
 30
0.0
  0
VERTEX
  5
3EB
  8
TEAM-BODY
 10
865.0
 20
367.0
 30
0.0
  0
VERTEX
  5
3EC
  8
TEAM-BODY
 10
-865.0
 20
367.0
 30
0.0
  0
SEQEND
  5
3ED
  8
TEAM-BODY
  0
POLYLINE
  5
32
  8
TEAM-BODY
 66
     1
 10
0.0
 20
0.0
 30
0.0
 70
     1
  0
VERTEX
  5
3EE
  8
TEAM-BODY
 10
-900.0
 20
-400.0
 30
0.0
  0
VERTEX
  5
3EF
  8
TEAM-BODY
 10
900.0
 20
-400.0
 30
0.0
  0
VERTEX
  5
3F0
  8
TEAM-BODY
 10
900.0
 20
400.0
 30
0.0
  0
VERTEX
  5
3F1
  8
TEAM-BODY
 10
-900.0
 20
400.0
 30
0.0
  0
SEQEND
  5
3F2
  8
TEAM-BODY
  0
ARC
  5
33
  8
TEAM-BODY
 10
-451.843522
 20
-1127.207823
 30
0.0
 40
865.224948
 50
91.981035
 51
118.523122
  0
TEXT
  5
34
  8
TEAM-TXT
 10
-531.400466
 20
304.680271
 30
0.0
 40
30.0
  1
team 121727
 41
0.8
 51
15.0
  7
TEAM
  0
POLYLINE
  5
37
  8
TEAM-BODY
 66
     1
 10
0.0
 20
0.0
 30
0.0
 70
     1
  0
VERTEX
  5
3F3
  8
TEAM-BODY
 10
-481.753226
 20
-262.5
 30
0.0
  0
VERTEX
  5
3F4
  8
TEAM-BODY
 10
660.0
 20
-262.5
 30
0.0
  0
VERTEX
  5
3F5
  8
TEAM-BODY
 10
660.0
 20
262.5
 30
0.0
  0
VERTEX
  5
3F6
  8
TEAM-BODY
 10
-481.753226
 20
262.5
 30
0.0
  0
SEQEND
  5
3F7
  8
TEAM-BODY
  0
DIMENSION
  5
38
  8
TEAM-MAS
  2
*D0
 10
-900.000027
 20
560.800293
 30
0.0
 11
-0.000013
 21
560.800293
 31
0.0
 12
-4000.0
 22
-56000.0
 32
0.0
 13
900.0
 23
0.0
 33
0.0
 14
-900.000027
 24
0.0
 34
0.0
1001
ACAD
1000
DSTYLE
1002
{
1070
    40
1040
1.0
1002
}
  0
ARC
  5
46
  8
TEAM-BODY
 10
-451.843522
 20
1127.207823
 30
0.0
 40
865.224948
 50
241.476878
 51
268.018965
  0
ARC
  5
47
  8
TEAM-BODY
 10
642.403456
 20
550.346092
 30
0.0
 40
288.383444
 50
273.49824
 51
320.522741
  0
CIRCLE
  5
48
  8
TEAM-KAN
 10
77.0
 20
0.0
 30
0.0
 40
26.0
  0
CIRCLE
  5
4A
  8
TEAM-DET1
 10
77.0
 20
0.0
 30
0.0
 40
35.0
  0
LINE
  5
4C
  8
TEAM-AXE
 10
42.619999
 20
351.601503
 30
0.0
 11
111.390001
 21
351.601503
 31
0.0
  0
POLYLINE
  5
4F
  8
TEAM-DET1
 66
     1
 10
0.0
 20
0.0
 30
0.0
  0
VERTEX
  5
3F8
  8
TEAM-DET1
 10
51.46
 20
352.541503
 30
0.0
  0
VERTEX
  5
3F9
  8
TEAM-DET1
 10
51.21
 20
352.231503
 30
0.0
  0
VERTEX
  5
3FA
  8
TEAM-DET1
 10
51.06
 20
351.911503
 30
0.0
  0
VERTEX
  5
3FB
  8
TEAM-DET1
 10
51.0
 20
351.601503
 30
0.0
  0
VERTEX
  5
3FC
  8
TEAM-DET1
 10
51.06
 20
351.291503
 30
0.0
  0
VERTEX
  5
3FD
  8
TEAM-DET1
 10
51.21
 20
350.971503
 30
0.0
  0
VERTEX
  5
3FE
  8
TEAM-DET1
 10
51.46
 20
350.661503
 30
0.0
  0
VERTEX
  5
3FF
  8
TEAM-DET1
 10
51.82
 20
350.361503
 30
0.0
  0
VERTEX
  5
400
  8
TEAM-DET1
 10
52.27
 20
350.051503
 30
0.0
  0
VERTEX
  5
401
  8
TEAM-DET1
 10
52.83
 20
349.761503
 30
0.0
  0
VERTEX
  5
402
  8
TEAM-DET1
 10
53.48
 20
349.471503
 30
0.0
  0
VERTEX
  5
403
  8
TEAM-DET1
 10
54.22
 20
349.191503
 30
0.0
  0
VERTEX
  5
404
  8
TEAM-DET1
 10
55.05
 20
348.921503
 30
0.0
  0
VERTEX
  5
405
  8
TEAM-DET1
 10
55.97
 20
348.661503
 30
0.0
  0
VERTEX
  5
406
  8
TEAM-DET1
 10
56.97
 20
348.411503
 30
0.0
  0
VERTEX
  5
407
  8
TEAM-DET1
 10
58.05
 20
348.181503
 30
0.0
  0
VERTEX
  5
408
  8
TEAM-DET1
 10
59.2
 20
347.951503
 30
0.0
  0
VERTEX
  5
409
  8
TEAM-DET1
 10
60.43
 20
347.751503
 30
0.0
  0
VERTEX
  5
40A
  8
TEAM-DET1
 10
61.72
 20
347.551503
 30
0.0
  0
VERTEX
  5
40B
  8
TEAM-DET1
 10
63.07
 20
347.381503
 30
0.0
  0
VERTEX
  5
40C
  8
TEAM-DET1
 10
64.48
 20
347.221503
 30
0.0
  0
VERTEX
  5
40D
  8
TEAM-DET1
 10
65.93
 20
347.081503
 30
0.0
  0
VERTEX
  5
40E
  8
TEAM-DET1
 10
67.43
 20
346.951503
 30
0.0
  0
VERTEX
  5
40F
  8
TEAM-DET1
 10
68.97
 20
346.851503
 30
0.0
  0
VERTEX
  5
410
  8
TEAM-DET1
 10
70.54
 20
346.761503
 30
0.0
  0
VERTEX
  5
411
  8
TEAM-DET1
 10
72.13
 20
346.691503
 30
0.0
  0
VERTEX
  5
412
  8
TEAM-DET1
 10
73.74
 20
346.641503
 30
0.0
  0
VERTEX
  5
413
  8
TEAM-DET1
 10
75.37
 20
346.611503
 30
0.0
  0
VERTEX
  5
414
  8
TEAM-DET1
 10
77.0
 20
346.601503
 30
0.0
  0
VERTEX
  5
415
  8
TEAM-DET1
 10
78.63
 20
346.611503
 30
0.0
  0
VERTEX
  5
416
  8
TEAM-DET1
 10
80.26
 20
346.641503
 30
0.0
  0
VERTEX
  5
417
  8
TEAM-DET1
 10
81.88
 20
346.691503
 30
0.0
  0
VERTEX
  5
418
  8
TEAM-DET1
 10
83.47
 20
346.761503
 30
0.0
  0
VERTEX
  5
419
  8
TEAM-DET1
 10
85.04
 20
346.851503
 30
0.0
  0
VERTEX
  5
41A
  8
TEAM-DET1
 10
86.58
 20
346.951503
 30
0.0
  0
VERTEX
  5
41B
  8
TEAM-DET1
 10
88.07
 20
347.081503
 30
0.0
  0
VERTEX
  5
41C
  8
TEAM-DET1
 10
89.53
 20
347.221503
 30
0.0
  0
VERTEX
  5
41D
  8
TEAM-DET1
 10
90.93
 20
347.381503
 30
0.0
  0
VERTEX
  5
41E
  8
TEAM-DET1
 10
92.29
 20
347.551503
 30
0.0
  0
VERTEX
  5
41F
  8
TEAM-DET1
 10
93.58
 20
347.751503
 30
0.0
  0
VERTEX
  5
420
  8
TEAM-DET1
 10
94.8
 20
347.951503
 30
0.0
  0
VERTEX
  5
421
  8
TEAM-DET1
 10
95.95
 20
348.181503
 30
0.0
  0
VERTEX
  5
422
  8
TEAM-DET1
 10
97.04
 20
348.411503
 30
0.0
  0
VERTEX
  5
423
  8
TEAM-DET1
 10
98.04
 20
348.661503
 30
0.0
  0
VERTEX
  5
424
  8
TEAM-DET1
 10
98.95
 20
348.921503
 30
0.0
  0
VERTEX
  5
425
  8
TEAM-DET1
 10
99.79
 20
349.191503
 30
0.0
  0
VERTEX
  5
426
  8
TEAM-DET1
 10
100.53
 20
349.471503
 30
0.0
  0
VERTEX
  5
427
  8
TEAM-DET1
 10
101.18
 20
349.761503
 30
0.0
  0
SEQEND
  5
428
  8
TEAM-DET1
  0
POLYLINE
  5
50
  8
TEAM-DET1
 66
     1
 10
0.0
 20
0.0
 30
0.0
  0
VERTEX
  5
429
  8
TEAM-DET1
 10
103.0
 20
351.601503
 30
0.0
  0
VERTEX
  5
42A
  8
TEAM-DET1
 10
102.95
 20
351.911503
 30
0.0
  0
VERTEX
  5
42B
  8
TEAM-DET1
 10
102.8
 20
352.231503
 30
0.0
  0
VERTEX
  5
42C
  8
TEAM-DET1
 10
102.54
 20
352.541503
 30
0.0
  0
VERTEX
  5
42D
  8
TEAM-DET1
 10
102.19
 20
352.841503
 30
0.0
  0
VERTEX
  5
42E
  8
TEAM-DET1
 10
101.73
 20
353.141503
 30
0.0
  0
VERTEX
  5
42F
  8
TEAM-DET1
 10
101.18
 20
353.441503
 30
0.0
  0
VERTEX
  5
430
  8
TEAM-DET1
 10
100.53
 20
353.731503
 30
0.0
  0
VERTEX
  5
431
  8
TEAM-DET1
 10
99.79
 20
354.011503
 30
0.0
  0
VERTEX
  5
432
  8
TEAM-DET1
 10
98.95
 20
354.281503
 30
0.0
  0
VERTEX
  5
433
  8
TEAM-DET1
 10
98.04
 20
354.541503
 30
0.0
  0
VERTEX
  5
434
  8
TEAM-DET1
 10
97.04
 20
354.791503
 30
0.0
  0
VERTEX
  5
435
  8
TEAM-DET1
 10
95.95
 20
355.021503
 30
0.0
  0
VERTEX
  5
436
  8
TEAM-DET1
 10
94.8
 20
355.251503
 30
0.0
  0
VERTEX
  5
437
  8
TEAM-DET1
 10
93.58
 20
355.451503
 30
0.0
  0
VERTEX
  5
438
  8
TEAM-DET1
 10
92.29
 20
355.641503
 30
0.0
  0
VERTEX
  5
439
  8
TEAM-DET1
 10
90.93
 20
355.821503
 30
0.0
  0
VERTEX
  5
43A
  8
TEAM-DET1
 10
89.53
 20
355.981503
 30
0.0
  0
VERTEX
  5
43B
  8
TEAM-DET1
 10
88.07
 20
356.121503
 30
0.0
  0
VERTEX
  5
43C
  8
TEAM-DET1
 10
86.58
 20
356.251503
 30
0.0
  0
VERTEX
  5
43D
  8
TEAM-DET1
 10
85.04
 20
356.361503
 30
0.0
  0
VERTEX
  5
43E
  8
TEAM-DET1
 10
83.47
 20
356.441503
 30
0.0
  0
VERTEX
  5
43F
  8
TEAM-DET1
 10
81.88
 20
356.511503
 30
0.0
  0
VERTEX
  5
440
  8
TEAM-DET1
 10
80.26
 20
356.561503
 30
0.0
  0
VERTEX
  5
441
  8
TEAM-DET1
 10
78.63
 20
356.591503
 30
0.0
  0
VERTEX
  5
442
  8
TEAM-DET1
 10
77.0
 20
356.601503
 30
0.0
  0
VERTEX
  5
443
  8
TEAM-DET1
 10
75.37
 20
356.591503
 30
0.0
  0
VERTEX
  5
444
  8
TEAM-DET1
 10
73.74
 20
356.561503
 30
0.0
  0
VERTEX
  5
445
  8
TEAM-DET1
 10
72.13
 20
356.511503
 30
0.0
  0
VERTEX
  5
446
  8
TEAM-DET1
 10
70.54
 20
356.441503
 30
0.0
  0
VERTEX
  5
447
  8
TEAM-DET1
 10
68.97
 20
356.361503
 30
0.0
  0
VERTEX
  5
448
  8
TEAM-DET1
 10
67.43
 20
356.251503
 30
0.0
  0
VERTEX
  5
449
  8
TEAM-DET1
 10
65.93
 20
356.121503
 30
0.0
  0
VERTEX
  5
44A
  8
TEAM-DET1
 10
64.48
 20
355.981503
 30
0.0
  0
VERTEX
  5
44B
  8
TEAM-DET1
 10
63.07
 20
355.821503
 30
0.0
  0
VERTEX
  5
44C
  8
TEAM-DET1
 10
61.72
 20
355.641503
 30
0.0
  0
VERTEX
  5
44D
  8
TEAM-DET1
 10
60.43
 20
355.451503
 30
0.0
  0
VERTEX
  5
44E
  8
TEAM-DET1
 10
59.2
 20
355.251503
 30
0.0
  0
VERTEX
  5
44F
  8
TEAM-DET1
 10
58.05
 20
355.021503
 30
0.0
  0
VERTEX
  5
450
  8
TEAM-DET1
 10
56.97
 20
354.791503
 30
0.0
  0
VERTEX
  5
451
  8
TEAM-DET1
 10
55.97
 20
354.541503
 30
0.0
  0
VERTEX
  5
452
  8
TEAM-DET1
 10
55.05
 20
354.281503
 30
0.0
  0
VERTEX
  5
453
  8
TEAM-DET1
 10
54.22
 20
354.011503
 30
0.0
  0
VERTEX
  5
454
  8
TEAM-DET1
 10
53.48
 20
353.731503
 30
0.0
  0
VERTEX
  5
455
  8
TEAM-DET1
 10
52.83
 20
353.441503
 30
0.0
  0
VERTEX
  5
456
  8
TEAM-DET1
 10
52.27
 20
353.141503
 30
0.0
  0
VERTEX
  5
457
  8
TEAM-DET1
 10
51.82
 20
352.841503
 30
0.0
  0
VERTEX
  5
458
  8
TEAM-DET1
 10
51.46
 20
352.541503
 30
0.0
  0
SEQEND
  5
459
  8
TEAM-DET1
  0
POLYLINE
  5
51
  8
TEAM-KAN
 66
     1
 10
0.0
 20
0.0
 30
0.0
  0
VERTEX
  5
45A
  8
TEAM-KAN
 10
101.18
 20
349.761503
 30
0.0
  0
VERTEX
  5
45B
  8
TEAM-KAN
 10
101.73
 20
350.051503
 30
0.0
  0
VERTEX
  5
45C
  8
TEAM-KAN
 10
102.19
 20
350.361503
 30
0.0
  0
VERTEX
  5
45D
  8
TEAM-KAN
 10
102.54
 20
350.661503
 30
0.0
  0
VERTEX
  5
45E
  8
TEAM-KAN
 10
102.8
 20
350.971503
 30
0.0
  0
VERTEX
  5
45F
  8
TEAM-KAN
 10
102.95
 20
351.291503
 30
0.0
  0
VERTEX
  5
460
  8
TEAM-KAN
 10
103.0
 20
351.601503
 30
0.0
  0
SEQEND
  5
461
  8
TEAM-KAN
  0
CIRCLE
  5
52
  8
TEAM-INSP
 10
0.0
 20
0.0
 30
0.0
 40
10.0
  0
DIMENSION
  5
54
  8
TEAM-MAS
  2
*D2
 10
77.0
 20
478.317306
 30
0.0
 11
488.5
 21
478.317306
 31
0.0
 12
-4000.0
 22
-56000.0
 32
0.0
 13
900.0
 23
0.0
 33
0.0
 14
77.0
 24
0.0
 34
0.0
1001
ACAD
1000
DSTYLE
1002
{
1070
    40
1040
1.0
1002
}
  0
DIMENSION
  5
62
  8
TEAM-MAS
  2
*D1
 10
968.795674
 20
400.0
 30
0.0
 11
968.795674
 21
200.0
 31
0.0
 12
-4000.0
 22
-56000.0
 32
0.0
 13
77.0
 23
0.0
 33
0.0
 14
900.0
 24
400.0
 34
0.0
 50
90.0
1001
ACAD
1000
DSTYLE
1002
{
1070
    40
1040
1.0
1002
}
  0
ENDSEC
  0
EOF
