  0
SECTION
  2
HEADER
  9
$ACADVER
  1
AC1009
  9
$INSBASE
 10
0.0
 20
0.0
 30
0.0
  9
$EXTMIN
 10
-1006.155498
 20
-597.037839
 30
0.0
  9
$EXTMAX
 10
986.453693
 20
402.085193
 30
0.0
  9
$LIMMIN
 10
-1006.155498
 20
-597.037839
  9
$LIMMAX
 10
986.453693
 20
402.085193
  9
$ORTHOMODE
 70
     1
  9
$REGENMODE
 70
     1
  9
$FILLMODE
 70
     1
  9
$QTEXTMODE
 70
     0
  9
$MIRRTEXT
 70
     0
  9
$DRAGMODE
 70
     2
  9
$LTSCALE
 40
25.0
  9
$OSMODE
 70
     0
  9
$ATTMODE
 70
     1
  9
$TEXTSIZE
 40
200.0
  9
$TRACEWID
 40
1.0
  9
$TEXTSTYLE
  7
STANDARD
  9
$CLAYER
  8
TEAM-MAS
  9
$CELTYPE
  6
BYLAYER
  9
$CECOLOR
 62
   256
  9
$DIMSCALE
 40
0.0
  9
$DIMASZ
 40
20.0
  9
$DIMEXO
 40
10.0
  9
$DIMDLI
 40
1.0
  9
$DIMRND
 40
0.0
  9
$DIMDLE
 40
0.0
  9
$DIMEXE
 40
1.0
  9
$DIMTP
 40
0.0
  9
$DIMTM
 40
0.0
  9
$DIMTXT
 40
35.0
  9
$DIMCEN
 40
1.0
  9
$DIMTSZ
 40
0.0
  9
$DIMTOL
 70
     0
  9
$DIMLIM
 70
     0
  9
$DIMTIH
 70
     0
  9
$DIMTOH
 70
     0
  9
$DIMSE1
 70
     0
  9
$DIMSE2
 70
     0
  9
$DIMTAD
 70
     0
  9
$DIMZIN
 70
     0
  9
$DIMBLK
  1

  9
$DIMASO
 70
     1
  9
$DIMSHO
 70
     0
  9
$DIMPOST
  1

  9
$DIMAPOST
  1

  9
$DIMALT
 70
     0
  9
$DIMALTD
 70
     2
  9
$DIMALTF
 40
25.4
  9
$DIMLFAC
 40
1.0
  9
$DIMTOFL
 70
     0
  9
$DIMTVP
 40
0.0
  9
$DIMTIX
 70
     0
  9
$DIMSOXD
 70
     0
  9
$DIMSAH
 70
     0
  9
$DIMBLK1
  1

  9
$DIMBLK2
  1

  9
$DIMSTYLE
  2
TEAM
  9
$DIMCLRD
 70
     9
  9
$DIMCLRE
 70
     9
  9
$DIMCLRT
 70
    11
  9
$DIMTFAC
 40
1.0
  9
$DIMGAP
 40
15.0
  9
$LUNITS
 70
     2
  9
$LUPREC
 70
     1
  9
$SKETCHINC
 40
1.0
  9
$FILLETRAD
 40
50.0
  9
$AUNITS
 70
     0
  9
$AUPREC
 70
     0
  9
$MENU
  1
ROPLANS
  9
$ELEVATION
 40
0.0
  9
$PELEVATION
 40
0.0
  9
$THICKNESS
 40
0.0
  9
$LIMCHECK
 70
     0
  9
$BLIPMODE
 70
     1
  9
$CHAMFERA
 40
0.0
  9
$CHAMFERB
 40
0.0
  9
$SKPOLY
 70
     0
  9
$TDCREATE
 40
2450392.957851
  9
$TDUPDATE
 40
2455493.945579
  9
$TDINDWG
 40
1.992456
  9
$TDUSRTIMER
 40
1.992456
  9
$USRTIMER
 70
     1
  9
$ANGBASE
 50
0.0
  9
$ANGDIR
 70
     0
  9
$PDMODE
 70
     0
  9
$PDSIZE
 40
0.0
  9
$PLINEWID
 40
0.0
  9
$COORDS
 70
     2
  9
$SPLFRAME
 70
     0
  9
$SPLINETYPE
 70
     6
  9
$SPLINESEGS
 70
     8
  9
$ATTDIA
 70
     0
  9
$ATTREQ
 70
     0
  9
$HANDLING
 70
     1
  9
$HANDSEED
  5
241
  9
$SURFTAB1
 70
    24
  9
$SURFTAB2
 70
    24
  9
$SURFTYPE
 70
     6
  9
$SURFU
 70
     6
  9
$SURFV
 70
     6
  9
$UCSNAME
  2

  9
$UCSORG
 10
0.0
 20
0.0
 30
0.0
  9
$UCSXDIR
 10
1.0
 20
0.0
 30
0.0
  9
$UCSYDIR
 10
0.0
 20
1.0
 30
0.0
  9
$PUCSNAME
  2

  9
$PUCSORG
 10
0.0
 20
0.0
 30
0.0
  9
$PUCSXDIR
 10
1.0
 20
0.0
 30
0.0
  9
$PUCSYDIR
 10
0.0
 20
1.0
 30
0.0
  9
$USERI1
 70
     0
  9
$USERI2
 70
     0
  9
$USERI3
 70
     0
  9
$USERI4
 70
     0
  9
$USERI5
 70
     0
  9
$USERR1
 40
0.0
  9
$USERR2
 40
0.0
  9
$USERR3
 40
0.0
  9
$USERR4
 40
0.0
  9
$USERR5
 40
0.0
  9
$WORLDVIEW
 70
     1
  9
$SHADEDGE
 70
     0
  9
$SHADEDIF
 70
    70
  9
$TILEMODE
 70
     1
  9
$MAXACTVP
 70
    16
  9
$PLIMCHECK
 70
     0
  9
$PEXTMIN
 10
-0.805942
 20
0.005011
 30
0.0
  9
$PEXTMAX
 10
20.250094
 20
11.356329
 30
0.0
  9
$PLIMMIN
 10
0.0
 20
0.0
  9
$PLIMMAX
 10
12.0
 20
9.0
  9
$UNITMODE
 70
     0
  9
$VISRETAIN
 70
     0
  9
$PLINEGEN
 70
     0
  9
$PSLTSCALE
 70
     0
  0
ENDSEC
  0
SECTION
  2
TABLES
  0
TABLE
  2
VPORT
 70
     2
  0
VPORT
  2
*ACTIVE
 70
     0
 10
0.0
 20
0.0
 11
1.0
 21
1.0
 12
-9.850902
 22
-97.476323
 13
0.0
 23
0.0
 14
1.0
 24
1.0
 15
50.0
 25
50.0
 16
0.0
 26
0.0
 36
1.0
 17
0.0
 27
0.0
 37
0.0
 40
1071.492518
 41
1.865779
 42
50.0
 43
0.0
 44
0.0
 50
0.0
 51
0.0
 71
     0
 72
   100
 73
     1
 74
     1
 75
     0
 76
     0
 77
     0
 78
     0
  0
ENDTAB
  0
TABLE
  2
LTYPE
 70
     2
  0
LTYPE
  2
CONTINUOUS
 70
     0
  3
Solid Line
 72
    65
 73
     0
 40
0.0
  0
LTYPE
  2
31
 70
     0
  3

 72
    65
 73
     4
 40
2.1
 49
1.5
 49
-0.3
 49
0.0
 49
-0.3
  0
ENDTAB
  0
TABLE
  2
LAYER
 70
     9
  0
LAYER
  2
0
 70
     0
 62
     7
  6
CONTINUOUS
  0
LAYER
  2
DEFPOINTS
 70
     0
 62
     7
  6
CONTINUOUS
  0
LAYER
  2
TEAM-BODY
 70
     0
 62
     2
  6
CONTINUOUS
  0
LAYER
  2
TEAM-AXE
 70
     0
 62
    10
  6
31
  0
LAYER
  2
TEAM-MAS
 70
     0
 62
     9
  6
CONTINUOUS
  0
LAYER
  2
TEAM-TXT
 70
     0
 62
    11
  6
CONTINUOUS
  0
LAYER
  2
TEAM-DET1
 70
     0
 62
     4
  6
CONTINUOUS
  0
LAYER
  2
TEAM-DET3
 70
     0
 62
    14
  6
CONTINUOUS
  0
LAYER
  2
TEAM-INSP
 70
     0
 62
     5
  6
CONTINUOUS
  0
ENDTAB
  0
TABLE
  2
STYLE
 70
     2
  0
STYLE
  2
STANDARD
 70
     0
 40
0.0
 41
1.0
 50
0.0
 71
     0
 42
200.0
  3
txt
  4

  0
STYLE
  2
TEAM
 70
     0
 40
0.0
 41
0.8
 50
15.0
 71
     0
 42
7.0
  3
ROMANS.shx
  4

  0
ENDTAB
  0
TABLE
  2
VIEW
 70
     0
  0
ENDTAB
  0
TABLE
  2
UCS
 70
     0
  0
ENDTAB
  0
TABLE
  2
APPID
 70
     1
  0
APPID
  2
ACAD
 70
     0
  0
ENDTAB
  0
TABLE
  2
DIMSTYLE
 70
     1
  0
DIMSTYLE
  2
TEAM
 70
     0
  3

  4

  5

  6

  7

 40
0.0
 41
20.0
 42
10.0
 43
1.0
 44
1.0
 45
0.0
 46
0.0
 47
0.0
 48
0.0
140
35.0
141
1.0
142
0.0
143
25.4
144
1.0
145
0.0
146
1.0
147
15.0
 71
     0
 72
     0
 73
     0
 74
     0
 75
     0
 76
     0
 77
     0
 78
     0
170
     0
171
     2
172
     0
173
     0
174
     0
175
     0
176
     9
177
     9
178
    11
  0
ENDTAB
  0
ENDSEC
  0
SECTION
  2
BLOCKS
  0
BLOCK
  8
0
  2
$MODEL_SPACE
 70
     0
 10
0.0
 20
0.0
 30
0.0
  3
$MODEL_SPACE
  1

  0
ENDBLK
  5
211
  8
0
  0
BLOCK
 67
     1
  8
0
  2
$PAPER_SPACE
 70
     0
 10
0.0
 20
0.0
 30
0.0
  3
$PAPER_SPACE
  1

  0
ENDBLK
  5
20F
 67
     1
  8
0
  0
BLOCK
  8
0
  2
*D0
 70
     1
 10
0.0
 20
0.0
 30
0.0
  3
*D0
  1

  0
LINE
  5
4A
  8
0
  6
BYBLOCK
 62
     9
 10
4897.615577
 20
95600.0
 30
0.0
 11
4897.615577
 21
95417.782974
 31
0.0
  0
LINE
  5
4B
  8
0
  6
BYBLOCK
 62
     9
 10
3097.615577
 20
95600.0
 30
0.0
 11
3097.615577
 21
95417.782974
 31
0.0
  0
LINE
  5
4C
  8
0
  6
BYBLOCK
 62
     9
 10
4877.615577
 20
95418.782974
 30
0.0
 11
4052.879357
 21
95418.782974
 31
0.0
  0
LINE
  5
4D
  8
0
  6
BYBLOCK
 62
     9
 10
3117.615577
 20
95418.782974
 30
0.0
 11
3942.351797
 21
95418.782974
 31
0.0
  0
SOLID
  5
4E
  8
0
  6
BYBLOCK
 62
     9
 10
4877.615577
 20
95422.116307
 30
0.0
 11
4877.615577
 21
95415.44964
 31
0.0
 12
4897.615577
 22
95418.782974
 32
0.0
 13
4897.615577
 23
95418.782974
 33
0.0
  0
SOLID
  5
4F
  8
0
  6
BYBLOCK
 62
     9
 10
3117.615577
 20
95422.116307
 30
0.0
 11
3117.615577
 21
95415.44964
 31
0.0
 12
3097.615577
 22
95418.782974
 32
0.0
 13
3097.615577
 23
95418.782974
 33
0.0
  0
TEXT
  5
50
  8
0
  6
BYBLOCK
 62
    11
 10
3952.101797
 20
95401.282974
 30
0.0
 40
35.0
  1
1800
  0
POINT
  5
51
  8
DEFPOINTS
  6
BYBLOCK
 62
     0
 10
4897.615577
 20
95610.0
 30
0.0
  0
POINT
  5
52
  8
DEFPOINTS
  6
BYBLOCK
 62
     0
 10
3097.615577
 20
95610.0
 30
0.0
  0
POINT
  5
53
  8
DEFPOINTS
  6
BYBLOCK
 62
     0
 10
3097.615577
 20
95418.782974
 30
0.0
  0
ENDBLK
  5
55
  8
0
  0
BLOCK
  8
0
  2
*D1
 70
     1
 10
0.0
 20
0.0
 30
0.0
  3
*D1
  1

  0
LINE
  5
3C
  8
0
  6
BYBLOCK
 62
     9
 10
3097.615577
 20
95600.0
 30
0.0
 11
3008.684812
 21
95600.0
 31
0.0
  0
LINE
  5
3D
  8
0
  6
BYBLOCK
 62
     9
 10
3861.615577
 20
96000.0
 30
0.0
 11
3008.684812
 21
96000.0
 31
0.0
  0
LINE
  5
3E
  8
0
  6
BYBLOCK
 62
     9
 10
3009.684812
 20
95620.0
 30
0.0
 11
3009.684812
 21
95751.73622
 31
0.0
  0
LINE
  5
3F
  8
0
  6
BYBLOCK
 62
     9
 10
3009.684812
 20
95980.0
 30
0.0
 11
3009.684812
 21
95848.26378
 31
0.0
  0
SOLID
  5
40
  8
0
  6
BYBLOCK
 62
     9
 10
3006.351478
 20
95620.0
 30
0.0
 11
3013.018145
 21
95620.0
 31
0.0
 12
3009.684812
 22
95600.0
 32
0.0
 13
3009.684812
 23
95600.0
 33
0.0
  0
SOLID
  5
41
  8
0
  6
BYBLOCK
 62
     9
 10
3006.351478
 20
95980.0
 30
0.0
 11
3013.018145
 21
95980.0
 31
0.0
 12
3009.684812
 22
96000.0
 32
0.0
 13
3009.684812
 23
96000.0
 33
0.0
  0
TEXT
  5
42
  8
0
  6
BYBLOCK
 62
    11
 10
3027.184812
 20
95761.48622
 30
0.0
 40
35.0
  1
400
 50
90.0
  0
POINT
  5
43
  8
DEFPOINTS
  6
BYBLOCK
 62
     0
 10
3107.615577
 20
95600.0
 30
0.0
  0
POINT
  5
44
  8
DEFPOINTS
  6
BYBLOCK
 62
     0
 10
3871.615577
 20
96000.0
 30
0.0
  0
POINT
  5
45
  8
DEFPOINTS
  6
BYBLOCK
 62
     0
 10
3009.684812
 20
96000.0
 30
0.0
  0
ENDBLK
  5
47
  8
0
  0
BLOCK
  8
0
  2
*D2
 70
     1
 10
0.0
 20
0.0
 30
0.0
  3
*D2
  1

  0
LINE
  5
2D
  8
0
  6
BYBLOCK
 62
     9
 10
3097.615577
 20
95990.0
 30
0.0
 11
3097.615577
 21
95506.367654
 31
0.0
  0
LINE
  5
2E
  8
0
  6
BYBLOCK
 62
     9
 10
3871.615577
 20
95990.0
 30
0.0
 11
3871.615577
 21
95506.367654
 31
0.0
  0
LINE
  5
2F
  8
0
  6
BYBLOCK
 62
     9
 10
3117.615577
 20
95507.367654
 30
0.0
 11
3436.365577
 21
95507.367654
 31
0.0
  0
LINE
  5
30
  8
0
  6
BYBLOCK
 62
     9
 10
3851.615577
 20
95507.367654
 30
0.0
 11
3532.865577
 21
95507.367654
 31
0.0
  0
SOLID
  5
31
  8
0
  6
BYBLOCK
 62
     9
 10
3117.615577
 20
95510.700987
 30
0.0
 11
3117.615577
 21
95504.03432
 31
0.0
 12
3097.615577
 22
95507.367654
 32
0.0
 13
3097.615577
 23
95507.367654
 33
0.0
  0
SOLID
  5
32
  8
0
  6
BYBLOCK
 62
     9
 10
3851.615577
 20
95510.700987
 30
0.0
 11
3851.615577
 21
95504.03432
 31
0.0
 12
3871.615577
 22
95507.367654
 32
0.0
 13
3871.615577
 23
95507.367654
 33
0.0
  0
TEXT
  5
33
  8
0
  6
BYBLOCK
 62
    11
 10
3446.115577
 20
95489.867654
 30
0.0
 40
35.0
  1
774
  0
POINT
  5
34
  8
DEFPOINTS
  6
BYBLOCK
 62
     0
 10
3097.615577
 20
96000.0
 30
0.0
  0
POINT
  5
36
  8
DEFPOINTS
  6
BYBLOCK
 62
     0
 10
3871.615577
 20
96000.0
 30
0.0
  0
POINT
  5
37
  8
DEFPOINTS
  6
BYBLOCK
 62
     0
 10
3871.615577
 20
95507.367654
 30
0.0
  0
ENDBLK
  5
39
  8
0
  0
BLOCK
  8
0
  2
*D3
 70
     1
 10
0.0
 20
0.0
 30
0.0
  3
*D3
  1

  0
LINE
  5
72
  8
0
  6
BYBLOCK
 62
     9
 10
4897.615577
 20
95600.0
 30
0.0
 11
4971.570543
 21
95600.0
 31
0.0
  0
LINE
  5
73
  8
0
  6
BYBLOCK
 62
     9
 10
4897.615577
 20
96400.0
 30
0.0
 11
4971.570543
 21
96400.0
 31
0.0
  0
LINE
  5
74
  8
0
  6
BYBLOCK
 62
     9
 10
4970.570543
 20
95620.0
 30
0.0
 11
4970.570543
 21
95953.48622
 31
0.0
  0
LINE
  5
75
  8
0
  6
BYBLOCK
 62
     9
 10
4970.570543
 20
96380.0
 30
0.0
 11
4970.570543
 21
96046.51378
 31
0.0
  0
SOLID
  5
76
  8
0
  6
BYBLOCK
 62
     9
 10
4967.237209
 20
95620.0
 30
0.0
 11
4973.903876
 21
95620.0
 31
0.0
 12
4970.570543
 22
95600.0
 32
0.0
 13
4970.570543
 23
95600.0
 33
0.0
  0
SOLID
  5
77
  8
0
  6
BYBLOCK
 62
     9
 10
4967.237209
 20
96380.0
 30
0.0
 11
4973.903876
 21
96380.0
 31
0.0
 12
4970.570543
 22
96400.0
 32
0.0
 13
4970.570543
 23
96400.0
 33
0.0
  0
TEXT
  5
78
  8
0
  6
BYBLOCK
 62
    11
 10
4988.070543
 20
95963.23622
 30
0.0
 40
35.0
  1
800
 50
90.0
  0
POINT
  5
79
  8
DEFPOINTS
  6
BYBLOCK
 62
     0
 10
4887.615577
 20
95600.0
 30
0.0
  0
POINT
  5
7A
  8
DEFPOINTS
  6
BYBLOCK
 62
     0
 10
4887.615577
 20
96400.0
 30
0.0
  0
POINT
  5
7B
  8
DEFPOINTS
  6
BYBLOCK
 62
     0
 10
4970.570543
 20
96400.0
 30
0.0
  0
ENDBLK
  5
7D
  8
0
  0
ENDSEC
  0
SECTION
  2
ENTITIES
  0
LINE
  5
20
  8
TEAM-BODY
 10
-722.063354
 20
273.22675
 30
0.0
 11
257.405937
 21
273.22675
 31
0.0
  0
LINE
  5
22
  8
TEAM-BODY
 10
-722.063354
 20
-273.225822
 30
0.0
 11
257.405937
 21
-273.225822
 31
0.0
  0
LINE
  5
23
  8
TEAM-AXE
 10
917.854272
 20
0.0
 30
0.0
 11
-917.854272
 21
0.0
 31
0.0
  0
LINE
  5
26
  8
TEAM-BODY
 10
-892.384423
 20
-400.0
 30
0.0
 11
887.615577
 21
-400.0
 31
0.0
  0
LINE
  5
27
  8
TEAM-BODY
 10
887.615577
 20
400.0
 30
0.0
 11
-892.384423
 21
400.0
 31
0.0
  0
LINE
  5
28
  8
TEAM-DET1
 10
-817.386003
 20
-339.999536
 30
0.0
 11
812.613997
 21
-339.999536
 31
0.0
  0
LINE
  5
2A
  8
TEAM-DET1
 10
812.613997
 20
340.000464
 30
0.0
 11
-817.386003
 21
340.000464
 31
0.0
  0
DIMENSION
  5
2B
  8
TEAM-MAS
  2
*D2
 10
-128.384423
 20
-492.632346
 30
0.0
 11
-515.384423
 21
-492.632346
 31
0.0
 12
-4000.0
 22
-96000.0
 32
0.0
 13
-902.384423
 23
0.0
 33
0.0
 14
-128.384423
 24
0.0
 34
0.0
1001
ACAD
1000
DSTYLE
1002
{
1070
    40
1040
1.0
1002
}
  0
DIMENSION
  5
3A
  8
TEAM-MAS
  2
*D1
 10
-990.315188
 20
0.0
 30
0.0
 11
-990.315188
 21
-200.0
 31
0.0
 12
-4000.0
 22
-96000.0
 32
0.0
 13
-892.384423
 23
-400.0
 33
0.0
 14
-128.384423
 24
0.0
 34
0.0
 50
270.0
1001
ACAD
1000
DSTYLE
1002
{
1070
    40
1040
1.0
1002
}
  0
DIMENSION
  5
48
  8
TEAM-MAS
  2
*D0
 10
-902.384423
 20
-581.217026
 30
0.0
 11
-2.384423
 21
-581.217026
 31
0.0
 12
-4000.0
 22
-96000.0
 32
0.0
 13
897.615577
 23
-390.0
 33
0.0
 14
-902.384423
 24
-390.0
 34
0.0
  0
ARC
  5
56
  8
TEAM-BODY
 10
-892.384423
 20
-390.0
 30
0.0
 40
10.0
 50
180.0
 51
270.0
  0
LINE
  5
57
  8
TEAM-BODY
 10
-902.384423
 20
390.0
 30
0.0
 11
-902.384423
 21
-390.0
 31
0.0
  0
ARC
  5
58
  8
TEAM-BODY
 10
-892.384423
 20
390.0
 30
0.0
 40
10.0
 50
90.0
 51
180.0
  0
ARC
  5
59
  8
TEAM-DET1
 10
-817.386003
 20
315.000464
 30
0.0
 40
25.0
 50
90.0
 51
180.0
  0
ARC
  5
5A
  8
TEAM-BODY
 10
-722.063354
 20
193.22675
 30
0.0
 40
80.0
 50
90.0
 51
180.0
  0
LINE
  5
5B
  8
TEAM-BODY
 10
-802.063354
 20
-193.225822
 30
0.0
 11
-802.063354
 21
193.22675
 31
0.0
  0
LINE
  5
5C
  8
TEAM-DET1
 10
-842.386003
 20
315.000464
 30
0.0
 11
-842.386003
 21
-314.999536
 31
0.0
  0
ARC
  5
5D
  8
TEAM-DET1
 10
-817.386003
 20
-314.999536
 30
0.0
 40
25.0
 50
180.0
 51
270.0
  0
ARC
  5
5E
  8
TEAM-BODY
 10
-722.063354
 20
-193.225822
 30
0.0
 40
80.0
 50
180.0
 51
270.0
  0
CIRCLE
  5
5F
  8
TEAM-INSP
 10
0.0
 20
0.0
 30
0.0
 40
10.0
  0
CIRCLE
  5
61
  8
TEAM-DET3
 10
-128.384423
 20
0.0
 30
0.0
 40
26.0
  0
POLYLINE
  5
63
  8
TEAM-DET1
 66
     1
 10
0.0
 20
0.0
 30
0.0
 70
     1
  0
VERTEX
  5
217
  8
TEAM-DET1
 10
-154.384423
 20
-327.737518
 30
0.0
  0
VERTEX
  5
218
  8
TEAM-DET1
 10
-154.064319
 20
-326.83802
 30
0.0
  0
VERTEX
  5
219
  8
TEAM-DET1
 10
-153.111892
 20
-325.96067
 30
0.0
  0
VERTEX
  5
21A
  8
TEAM-DET1
 10
-151.550592
 20
-325.127072
 30
0.0
  0
VERTEX
  5
21B
  8
TEAM-DET1
 10
-149.418864
 20
-324.357752
 30
0.0
  0
VERTEX
  5
21C
  8
TEAM-DET1
 10
-146.769199
 20
-323.671654
 30
0.0
  0
VERTEX
  5
21D
  8
TEAM-DET1
 10
-143.666839
 20
-323.08567
 30
0.0
  0
VERTEX
  5
21E
  8
TEAM-DET1
 10
-140.188176
 20
-322.61423
 30
0.0
  0
VERTEX
  5
21F
  8
TEAM-DET1
 10
-136.418864
 20
-322.268943
 30
0.0
  0
VERTEX
  5
220
  8
TEAM-DET1
 10
-132.451719
 20
-322.05831
 30
0.0
  0
VERTEX
  5
221
  8
TEAM-DET1
 10
-128.384423
 20
-321.987518
 30
0.0
  0
VERTEX
  5
222
  8
TEAM-DET1
 10
-124.317127
 20
-322.05831
 30
0.0
  0
VERTEX
  5
223
  8
TEAM-DET1
 10
-120.349981
 20
-322.268943
 30
0.0
  0
VERTEX
  5
224
  8
TEAM-DET1
 10
-116.58067
 20
-322.61423
 30
0.0
  0
VERTEX
  5
225
  8
TEAM-DET1
 10
-113.102006
 20
-323.08567
 30
0.0
  0
VERTEX
  5
226
  8
TEAM-DET1
 10
-109.999646
 20
-323.671654
 30
0.0
  0
VERTEX
  5
227
  8
TEAM-DET1
 10
-107.349981
 20
-324.357752
 30
0.0
  0
VERTEX
  5
228
  8
TEAM-DET1
 10
-105.218253
 20
-325.127072
 30
0.0
  0
VERTEX
  5
229
  8
TEAM-DET1
 10
-103.656953
 20
-325.96067
 30
0.0
  0
VERTEX
  5
22A
  8
TEAM-DET1
 10
-102.704526
 20
-326.83802
 30
0.0
  0
VERTEX
  5
22B
  8
TEAM-DET1
 10
-102.384423
 20
-327.737518
 30
0.0
  0
VERTEX
  5
22C
  8
TEAM-DET1
 10
-102.704526
 20
-328.637016
 30
0.0
  0
VERTEX
  5
22D
  8
TEAM-DET1
 10
-103.656953
 20
-329.514365
 30
0.0
  0
VERTEX
  5
22E
  8
TEAM-DET1
 10
-105.218253
 20
-330.347963
 30
0.0
  0
VERTEX
  5
22F
  8
TEAM-DET1
 10
-107.349981
 20
-331.117283
 30
0.0
  0
VERTEX
  5
230
  8
TEAM-DET1
 10
-109.999646
 20
-331.803382
 30
0.0
  0
VERTEX
  5
231
  8
TEAM-DET1
 10
-113.102006
 20
-332.389365
 30
0.0
  0
VERTEX
  5
232
  8
TEAM-DET1
 10
-116.58067
 20
-332.860805
 30
0.0
  0
VERTEX
  5
233
  8
TEAM-DET1
 10
-120.349981
 20
-333.206093
 30
0.0
  0
VERTEX
  5
234
  8
TEAM-DET1
 10
-124.317127
 20
-333.416726
 30
0.0
  0
VERTEX
  5
235
  8
TEAM-DET1
 10
-128.384423
 20
-333.487518
 30
0.0
  0
VERTEX
  5
236
  8
TEAM-DET1
 10
-132.451719
 20
-333.416726
 30
0.0
  0
VERTEX
  5
237
  8
TEAM-DET1
 10
-136.418864
 20
-333.206093
 30
0.0
  0
VERTEX
  5
238
  8
TEAM-DET1
 10
-140.188176
 20
-332.860805
 30
0.0
  0
VERTEX
  5
239
  8
TEAM-DET1
 10
-143.666839
 20
-332.389365
 30
0.0
  0
VERTEX
  5
23A
  8
TEAM-DET1
 10
-146.769199
 20
-331.803382
 30
0.0
  0
VERTEX
  5
23B
  8
TEAM-DET1
 10
-149.418864
 20
-331.117283
 30
0.0
  0
VERTEX
  5
23C
  8
TEAM-DET1
 10
-151.550592
 20
-330.347963
 30
0.0
  0
VERTEX
  5
23D
  8
TEAM-DET1
 10
-153.111892
 20
-329.514365
 30
0.0
  0
VERTEX
  5
23E
  8
TEAM-DET1
 10
-154.064319
 20
-328.637016
 30
0.0
  0
SEQEND
  5
23F
  8
TEAM-DET1
  0
ARC
  5
64
  8
TEAM-BODY
 10
887.615577
 20
-390.0
 30
0.0
 40
10.0
 50
270.0
 51
0.0
  0
LINE
  5
65
  8
TEAM-BODY
 10
897.615577
 20
390.0
 30
0.0
 11
897.615577
 21
-390.0
 31
0.0
  0
ARC
  5
66
  8
TEAM-BODY
 10
887.615577
 20
390.0
 30
0.0
 40
10.0
 50
0.0
 51
90.0
  0
LINE
  5
67
  8
TEAM-BODY
 10
337.405937
 20
-193.225822
 30
0.0
 11
337.405937
 21
193.22675
 31
0.0
  0
ARC
  5
68
  8
TEAM-DET1
 10
812.613997
 20
-314.999536
 30
0.0
 40
25.0
 50
270.0
 51
0.0
  0
LINE
  5
69
  8
TEAM-DET1
 10
837.613997
 20
315.000464
 30
0.0
 11
837.613997
 21
-314.999536
 31
0.0
  0
ARC
  5
6A
  8
TEAM-DET1
 10
812.613997
 20
315.000464
 30
0.0
 40
25.0
 50
0.0
 51
90.0
  0
TEXT
  5
6B
  8
TEAM-TXT
 10
519.500532
 20
270.302017
 30
0.0
 40
30.0
  1
team 121814
 41
0.8
 51
15.0
  7
TEAM
  0
ARC
  5
6E
  8
TEAM-BODY
 10
257.405937
 20
193.22675
 30
0.0
 40
80.0
 50
0.0
 51
90.0
  0
ARC
  5
6F
  8
TEAM-BODY
 10
257.405937
 20
-193.225822
 30
0.0
 40
80.0
 50
270.0
 51
0.0
  0
DIMENSION
  5
70
  8
TEAM-MAS
  2
*D3
 10
970.570543
 20
400.0
 30
0.0
 11
970.570543
 21
0.0
 31
0.0
 12
-4000.0
 22
-96000.0
 32
0.0
 13
887.615577
 23
-400.0
 33
0.0
 14
887.615577
 24
400.0
 34
0.0
 50
270.0
1001
ACAD
1000
DSTYLE
1002
{
1070
    40
1040
1.0
1002
}
  0
ENDSEC
  0
EOF
