  0
SECTION
  2
HEADER
  9
$ACADVER
  1
AC1009
  9
$INSBASE
 10
0.0
 20
0.0
 30
0.0
  9
$EXTMIN
 10
-896.270285
 20
-546.313521
 30
0.0
  9
$EXTMAX
 10
1036.424725
 20
690.583042
 30
0.0
  9
$LIMMIN
 10
-896.270285
 20
-546.313521
  9
$LIMMAX
 10
1036.424725
 20
690.583042
  9
$ORTHOMODE
 70
     1
  9
$REGENMODE
 70
     1
  9
$FILLMODE
 70
     1
  9
$QTEXTMODE
 70
     0
  9
$MIRRTEXT
 70
     0
  9
$DRAGMODE
 70
     2
  9
$LTSCALE
 40
25.0
  9
$OSMODE
 70
     0
  9
$ATTMODE
 70
     1
  9
$TEXTSIZE
 40
200.0
  9
$TRACEWID
 40
1.0
  9
$TEXTSTYLE
  7
STANDARD
  9
$CLAYER
  8
TEAM-MAS
  9
$CELTYPE
  6
BYLAYER
  9
$CECOLOR
 62
   256
  9
$DIMSCALE
 40
0.0
  9
$DIMASZ
 40
20.0
  9
$DIMEXO
 40
10.0
  9
$DIMDLI
 40
1.0
  9
$DIMRND
 40
0.0
  9
$DIMDLE
 40
0.0
  9
$DIMEXE
 40
1.0
  9
$DIMTP
 40
0.0
  9
$DIMTM
 40
0.0
  9
$DIMTXT
 40
35.0
  9
$DIMCEN
 40
1.0
  9
$DIMTSZ
 40
0.0
  9
$DIMTOL
 70
     0
  9
$DIMLIM
 70
     0
  9
$DIMTIH
 70
     0
  9
$DIMTOH
 70
     0
  9
$DIMSE1
 70
     0
  9
$DIMSE2
 70
     0
  9
$DIMTAD
 70
     0
  9
$DIMZIN
 70
     0
  9
$DIMBLK
  1

  9
$DIMASO
 70
     1
  9
$DIMSHO
 70
     0
  9
$DIMPOST
  1

  9
$DIMAPOST
  1

  9
$DIMALT
 70
     0
  9
$DIMALTD
 70
     2
  9
$DIMALTF
 40
25.4
  9
$DIMLFAC
 40
1.0
  9
$DIMTOFL
 70
     0
  9
$DIMTVP
 40
0.0
  9
$DIMTIX
 70
     0
  9
$DIMSOXD
 70
     0
  9
$DIMSAH
 70
     0
  9
$DIMBLK1
  1

  9
$DIMBLK2
  1

  9
$DIMSTYLE
  2
TEAM
  9
$DIMCLRD
 70
     9
  9
$DIMCLRE
 70
     9
  9
$DIMCLRT
 70
    11
  9
$DIMTFAC
 40
1.0
  9
$DIMGAP
 40
15.0
  9
$LUNITS
 70
     2
  9
$LUPREC
 70
     1
  9
$SKETCHINC
 40
1.0
  9
$FILLETRAD
 40
50.0
  9
$AUNITS
 70
     0
  9
$AUPREC
 70
     0
  9
$MENU
  1
ROPLANS
  9
$ELEVATION
 40
0.0
  9
$PELEVATION
 40
0.0
  9
$THICKNESS
 40
0.0
  9
$LIMCHECK
 70
     0
  9
$BLIPMODE
 70
     1
  9
$CHAMFERA
 40
0.0
  9
$CHAMFERB
 40
0.0
  9
$SKPOLY
 70
     0
  9
$TDCREATE
 40
2450392.957851
  9
$TDUPDATE
 40
2455493.945579
  9
$TDINDWG
 40
1.992456
  9
$TDUSRTIMER
 40
1.992456
  9
$USRTIMER
 70
     1
  9
$ANGBASE
 50
0.0
  9
$ANGDIR
 70
     0
  9
$PDMODE
 70
     0
  9
$PDSIZE
 40
0.0
  9
$PLINEWID
 40
0.0
  9
$COORDS
 70
     2
  9
$SPLFRAME
 70
     0
  9
$SPLINETYPE
 70
     6
  9
$SPLINESEGS
 70
     8
  9
$ATTDIA
 70
     0
  9
$ATTREQ
 70
     0
  9
$HANDLING
 70
     1
  9
$HANDSEED
  5
C07
  9
$SURFTAB1
 70
    24
  9
$SURFTAB2
 70
    24
  9
$SURFTYPE
 70
     6
  9
$SURFU
 70
     6
  9
$SURFV
 70
     6
  9
$UCSNAME
  2

  9
$UCSORG
 10
0.0
 20
0.0
 30
0.0
  9
$UCSXDIR
 10
1.0
 20
0.0
 30
0.0
  9
$UCSYDIR
 10
0.0
 20
1.0
 30
0.0
  9
$PUCSNAME
  2

  9
$PUCSORG
 10
0.0
 20
0.0
 30
0.0
  9
$PUCSXDIR
 10
1.0
 20
0.0
 30
0.0
  9
$PUCSYDIR
 10
0.0
 20
1.0
 30
0.0
  9
$USERI1
 70
     0
  9
$USERI2
 70
     0
  9
$USERI3
 70
     0
  9
$USERI4
 70
     0
  9
$USERI5
 70
     0
  9
$USERR1
 40
0.0
  9
$USERR2
 40
0.0
  9
$USERR3
 40
0.0
  9
$USERR4
 40
0.0
  9
$USERR5
 40
0.0
  9
$WORLDVIEW
 70
     1
  9
$SHADEDGE
 70
     0
  9
$SHADEDIF
 70
    70
  9
$TILEMODE
 70
     1
  9
$MAXACTVP
 70
    16
  9
$PLIMCHECK
 70
     0
  9
$PEXTMIN
 10
-0.805942
 20
0.005011
 30
0.0
  9
$PEXTMAX
 10
20.250094
 20
11.356329
 30
0.0
  9
$PLIMMIN
 10
0.0
 20
0.0
  9
$PLIMMAX
 10
12.0
 20
9.0
  9
$UNITMODE
 70
     0
  9
$VISRETAIN
 70
     0
  9
$PLINEGEN
 70
     0
  9
$PSLTSCALE
 70
     0
  0
ENDSEC
  0
SECTION
  2
TABLES
  0
TABLE
  2
VPORT
 70
     2
  0
VPORT
  2
*ACTIVE
 70
     0
 10
0.0
 20
0.0
 11
1.0
 21
1.0
 12
70.07722
 22
72.134761
 13
0.0
 23
0.0
 14
1.0
 24
1.0
 15
50.0
 25
50.0
 16
0.0
 26
0.0
 36
1.0
 17
0.0
 27
0.0
 37
0.0
 40
1244.492653
 41
1.865779
 42
50.0
 43
0.0
 44
0.0
 50
0.0
 51
0.0
 71
     0
 72
   100
 73
     1
 74
     1
 75
     0
 76
     0
 77
     0
 78
     0
  0
ENDTAB
  0
TABLE
  2
LTYPE
 70
     2
  0
LTYPE
  2
CONTINUOUS
 70
     0
  3
Solid Line
 72
    65
 73
     0
 40
0.0
  0
LTYPE
  2
31
 70
     0
  3

 72
    65
 73
     4
 40
2.1
 49
1.5
 49
-0.3
 49
0.0
 49
-0.3
  0
ENDTAB
  0
TABLE
  2
LAYER
 70
     9
  0
LAYER
  2
0
 70
     0
 62
     7
  6
CONTINUOUS
  0
LAYER
  2
DEFPOINTS
 70
     0
 62
     7
  6
CONTINUOUS
  0
LAYER
  2
TEAM-BODY
 70
     0
 62
     2
  6
CONTINUOUS
  0
LAYER
  2
TEAM-AXE
 70
     0
 62
    10
  6
31
  0
LAYER
  2
TEAM-MAS
 70
     0
 62
     9
  6
CONTINUOUS
  0
LAYER
  2
TEAM-TXT
 70
     0
 62
    11
  6
CONTINUOUS
  0
LAYER
  2
TEAM-DET1
 70
     0
 62
     4
  6
CONTINUOUS
  0
LAYER
  2
TEAM-KAN
 70
     0
 62
     6
  6
CONTINUOUS
  0
LAYER
  2
TEAM-INSP
 70
     0
 62
     5
  6
CONTINUOUS
  0
ENDTAB
  0
TABLE
  2
STYLE
 70
     2
  0
STYLE
  2
STANDARD
 70
     0
 40
0.0
 41
1.0
 50
0.0
 71
     0
 42
200.0
  3
txt
  4

  0
STYLE
  2
TEAM
 70
     0
 40
0.0
 41
0.8
 50
15.0
 71
     0
 42
7.0
  3
ROMANS.shx
  4

  0
ENDTAB
  0
TABLE
  2
VIEW
 70
     0
  0
ENDTAB
  0
TABLE
  2
UCS
 70
     0
  0
ENDTAB
  0
TABLE
  2
APPID
 70
     1
  0
APPID
  2
ACAD
 70
     0
  0
ENDTAB
  0
TABLE
  2
DIMSTYLE
 70
     1
  0
DIMSTYLE
  2
TEAM
 70
     0
  3

  4

  5

  6

  7

 40
0.0
 41
20.0
 42
10.0
 43
1.0
 44
1.0
 45
0.0
 46
0.0
 47
0.0
 48
0.0
140
35.0
141
1.0
142
0.0
143
25.4
144
1.0
145
0.0
146
1.0
147
15.0
 71
     0
 72
     0
 73
     0
 74
     0
 75
     0
 76
     0
 77
     0
 78
     0
170
     0
171
     2
172
     0
173
     0
174
     0
175
     0
176
     9
177
     9
178
    11
  0
ENDTAB
  0
ENDSEC
  0
SECTION
  2
BLOCKS
  0
BLOCK
  8
0
  2
$MODEL_SPACE
 70
     0
 10
0.0
 20
0.0
 30
0.0
  3
$MODEL_SPACE
  1

  0
ENDBLK
  5
A72
  8
0
  0
BLOCK
 67
     1
  8
0
  2
$PAPER_SPACE
 70
     0
 10
0.0
 20
0.0
 30
0.0
  3
$PAPER_SPACE
  1

  0
ENDBLK
  5
A70
 67
     1
  8
0
  0
BLOCK
  8
0
  2
*D0
 70
     1
 10
0.0
 20
0.0
 30
0.0
  3
*D0
  1

  0
LINE
  5
74
  8
0
  6
BYBLOCK
 62
     9
 10
4859.757288
 20
136490.034103
 30
0.0
 11
4859.757288
 21
136590.196001
 31
0.0
  0
LINE
  5
75
  8
0
  6
BYBLOCK
 62
     9
 10
3899.757288
 20
135769.699661
 30
0.0
 11
3899.757288
 21
136590.196001
 31
0.0
  0
LINE
  5
76
  8
0
  6
BYBLOCK
 62
     9
 10
4839.757288
 20
136589.196001
 30
0.0
 11
4426.995942
 21
136589.196001
 31
0.0
  0
LINE
  5
77
  8
0
  6
BYBLOCK
 62
     9
 10
3919.757288
 20
136589.196001
 30
0.0
 11
4332.518635
 21
136589.196001
 31
0.0
  0
SOLID
  5
78
  8
0
  6
BYBLOCK
 62
     9
 10
4839.757288
 20
136592.529334
 30
0.0
 11
4839.757288
 21
136585.862667
 31
0.0
 12
4859.757288
 22
136589.196001
 32
0.0
 13
4859.757288
 23
136589.196001
 33
0.0
  0
SOLID
  5
79
  8
0
  6
BYBLOCK
 62
     9
 10
3919.757288
 20
136592.529334
 30
0.0
 11
3919.757288
 21
136585.862667
 31
0.0
 12
3899.757288
 22
136589.196001
 32
0.0
 13
3899.757288
 23
136589.196001
 33
0.0
  0
TEXT
  5
7A
  8
0
  6
BYBLOCK
 62
    11
 10
4343.596081
 20
136571.696001
 30
0.0
 40
35.0
  1
960
  0
POINT
  5
7B
  8
DEFPOINTS
  6
BYBLOCK
 62
     0
 10
4859.757288
 20
136480.034103
 30
0.0
  0
POINT
  5
7C
  8
DEFPOINTS
  6
BYBLOCK
 62
     0
 10
3899.757288
 20
135759.699661
 30
0.0
  0
POINT
  5
7D
  8
DEFPOINTS
  6
BYBLOCK
 62
     0
 10
3899.757288
 20
136589.196001
 30
0.0
  0
ENDBLK
  5
7F
  8
0
  0
BLOCK
  8
0
  2
*D1
 70
     1
 10
0.0
 20
0.0
 30
0.0
  3
*D1
  1

  0
LINE
  5
2C
  8
0
  6
BYBLOCK
 62
     9
 10
4859.757288
 20
136490.034103
 30
0.0
 11
4859.757288
 21
136675.754
 31
0.0
  0
LINE
  5
2D
  8
0
  6
BYBLOCK
 62
     9
 10
3110.247261
 20
136489.51168
 30
0.0
 11
3110.247261
 21
136675.754
 31
0.0
  0
LINE
  5
2E
  8
0
  6
BYBLOCK
 62
     9
 10
4839.757288
 20
136674.754
 30
0.0
 11
4040.266054
 21
136674.754
 31
0.0
  0
LINE
  5
2F
  8
0
  6
BYBLOCK
 62
     9
 10
3130.247261
 20
136674.754
 30
0.0
 11
3929.738495
 21
136674.754
 31
0.0
  0
SOLID
  5
30
  8
0
  6
BYBLOCK
 62
     9
 10
4839.757288
 20
136678.087333
 30
0.0
 11
4839.757288
 21
136671.420667
 31
0.0
 12
4859.757288
 22
136674.754
 32
0.0
 13
4859.757288
 23
136674.754
 33
0.0
  0
SOLID
  5
31
  8
0
  6
BYBLOCK
 62
     9
 10
3130.247261
 20
136678.087333
 30
0.0
 11
3130.247261
 21
136671.420667
 31
0.0
 12
3110.247261
 22
136674.754
 32
0.0
 13
3110.247261
 23
136674.754
 33
0.0
  0
TEXT
  5
32
  8
0
  6
BYBLOCK
 62
    11
 10
3939.488495
 20
136657.254
 30
0.0
 40
35.0
  1
1750
  0
POINT
  5
33
  8
DEFPOINTS
  6
BYBLOCK
 62
     0
 10
4859.757288
 20
136480.034103
 30
0.0
  0
POINT
  5
35
  8
DEFPOINTS
  6
BYBLOCK
 62
     0
 10
3110.247261
 20
136479.51168
 30
0.0
  0
POINT
  5
36
  8
DEFPOINTS
  6
BYBLOCK
 62
     0
 10
3110.247261
 20
136674.754
 30
0.0
  0
ENDBLK
  5
38
  8
0
  0
BLOCK
  8
0
  2
*D2
 70
     1
 10
0.0
 20
0.0
 30
0.0
  3
*D2
  1

  0
LINE
  5
66
  8
0
  6
BYBLOCK
 62
     9
 10
4839.757288
 20
136510.034103
 30
0.0
 11
4945.264924
 21
136510.034103
 31
0.0
  0
LINE
  5
67
  8
0
  6
BYBLOCK
 62
     9
 10
3948.007967
 20
135720.034103
 30
0.0
 11
4945.264924
 21
135720.034103
 31
0.0
  0
LINE
  5
68
  8
0
  6
BYBLOCK
 62
     9
 10
4944.264924
 20
136490.034103
 30
0.0
 11
4944.264924
 21
136161.609034
 31
0.0
  0
LINE
  5
69
  8
0
  6
BYBLOCK
 62
     9
 10
4944.264924
 20
135740.034103
 30
0.0
 11
4944.264924
 21
136068.459173
 31
0.0
  0
SOLID
  5
6A
  8
0
  6
BYBLOCK
 62
     9
 10
4940.93159
 20
136490.034103
 30
0.0
 11
4947.598257
 21
136490.034103
 31
0.0
 12
4944.264924
 22
136510.034103
 32
0.0
 13
4944.264924
 23
136510.034103
 33
0.0
  0
SOLID
  5
6B
  8
0
  6
BYBLOCK
 62
     9
 10
4940.93159
 20
135740.034103
 30
0.0
 11
4947.598257
 21
135740.034103
 31
0.0
 12
4944.264924
 22
135720.034103
 32
0.0
 13
4944.264924
 23
135720.034103
 33
0.0
  0
TEXT
  5
6C
  8
0
  6
BYBLOCK
 62
    11
 10
4961.764924
 20
136078.209173
 30
0.0
 40
35.0
  1
790
 50
90.0
  0
POINT
  5
6D
  8
DEFPOINTS
  6
BYBLOCK
 62
     0
 10
4829.757288
 20
136510.034103
 30
0.0
  0
POINT
  5
6E
  8
DEFPOINTS
  6
BYBLOCK
 62
     0
 10
3938.007967
 20
135720.034103
 30
0.0
  0
POINT
  5
6F
  8
DEFPOINTS
  6
BYBLOCK
 62
     0
 10
4944.264924
 20
135720.034103
 30
0.0
  0
ENDBLK
  5
71
  8
0
  0
BLOCK
  8
0
  2
*D3
 70
     1
 10
0.0
 20
0.0
 30
0.0
  3
*D3
  1

  0
LINE
  5
3E
  8
0
  6
BYBLOCK
 62
     9
 10
4839.757288
 20
136510.034103
 30
0.0
 11
5020.157538
 21
136510.034103
 31
0.0
  0
LINE
  5
3F
  8
0
  6
BYBLOCK
 62
     9
 10
4839.818986
 20
135459.96596
 30
0.0
 11
5020.157538
 21
135459.96596
 31
0.0
  0
LINE
  5
40
  8
0
  6
BYBLOCK
 62
     9
 10
5019.157538
 20
136490.034103
 30
0.0
 11
5019.157538
 21
136040.263811
 31
0.0
  0
LINE
  5
41
  8
0
  6
BYBLOCK
 62
     9
 10
5019.157538
 20
135479.96596
 30
0.0
 11
5019.157538
 21
135929.736252
 31
0.0
  0
SOLID
  5
42
  8
0
  6
BYBLOCK
 62
     9
 10
5015.824204
 20
136490.034103
 30
0.0
 11
5022.490871
 21
136490.034103
 31
0.0
 12
5019.157538
 22
136510.034103
 32
0.0
 13
5019.157538
 23
136510.034103
 33
0.0
  0
SOLID
  5
43
  8
0
  6
BYBLOCK
 62
     9
 10
5015.824204
 20
135479.96596
 30
0.0
 11
5022.490871
 21
135479.96596
 31
0.0
 12
5019.157538
 22
135459.96596
 32
0.0
 13
5019.157538
 23
135459.96596
 33
0.0
  0
TEXT
  5
44
  8
0
  6
BYBLOCK
 62
    11
 10
5036.657538
 20
135939.486252
 30
0.0
 40
35.0
  1
1050
 50
90.0
  0
POINT
  5
45
  8
DEFPOINTS
  6
BYBLOCK
 62
     0
 10
4829.757288
 20
136510.034103
 30
0.0
  0
POINT
  5
46
  8
DEFPOINTS
  6
BYBLOCK
 62
     0
 10
4829.818986
 20
135459.96596
 30
0.0
  0
POINT
  5
47
  8
DEFPOINTS
  6
BYBLOCK
 62
     0
 10
5019.157538
 20
135459.96596
 30
0.0
  0
ENDBLK
  5
49
  8
0
  0
ENDSEC
  0
SECTION
  2
ENTITIES
  0
TEXT
  5
20
  8
TEAM-TXT
 10
-445.783537
 20
160.899859
 30
0.0
 40
30.0
  1
team 121855
 41
0.8
 51
15.0
  7
TEAM
  0
POLYLINE
  5
23
  8
TEAM-BODY
 66
     1
 10
0.0
 20
0.0
 30
0.0
 70
   128
  0
VERTEX
  5
A78
  8
TEAM-BODY
 10
-628.306791
 20
15.019015
 30
0.0
  0
VERTEX
  5
A79
  8
TEAM-BODY
 10
-627.586402
 20
13.776303
 30
0.0
  0
VERTEX
  5
A7A
  8
TEAM-BODY
 10
-622.171966
 20
4.809345
 30
0.0
  0
VERTEX
  5
A7B
  8
TEAM-BODY
 10
-616.374559
 20
-4.162914
 30
0.0
  0
VERTEX
  5
A7C
  8
TEAM-BODY
 10
-610.198173
 20
-13.134299
 30
0.0
  0
VERTEX
  5
A7D
  8
TEAM-BODY
 10
-603.647057
 20
-22.098635
 30
0.0
  0
VERTEX
  5
A7E
  8
TEAM-BODY
 10
-596.72572
 20
-31.049754
 30
0.0
  0
VERTEX
  5
A7F
  8
TEAM-BODY
 10
-589.438926
 20
-39.981494
 30
0.0
  0
VERTEX
  5
A80
  8
TEAM-BODY
 10
-581.791689
 20
-48.88771
 30
0.0
  0
VERTEX
  5
A81
  8
TEAM-BODY
 10
-573.789273
 20
-57.76227
 30
0.0
  0
VERTEX
  5
A82
  8
TEAM-BODY
 10
-565.437185
 20
-66.599068
 30
0.0
  0
VERTEX
  5
A83
  8
TEAM-BODY
 10
-556.741173
 20
-75.392021
 30
0.0
  0
VERTEX
  5
A84
  8
TEAM-BODY
 10
-547.707222
 20
-84.135079
 30
0.0
  0
VERTEX
  5
A85
  8
TEAM-BODY
 10
-538.34155
 20
-92.822224
 30
0.0
  0
VERTEX
  5
A86
  8
TEAM-BODY
 10
-528.650602
 20
-101.447477
 30
0.0
  0
VERTEX
  5
A87
  8
TEAM-BODY
 10
-518.641047
 20
-110.004902
 30
0.0
  0
VERTEX
  5
A88
  8
TEAM-BODY
 10
-508.319775
 20
-118.488609
 30
0.0
  0
VERTEX
  5
A89
  8
TEAM-BODY
 10
-497.69389
 20
-126.892761
 30
0.0
  0
VERTEX
  5
A8A
  8
TEAM-BODY
 10
-486.770703
 20
-135.211573
 30
0.0
  0
VERTEX
  5
A8B
  8
TEAM-BODY
 10
-475.557732
 20
-143.439319
 30
0.0
  0
VERTEX
  5
A8C
  8
TEAM-BODY
 10
-464.062696
 20
-151.570338
 30
0.0
  0
VERTEX
  5
A8D
  8
TEAM-BODY
 10
-452.293504
 20
-159.599033
 30
0.0
  0
VERTEX
  5
A8E
  8
TEAM-BODY
 10
-440.258257
 20
-167.519878
 30
0.0
  0
VERTEX
  5
A8F
  8
TEAM-BODY
 10
-427.965238
 20
-175.327423
 30
0.0
  0
VERTEX
  5
A90
  8
TEAM-BODY
 10
-415.422907
 20
-183.016294
 30
0.0
  0
VERTEX
  5
A91
  8
TEAM-BODY
 10
-402.639897
 20
-190.581199
 30
0.0
  0
VERTEX
  5
A92
  8
TEAM-BODY
 10
-389.625004
 20
-198.016932
 30
0.0
  0
VERTEX
  5
A93
  8
TEAM-BODY
 10
-376.387186
 20
-205.318375
 30
0.0
  0
VERTEX
  5
A94
  8
TEAM-BODY
 10
-362.935553
 20
-212.480503
 30
0.0
  0
VERTEX
  5
A95
  8
TEAM-BODY
 10
-349.279364
 20
-219.498388
 30
0.0
  0
VERTEX
  5
A96
  8
TEAM-BODY
 10
-335.428017
 20
-226.367199
 30
0.0
  0
VERTEX
  5
A97
  8
TEAM-BODY
 10
-321.391045
 20
-233.082209
 30
0.0
  0
VERTEX
  5
A98
  8
TEAM-BODY
 10
-307.178108
 20
-239.638796
 30
0.0
  0
VERTEX
  5
A99
  8
TEAM-BODY
 10
-292.798988
 20
-246.032449
 30
0.0
  0
VERTEX
  5
A9A
  8
TEAM-BODY
 10
-278.263581
 20
-252.258766
 30
0.0
  0
VERTEX
  5
A9B
  8
TEAM-BODY
 10
-263.581892
 20
-258.313463
 30
0.0
  0
VERTEX
  5
A9C
  8
TEAM-BODY
 10
-248.764024
 20
-264.192373
 30
0.0
  0
VERTEX
  5
A9D
  8
TEAM-BODY
 10
-233.820175
 20
-269.891449
 30
0.0
  0
SEQEND
  5
A9E
  8
TEAM-BODY
  0
POLYLINE
  5
25
  8
TEAM-BODY
 66
     1
 10
0.0
 20
0.0
 30
0.0
 70
   128
  0
VERTEX
  5
A9F
  8
TEAM-BODY
 10
470.200225
 20
-258.122826
 30
0.0
  0
VERTEX
  5
AA0
  8
TEAM-BODY
 10
476.861966
 20
-252.062584
 30
0.0
  0
VERTEX
  5
AA1
  8
TEAM-BODY
 10
483.150293
 20
-245.830857
 30
0.0
  0
VERTEX
  5
AA2
  8
TEAM-BODY
 10
489.060876
 20
-239.431933
 30
0.0
  0
VERTEX
  5
AA3
  8
TEAM-BODY
 10
494.589649
 20
-232.870217
 30
0.0
  0
VERTEX
  5
AA4
  8
TEAM-BODY
 10
499.732807
 20
-226.150224
 30
0.0
  0
VERTEX
  5
AA5
  8
TEAM-BODY
 10
504.486809
 20
-219.276579
 30
0.0
  0
VERTEX
  5
AA6
  8
TEAM-BODY
 10
508.848384
 20
-212.254013
 30
0.0
  0
VERTEX
  5
AA7
  8
TEAM-BODY
 10
512.81453
 20
-205.08736
 30
0.0
  0
VERTEX
  5
AA8
  8
TEAM-BODY
 10
516.382517
 20
-197.78155
 30
0.0
  0
VERTEX
  5
AA9
  8
TEAM-BODY
 10
519.549891
 20
-190.341613
 30
0.0
  0
VERTEX
  5
AAA
  8
TEAM-BODY
 10
522.31447
 20
-182.772669
 30
0.0
  0
VERTEX
  5
AAB
  8
TEAM-BODY
 10
524.674353
 20
-175.079927
 30
0.0
  0
VERTEX
  5
AAC
  8
TEAM-BODY
 10
526.627915
 20
-167.268681
 30
0.0
  0
VERTEX
  5
AAD
  8
TEAM-BODY
 10
528.173812
 20
-159.344307
 30
0.0
  0
VERTEX
  5
AAE
  8
TEAM-BODY
 10
529.310979
 20
-151.312259
 30
0.0
  0
VERTEX
  5
AAF
  8
TEAM-BODY
 10
530.038635
 20
-143.178065
 30
0.0
  0
VERTEX
  5
AB0
  8
TEAM-BODY
 10
530.356278
 20
-134.947323
 30
0.0
  0
VERTEX
  5
AB1
  8
TEAM-BODY
 10
530.26369
 20
-126.625697
 30
0.0
  0
VERTEX
  5
AB2
  8
TEAM-BODY
 10
529.760934
 20
-118.218915
 30
0.0
  0
VERTEX
  5
AB3
  8
TEAM-BODY
 10
528.848357
 20
-109.732763
 30
0.0
  0
VERTEX
  5
AB4
  8
TEAM-BODY
 10
527.526586
 20
-101.173081
 30
0.0
  0
VERTEX
  5
AB5
  8
TEAM-BODY
 10
525.796532
 20
-92.54576
 30
0.0
  0
VERTEX
  5
AB6
  8
TEAM-BODY
 10
523.659384
 20
-83.856737
 30
0.0
  0
VERTEX
  5
AB7
  8
TEAM-BODY
 10
521.116614
 20
-75.111993
 30
0.0
  0
VERTEX
  5
AB8
  8
TEAM-BODY
 10
518.169972
 20
-66.317546
 30
0.0
  0
VERTEX
  5
AB9
  8
TEAM-BODY
 10
514.821486
 20
-57.479448
 30
0.0
  0
VERTEX
  5
ABA
  8
TEAM-BODY
 10
511.07346
 20
-48.603782
 30
0.0
  0
VERTEX
  5
ABB
  8
TEAM-BODY
 10
506.928474
 20
-39.696657
 30
0.0
  0
VERTEX
  5
ABC
  8
TEAM-BODY
 10
502.38938
 20
-30.764203
 30
0.0
  0
VERTEX
  5
ABD
  8
TEAM-BODY
 10
497.459302
 20
-21.812567
 30
0.0
  0
VERTEX
  5
ABE
  8
TEAM-BODY
 10
492.141634
 20
-12.84791
 30
0.0
  0
VERTEX
  5
ABF
  8
TEAM-BODY
 10
486.440035
 20
-3.876402
 30
0.0
  0
VERTEX
  5
AC0
  8
TEAM-BODY
 10
480.358429
 20
5.095783
 30
0.0
  0
VERTEX
  5
AC1
  8
TEAM-BODY
 10
473.901001
 20
14.06247
 30
0.0
  0
VERTEX
  5
AC2
  8
TEAM-BODY
 10
467.072197
 20
23.017487
 30
0.0
  0
VERTEX
  5
AC3
  8
TEAM-BODY
 10
459.876715
 20
31.954673
 30
0.0
  0
VERTEX
  5
AC4
  8
TEAM-BODY
 10
452.319508
 20
40.867875
 30
0.0
  0
VERTEX
  5
AC5
  8
TEAM-BODY
 10
444.405777
 20
49.75096
 30
0.0
  0
VERTEX
  5
AC6
  8
TEAM-BODY
 10
436.140967
 20
58.597813
 30
0.0
  0
VERTEX
  5
AC7
  8
TEAM-BODY
 10
427.530769
 20
67.402347
 30
0.0
  0
VERTEX
  5
AC8
  8
TEAM-BODY
 10
418.581106
 20
76.158502
 30
0.0
  0
VERTEX
  5
AC9
  8
TEAM-BODY
 10
409.298139
 20
84.860252
 30
0.0
  0
VERTEX
  5
ACA
  8
TEAM-BODY
 10
399.688256
 20
93.501607
 30
0.0
  0
VERTEX
  5
ACB
  8
TEAM-BODY
 10
389.758071
 20
102.076621
 30
0.0
  0
VERTEX
  5
ACC
  8
TEAM-BODY
 10
379.514418
 20
110.579391
 30
0.0
  0
VERTEX
  5
ACD
  8
TEAM-BODY
 10
368.964348
 20
119.004067
 30
0.0
  0
VERTEX
  5
ACE
  8
TEAM-BODY
 10
358.115121
 20
127.344851
 30
0.0
  0
VERTEX
  5
ACF
  8
TEAM-BODY
 10
346.974203
 20
135.596
 30
0.0
  0
VERTEX
  5
AD0
  8
TEAM-BODY
 10
335.549263
 20
143.751838
 30
0.0
  0
VERTEX
  5
AD1
  8
TEAM-BODY
 10
323.848164
 20
151.806751
 30
0.0
  0
VERTEX
  5
AD2
  8
TEAM-BODY
 10
311.878957
 20
159.755196
 30
0.0
  0
VERTEX
  5
AD3
  8
TEAM-BODY
 10
299.649881
 20
167.591701
 30
0.0
  0
VERTEX
  5
AD4
  8
TEAM-BODY
 10
287.169353
 20
175.310874
 30
0.0
  0
VERTEX
  5
AD5
  8
TEAM-BODY
 10
274.445961
 20
182.907403
 30
0.0
  0
VERTEX
  5
AD6
  8
TEAM-BODY
 10
261.488463
 20
190.376058
 30
0.0
  0
VERTEX
  5
AD7
  8
TEAM-BODY
 10
248.305775
 20
197.7117
 30
0.0
  0
VERTEX
  5
AD8
  8
TEAM-BODY
 10
234.906971
 20
204.909281
 30
0.0
  0
VERTEX
  5
AD9
  8
TEAM-BODY
 10
221.301272
 20
211.963846
 30
0.0
  0
VERTEX
  5
ADA
  8
TEAM-BODY
 10
207.498042
 20
218.870542
 30
0.0
  0
VERTEX
  5
ADB
  8
TEAM-BODY
 10
193.506781
 20
225.624613
 30
0.0
  0
VERTEX
  5
ADC
  8
TEAM-BODY
 10
179.337117
 20
232.221412
 30
0.0
  0
VERTEX
  5
ADD
  8
TEAM-BODY
 10
164.998803
 20
238.656399
 30
0.0
  0
VERTEX
  5
ADE
  8
TEAM-BODY
 10
150.501707
 20
244.925146
 30
0.0
  0
VERTEX
  5
ADF
  8
TEAM-BODY
 10
135.855806
 20
251.023337
 30
0.0
  0
VERTEX
  5
AE0
  8
TEAM-BODY
 10
121.07118
 20
256.946775
 30
0.0
  0
VERTEX
  5
AE1
  8
TEAM-BODY
 10
106.158004
 20
262.691385
 30
0.0
  0
VERTEX
  5
AE2
  8
TEAM-BODY
 10
91.126541
 20
268.253213
 30
0.0
  0
VERTEX
  5
AE3
  8
TEAM-BODY
 10
75.987137
 20
273.62843
 30
0.0
  0
VERTEX
  5
AE4
  8
TEAM-BODY
 10
60.750211
 20
278.813338
 30
0.0
  0
VERTEX
  5
AE5
  8
TEAM-BODY
 10
45.42625
 20
283.804367
 30
0.0
  0
VERTEX
  5
AE6
  8
TEAM-BODY
 10
30.025799
 20
288.598084
 30
0.0
  0
VERTEX
  5
AE7
  8
TEAM-BODY
 10
14.559458
 20
293.191188
 30
0.0
  0
VERTEX
  5
AE8
  8
TEAM-BODY
 10
-0.962128
 20
297.580519
 30
0.0
  0
VERTEX
  5
AE9
  8
TEAM-BODY
 10
-16.528278
 20
301.763057
 30
0.0
  0
VERTEX
  5
AEA
  8
TEAM-BODY
 10
-32.128278
 20
305.735921
 30
0.0
  0
VERTEX
  5
AEB
  8
TEAM-BODY
 10
-47.751392
 20
309.496379
 30
0.0
  0
VERTEX
  5
AEC
  8
TEAM-BODY
 10
-63.386868
 20
313.041841
 30
0.0
  0
VERTEX
  5
AED
  8
TEAM-BODY
 10
-79.023945
 20
316.369869
 30
0.0
  0
VERTEX
  5
AEE
  8
TEAM-BODY
 10
-94.651861
 20
319.478171
 30
0.0
  0
VERTEX
  5
AEF
  8
TEAM-BODY
 10
-110.259861
 20
322.364609
 30
0.0
  0
VERTEX
  5
AF0
  8
TEAM-BODY
 10
-125.837202
 20
325.027195
 30
0.0
  0
VERTEX
  5
AF1
  8
TEAM-BODY
 10
-141.373164
 20
327.464098
 30
0.0
  0
VERTEX
  5
AF2
  8
TEAM-BODY
 10
-156.857055
 20
329.67364
 30
0.0
  0
VERTEX
  5
AF3
  8
TEAM-BODY
 10
-172.278218
 20
331.6543
 30
0.0
  0
VERTEX
  5
AF4
  8
TEAM-BODY
 10
-187.62604
 20
333.404716
 30
0.0
  0
VERTEX
  5
AF5
  8
TEAM-BODY
 10
-202.889958
 20
334.923683
 30
0.0
  0
VERTEX
  5
AF6
  8
TEAM-BODY
 10
-218.059467
 20
336.210155
 30
0.0
  0
VERTEX
  5
AF7
  8
TEAM-BODY
 10
-233.124128
 20
337.263246
 30
0.0
  0
VERTEX
  5
AF8
  8
TEAM-BODY
 10
-248.073571
 20
338.082233
 30
0.0
  0
VERTEX
  5
AF9
  8
TEAM-BODY
 10
-262.897509
 20
338.666552
 30
0.0
  0
VERTEX
  5
AFA
  8
TEAM-BODY
 10
-277.585739
 20
339.0158
 30
0.0
  0
VERTEX
  5
AFB
  8
TEAM-BODY
 10
-292.128153
 20
339.129736
 30
0.0
  0
VERTEX
  5
AFC
  8
TEAM-BODY
 10
-306.514742
 20
339.008284
 30
0.0
  0
VERTEX
  5
AFD
  8
TEAM-BODY
 10
-320.735604
 20
338.651525
 30
0.0
  0
VERTEX
  5
AFE
  8
TEAM-BODY
 10
-334.780953
 20
338.059707
 30
0.0
  0
VERTEX
  5
AFF
  8
TEAM-BODY
 10
-348.641122
 20
337.233235
 30
0.0
  0
VERTEX
  5
B00
  8
TEAM-BODY
 10
-362.306573
 20
336.172679
 30
0.0
  0
VERTEX
  5
B01
  8
TEAM-BODY
 10
-375.767899
 20
334.878769
 30
0.0
  0
VERTEX
  5
B02
  8
TEAM-BODY
 10
-389.015838
 20
333.352395
 30
0.0
  0
VERTEX
  5
B03
  8
TEAM-BODY
 10
-402.04127
 20
331.594608
 30
0.0
  0
VERTEX
  5
B04
  8
TEAM-BODY
 10
-414.835232
 20
329.606617
 30
0.0
  0
VERTEX
  5
B05
  8
TEAM-BODY
 10
-427.388919
 20
327.389791
 30
0.0
  0
VERTEX
  5
B06
  8
TEAM-BODY
 10
-439.693691
 20
324.945655
 30
0.0
  0
VERTEX
  5
B07
  8
TEAM-BODY
 10
-451.741079
 20
322.275892
 30
0.0
  0
VERTEX
  5
B08
  8
TEAM-BODY
 10
-463.522792
 20
319.382338
 30
0.0
  0
VERTEX
  5
B09
  8
TEAM-BODY
 10
-475.030721
 20
316.266986
 30
0.0
  0
VERTEX
  5
B0A
  8
TEAM-BODY
 10
-486.256947
 20
312.931979
 30
0.0
  0
VERTEX
  5
B0B
  8
TEAM-BODY
 10
-497.193743
 20
309.379613
 30
0.0
  0
VERTEX
  5
B0C
  8
TEAM-BODY
 10
-507.833583
 20
305.612333
 30
0.0
  0
VERTEX
  5
B0D
  8
TEAM-BODY
 10
-518.169143
 20
301.63273
 30
0.0
  0
VERTEX
  5
B0E
  8
TEAM-BODY
 10
-528.19331
 20
297.443544
 30
0.0
  0
VERTEX
  5
B0F
  8
TEAM-BODY
 10
-537.899186
 20
293.047659
 30
0.0
  0
VERTEX
  5
B10
  8
TEAM-BODY
 10
-547.28009
 20
288.448099
 30
0.0
  0
VERTEX
  5
B11
  8
TEAM-BODY
 10
-556.329567
 20
283.648031
 30
0.0
  0
VERTEX
  5
B12
  8
TEAM-BODY
 10
-565.041388
 20
278.650757
 30
0.0
  0
VERTEX
  5
B13
  8
TEAM-BODY
 10
-573.409557
 20
273.459716
 30
0.0
  0
VERTEX
  5
B14
  8
TEAM-BODY
 10
-581.428316
 20
268.078483
 30
0.0
  0
VERTEX
  5
B15
  8
TEAM-BODY
 10
-589.092146
 20
262.510759
 30
0.0
  0
VERTEX
  5
B16
  8
TEAM-BODY
 10
-596.395772
 20
256.760377
 30
0.0
  0
VERTEX
  5
B17
  8
TEAM-BODY
 10
-603.334168
 20
250.831294
 30
0.0
  0
VERTEX
  5
B18
  8
TEAM-BODY
 10
-609.902558
 20
244.727592
 30
0.0
  0
VERTEX
  5
B19
  8
TEAM-BODY
 10
-616.096422
 20
238.45347
 30
0.0
  0
VERTEX
  5
B1A
  8
TEAM-BODY
 10
-621.911497
 20
232.013247
 30
0.0
  0
VERTEX
  5
B1B
  8
TEAM-BODY
 10
-627.343781
 20
225.411355
 30
0.0
  0
VERTEX
  5
B1C
  8
TEAM-BODY
 10
-632.389536
 20
218.652338
 30
0.0
  0
VERTEX
  5
B1D
  8
TEAM-BODY
 10
-637.045288
 20
211.740847
 30
0.0
  0
VERTEX
  5
B1E
  8
TEAM-BODY
 10
-641.307834
 20
204.68164
 30
0.0
  0
VERTEX
  5
B1F
  8
TEAM-BODY
 10
-645.17424
 20
197.479574
 30
0.0
  0
VERTEX
  5
B20
  8
TEAM-BODY
 10
-648.641845
 20
190.139605
 30
0.0
  0
VERTEX
  5
B21
  8
TEAM-BODY
 10
-651.708263
 20
182.666787
 30
0.0
  0
VERTEX
  5
B22
  8
TEAM-BODY
 10
-654.371382
 20
175.066261
 30
0.0
  0
VERTEX
  5
B23
  8
TEAM-BODY
 10
-656.629371
 20
167.343259
 30
0.0
  0
VERTEX
  5
B24
  8
TEAM-BODY
 10
-658.480675
 20
159.503096
 30
0.0
  0
VERTEX
  5
B25
  8
TEAM-BODY
 10
-659.92402
 20
151.551167
 30
0.0
  0
VERTEX
  5
B26
  8
TEAM-BODY
 10
-660.958413
 20
143.492945
 30
0.0
  0
VERTEX
  5
B27
  8
TEAM-BODY
 10
-661.583142
 20
135.333977
 30
0.0
  0
VERTEX
  5
B28
  8
TEAM-BODY
 10
-661.797776
 20
127.079877
 30
0.0
  0
VERTEX
  5
B29
  8
TEAM-BODY
 10
-661.602169
 20
118.736326
 30
0.0
  0
VERTEX
  5
B2A
  8
TEAM-BODY
 10
-660.996455
 20
110.309066
 30
0.0
  0
VERTEX
  5
B2B
  8
TEAM-BODY
 10
-659.981051
 20
101.803898
 30
0.0
  0
VERTEX
  5
B2C
  8
TEAM-BODY
 10
-658.556655
 20
93.226674
 30
0.0
  0
VERTEX
  5
B2D
  8
TEAM-BODY
 10
-656.724247
 20
84.583298
 30
0.0
  0
VERTEX
  5
B2E
  8
TEAM-BODY
 10
-654.48509
 20
75.879719
 30
0.0
  0
VERTEX
  5
B2F
  8
TEAM-BODY
 10
-651.840724
 20
67.121926
 30
0.0
  0
VERTEX
  5
B30
  8
TEAM-BODY
 10
-648.792969
 20
58.315947
 30
0.0
  0
VERTEX
  5
B31
  8
TEAM-BODY
 10
-645.343922
 20
49.467842
 30
0.0
  0
VERTEX
  5
B32
  8
TEAM-BODY
 10
-641.495958
 20
40.583701
 30
0.0
  0
VERTEX
  5
B33
  8
TEAM-BODY
 10
-637.251724
 20
31.669638
 30
0.0
  0
VERTEX
  5
B34
  8
TEAM-BODY
 10
-632.614141
 20
22.731788
 30
0.0
  0
VERTEX
  5
B35
  8
TEAM-BODY
 10
-632.283199
 20
22.12076
 30
0.0
  0
SEQEND
  5
B36
  8
TEAM-BODY
  0
POLYLINE
  5
26
  8
TEAM-BODY
 66
     1
 10
0.0
 20
0.0
 30
0.0
 70
   128
  0
VERTEX
  5
B37
  8
TEAM-BODY
 10
-746.122441
 20
152.557889
 30
0.0
  0
VERTEX
  5
B38
  8
TEAM-BODY
 10
-737.684816
 20
129.235715
 30
0.0
  0
VERTEX
  5
B39
  8
TEAM-BODY
 10
-728.359221
 20
106.253759
 30
0.0
  0
VERTEX
  5
B3A
  8
TEAM-BODY
 10
-718.140838
 20
83.701932
 30
0.0
  0
VERTEX
  5
B3B
  8
TEAM-BODY
 10
-707.027869
 20
61.670742
 30
0.0
  0
VERTEX
  5
B3C
  8
TEAM-BODY
 10
-695.022848
 20
40.248166
 30
0.0
  0
VERTEX
  5
B3D
  8
TEAM-BODY
 10
-682.129844
 20
19.520134
 30
0.0
  0
VERTEX
  5
B3E
  8
TEAM-BODY
 10
-669.127023
 20
0.624662
 30
0.0
  0
VERTEX
  5
B3F
  8
TEAM-BODY
 10
-655.173678
 20
-17.825088
 30
0.0
  0
VERTEX
  5
B40
  8
TEAM-BODY
 10
-640.272723
 20
-35.85431
 30
0.0
  0
VERTEX
  5
B41
  8
TEAM-BODY
 10
-624.446265
 20
-53.463386
 30
0.0
  0
VERTEX
  5
B42
  8
TEAM-BODY
 10
-607.721621
 20
-70.651377
 30
0.0
  0
VERTEX
  5
B43
  8
TEAM-BODY
 10
-588.036569
 20
-89.332433
 30
0.0
  0
VERTEX
  5
B44
  8
TEAM-BODY
 10
-567.326817
 20
-107.478134
 30
0.0
  0
VERTEX
  5
B45
  8
TEAM-BODY
 10
-545.656904
 20
-125.081258
 30
0.0
  0
VERTEX
  5
B46
  8
TEAM-BODY
 10
-523.094796
 20
-142.134713
 30
0.0
  0
VERTEX
  5
B47
  8
TEAM-BODY
 10
-499.71754
 20
-158.633888
 30
0.0
  0
VERTEX
  5
B48
  8
TEAM-BODY
 10
-475.606402
 20
-174.575391
 30
0.0
  0
VERTEX
  5
B49
  8
TEAM-BODY
 10
-450.846216
 20
-189.958729
 30
0.0
  0
VERTEX
  5
B4A
  8
TEAM-BODY
 10
-425.525873
 20
-204.786711
 30
0.0
  0
VERTEX
  5
B4B
  8
TEAM-BODY
 10
-391.048722
 20
-223.701593
 30
0.0
  0
VERTEX
  5
B4C
  8
TEAM-BODY
 10
-355.948961
 20
-241.658212
 30
0.0
  0
VERTEX
  5
B4D
  8
TEAM-BODY
 10
-320.438091
 20
-258.684369
 30
0.0
  0
VERTEX
  5
B4E
  8
TEAM-BODY
 10
-284.799028
 20
-274.769544
 30
0.0
  0
VERTEX
  5
B4F
  8
TEAM-BODY
 10
-249.263648
 20
-289.863917
 30
0.0
  0
VERTEX
  5
B50
  8
TEAM-BODY
 10
-213.87115
 20
-303.982099
 30
0.0
  0
VERTEX
  5
B51
  8
TEAM-BODY
 10
-172.387641
 20
-319.392827
 30
0.0
  0
VERTEX
  5
B52
  8
TEAM-BODY
 10
-131.199119
 20
-333.508716
 30
0.0
  0
VERTEX
  5
B53
  8
TEAM-BODY
 10
-90.35018
 20
-346.369795
 30
0.0
  0
VERTEX
  5
B54
  8
TEAM-BODY
 10
-49.879641
 20
-358.019435
 30
0.0
  0
VERTEX
  5
B55
  8
TEAM-BODY
 10
-9.096815
 20
-368.683782
 30
0.0
  0
VERTEX
  5
B56
  8
TEAM-BODY
 10
31.227981
 20
-378.190151
 30
0.0
  0
VERTEX
  5
B57
  8
TEAM-BODY
 10
71.069729
 20
-386.590209
 30
0.0
  0
VERTEX
  5
B58
  8
TEAM-BODY
 10
110.408317
 20
-393.935693
 30
0.0
  0
VERTEX
  5
B59
  8
TEAM-BODY
 10
149.226307
 20
-400.277639
 30
0.0
  0
VERTEX
  5
B5A
  8
TEAM-BODY
 10
186.904764
 20
-405.597691
 30
0.0
  0
VERTEX
  5
B5B
  8
TEAM-BODY
 10
224.224522
 20
-410.123943
 30
0.0
  0
VERTEX
  5
B5C
  8
TEAM-BODY
 10
261.163423
 20
-413.95483
 30
0.0
  0
VERTEX
  5
B5D
  8
TEAM-BODY
 10
297.700753
 20
-417.182757
 30
0.0
  0
VERTEX
  5
B5E
  8
TEAM-BODY
 10
349.166105
 20
-420.916333
 30
0.0
  0
VERTEX
  5
B5F
  8
TEAM-BODY
 10
399.734835
 20
-423.822433
 30
0.0
  0
VERTEX
  5
B60
  8
TEAM-BODY
 10
449.378257
 20
-426.102773
 30
0.0
  0
VERTEX
  5
B61
  8
TEAM-BODY
 10
498.076681
 20
-427.93924
 30
0.0
  0
VERTEX
  5
B62
  8
TEAM-BODY
 10
545.820231
 20
-429.492831
 30
0.0
  0
SEQEND
  5
B63
  8
TEAM-BODY
  0
POLYLINE
  5
27
  8
TEAM-BODY
 66
     1
 10
0.0
 20
0.0
 30
0.0
 70
   128
  0
VERTEX
  5
B64
  8
TEAM-BODY
 10
-889.752739
 20
479.51168
 30
0.0
  0
VERTEX
  5
B65
  8
TEAM-BODY
 10
-889.016782
 20
443.997457
 30
0.0
  0
VERTEX
  5
B66
  8
TEAM-BODY
 10
-887.915167
 20
408.50961
 30
0.0
  0
VERTEX
  5
B67
  8
TEAM-BODY
 10
-886.251216
 20
373.062324
 30
0.0
  0
VERTEX
  5
B68
  8
TEAM-BODY
 10
-883.82825
 20
337.669787
 30
0.0
  0
VERTEX
  5
B69
  8
TEAM-BODY
 10
-880.44959
 20
302.346186
 30
0.0
  0
VERTEX
  5
B6A
  8
TEAM-BODY
 10
-876.996358
 20
274.649529
 30
0.0
  0
VERTEX
  5
B6B
  8
TEAM-BODY
 10
-872.73631
 20
247.01107
 30
0.0
  0
VERTEX
  5
B6C
  8
TEAM-BODY
 10
-867.57926
 20
219.441171
 30
0.0
  0
VERTEX
  5
B6D
  8
TEAM-BODY
 10
-861.486628
 20
191.984691
 30
0.0
  0
VERTEX
  5
B6E
  8
TEAM-BODY
 10
-854.44931
 20
164.706183
 30
0.0
  0
VERTEX
  5
B6F
  8
TEAM-BODY
 10
-846.458546
 20
137.670429
 30
0.0
  0
VERTEX
  5
B70
  8
TEAM-BODY
 10
-837.505575
 20
110.942214
 30
0.0
  0
VERTEX
  5
B71
  8
TEAM-BODY
 10
-827.581638
 20
84.586322
 30
0.0
  0
VERTEX
  5
B72
  8
TEAM-BODY
 10
-816.677974
 20
58.667535
 30
0.0
  0
VERTEX
  5
B73
  8
TEAM-BODY
 10
-804.785823
 20
33.250637
 30
0.0
  0
VERTEX
  5
B74
  8
TEAM-BODY
 10
-792.135389
 20
8.838822
 30
0.0
  0
VERTEX
  5
B75
  8
TEAM-BODY
 10
-778.514706
 20
-14.965004
 30
0.0
  0
VERTEX
  5
B76
  8
TEAM-BODY
 10
-763.915476
 20
-38.099464
 30
0.0
  0
VERTEX
  5
B77
  8
TEAM-BODY
 10
-748.333554
 20
-60.508926
 30
0.0
  0
VERTEX
  5
B78
  8
TEAM-BODY
 10
-733.061045
 20
-80.598265
 30
0.0
  0
VERTEX
  5
B79
  8
TEAM-BODY
 10
-717.010741
 20
-100.072717
 30
0.0
  0
VERTEX
  5
B7A
  8
TEAM-BODY
 10
-700.220699
 20
-118.945275
 30
0.0
  0
VERTEX
  5
B7B
  8
TEAM-BODY
 10
-682.728976
 20
-137.228929
 30
0.0
  0
VERTEX
  5
B7C
  8
TEAM-BODY
 10
-664.573627
 20
-154.93667
 30
0.0
  0
VERTEX
  5
B7D
  8
TEAM-BODY
 10
-645.79271
 20
-172.081488
 30
0.0
  0
VERTEX
  5
B7E
  8
TEAM-BODY
 10
-626.424281
 20
-188.676375
 30
0.0
  0
VERTEX
  5
B7F
  8
TEAM-BODY
 10
-604.485851
 20
-206.311084
 30
0.0
  0
VERTEX
  5
B80
  8
TEAM-BODY
 10
-581.933233
 20
-223.313386
 30
0.0
  0
VERTEX
  5
B81
  8
TEAM-BODY
 10
-558.817078
 20
-239.700571
 30
0.0
  0
VERTEX
  5
B82
  8
TEAM-BODY
 10
-535.188041
 20
-255.48993
 30
0.0
  0
VERTEX
  5
B83
  8
TEAM-BODY
 10
-511.096774
 20
-270.698754
 30
0.0
  0
VERTEX
  5
B84
  8
TEAM-BODY
 10
-479.777579
 20
-289.282678
 30
0.0
  0
VERTEX
  5
B85
  8
TEAM-BODY
 10
-447.893893
 20
-306.986126
 30
0.0
  0
VERTEX
  5
B86
  8
TEAM-BODY
 10
-415.550827
 20
-323.844979
 30
0.0
  0
VERTEX
  5
B87
  8
TEAM-BODY
 10
-382.853495
 20
-339.895119
 30
0.0
  0
VERTEX
  5
B88
  8
TEAM-BODY
 10
-349.906851
 20
-355.172393
 30
0.0
  0
VERTEX
  5
B89
  8
TEAM-BODY
 10
-316.786551
 20
-369.7065
 30
0.0
  0
VERTEX
  5
B8A
  8
TEAM-BODY
 10
-283.504909
 20
-383.513849
 30
0.0
  0
VERTEX
  5
B8B
  8
TEAM-BODY
 10
-241.773648
 20
-399.739098
 30
0.0
  0
VERTEX
  5
B8C
  8
TEAM-BODY
 10
-199.805543
 20
-414.885032
 30
0.0
  0
VERTEX
  5
B8D
  8
TEAM-BODY
 10
-157.608451
 20
-428.980123
 30
0.0
  0
VERTEX
  5
B8E
  8
TEAM-BODY
 10
-115.190226
 20
-442.052841
 30
0.0
  0
VERTEX
  5
B8F
  8
TEAM-BODY
 10
-72.558727
 20
-454.131656
 30
0.0
  0
VERTEX
  5
B90
  8
TEAM-BODY
 10
-29.721807
 20
-465.245039
 30
0.0
  0
VERTEX
  5
B91
  8
TEAM-BODY
 10
13.312676
 20
-475.421461
 30
0.0
  0
VERTEX
  5
B92
  8
TEAM-BODY
 10
56.536866
 20
-484.689392
 30
0.0
  0
VERTEX
  5
B93
  8
TEAM-BODY
 10
102.014263
 20
-493.455262
 30
0.0
  0
VERTEX
  5
B94
  8
TEAM-BODY
 10
147.682196
 20
-501.288062
 30
0.0
  0
VERTEX
  5
B95
  8
TEAM-BODY
 10
193.528324
 20
-508.225611
 30
0.0
  0
VERTEX
  5
B96
  8
TEAM-BODY
 10
239.532926
 20
-514.317065
 30
0.0
  0
VERTEX
  5
B97
  8
TEAM-BODY
 10
285.675278
 20
-519.613127
 30
0.0
  0
VERTEX
  5
B98
  8
TEAM-BODY
 10
331.934655
 20
-524.164498
 30
0.0
  0
VERTEX
  5
B99
  8
TEAM-BODY
 10
387.571201
 20
-528.71454
 30
0.0
  0
VERTEX
  5
B9A
  8
TEAM-BODY
 10
443.310606
 20
-532.352851
 30
0.0
  0
VERTEX
  5
B9B
  8
TEAM-BODY
 10
499.117059
 20
-535.167043
 30
0.0
  0
VERTEX
  5
B9C
  8
TEAM-BODY
 10
554.954747
 20
-537.244729
 30
0.0
  0
VERTEX
  5
B9D
  8
TEAM-BODY
 10
610.787858
 20
-538.673522
 30
0.0
  0
VERTEX
  5
B9E
  8
TEAM-BODY
 10
683.847908
 20
-539.719588
 30
0.0
  0
VERTEX
  5
B9F
  8
TEAM-BODY
 10
756.850318
 20
-540.078001
 30
0.0
  0
VERTEX
  5
BA0
  8
TEAM-BODY
 10
829.818986
 20
-540.03404
 30
0.0
  0
SEQEND
  5
BA1
  8
TEAM-BODY
  0
LINE
  5
28
  8
TEAM-BODY
 10
669.757288
 20
409.421015
 30
0.0
 11
-561.100524
 21
409.421015
 31
0.0
  0
LINE
  5
29
  8
TEAM-BODY
 10
829.757288
 20
510.034103
 30
0.0
 11
-859.757288
 21
510.034103
 31
0.0
  0
DIMENSION
  5
2A
  8
0
  2
*D1
 10
-889.752739
 20
674.754
 30
0.0
 11
-14.997725
 21
674.754
 31
0.0
 12
-4000.0
 22
-136000.0
 32
0.0
 13
859.757288
 23
480.034103
 33
0.0
 14
-889.752739
 24
479.51168
 34
0.0
1001
ACAD
1000
DSTYLE
1002
{
1070
    78
1070
     0
1070
    40
1040
1.0
1002
}
  0
ARC
  5
39
  8
TEAM-BODY
 10
-554.316648
 20
209.473388
 30
0.0
 40
200.072077
 50
163.505728
 51
196.527468
  0
ARC
  5
3A
  8
TEAM-BODY
 10
-859.757288
 20
480.034103
 30
0.0
 40
30.0
 50
90.0
 51
180.997805
  0
ARC
  5
3B
  8
TEAM-BODY
 10
-554.294869
 20
209.432093
 30
0.0
 40
200.104687
 50
91.949032
 51
163.496161
  0
DIMENSION
  5
3C
  8
0
  2
*D3
 10
1019.157538
 20
-540.03404
 30
0.0
 11
1019.157538
 21
-14.999968
 31
0.0
 12
-4000.0
 22
-136000.0
 32
0.0
 13
829.757288
 23
510.034103
 33
0.0
 14
829.818986
 24
-540.03404
 34
0.0
 50
90.0
1001
ACAD
1000
DSTYLE
1002
{
1070
    78
1070
     0
1070
    40
1040
1.0
1002
}
  0
POLYLINE
  5
4A
  8
TEAM-BODY
 66
     1
 10
0.0
 20
0.0
 30
0.0
 70
   128
  0
VERTEX
  5
BA2
  8
TEAM-BODY
 10
354.964873
 20
-329.785467
 30
0.0
  0
VERTEX
  5
BA3
  8
TEAM-BODY
 10
364.426871
 20
-326.332987
 30
0.0
  0
VERTEX
  5
BA4
  8
TEAM-BODY
 10
379.34419
 20
-320.143169
 30
0.0
  0
VERTEX
  5
BA5
  8
TEAM-BODY
 10
393.886168
 20
-313.297884
 30
0.0
  0
VERTEX
  5
BA6
  8
TEAM-BODY
 10
408.006102
 20
-305.768555
 30
0.0
  0
VERTEX
  5
BA7
  8
TEAM-BODY
 10
421.657294
 20
-297.52661
 30
0.0
  0
VERTEX
  5
BA8
  8
TEAM-BODY
 10
434.563264
 20
-288.710551
 30
0.0
  0
VERTEX
  5
BA9
  8
TEAM-BODY
 10
446.92779
 20
-279.152465
 30
0.0
  0
VERTEX
  5
BAA
  8
TEAM-BODY
 10
458.733853
 20
-268.858523
 30
0.0
  0
VERTEX
  5
BAB
  8
TEAM-BODY
 10
470.200225
 20
-258.122826
 30
0.0
  0
SEQEND
  5
BAC
  8
TEAM-BODY
  0
ARC
  5
4B
  8
TEAM-BODY
 10
546.60695
 20
-198.369649
 30
0.0
 40
231.124521
 50
269.804972
 51
16.337748
  0
LINE
  5
4C
  8
TEAM-BODY
 10
859.757288
 20
-510.034103
 30
0.0
 11
859.757288
 21
480.034103
 31
0.0
  0
LINE
  5
4D
  8
TEAM-BODY
 10
859.757288
 20
-510.034103
 30
0.0
 11
859.757288
 21
480.034103
 31
0.0
  0
ARC
  5
4E
  8
TEAM-BODY
 10
829.757288
 20
-510.034103
 30
0.0
 40
30.0
 50
270.117834
 51
0.0
  0
ARC
  5
4F
  8
TEAM-BODY
 10
575.861259
 20
279.867484
 30
0.0
 40
91.586465
 50
356.643842
 51
82.663334
  0
LINE
  5
50
  8
TEAM-BODY
 10
749.757288
 20
1.287346
 30
0.0
 11
749.757288
 21
329.421015
 31
0.0
  0
LINE
  5
51
  8
TEAM-BODY
 10
667.290646
 20
274.505782
 30
0.0
 11
667.290646
 21
-125.598838
 31
0.0
  0
ARC
  5
52
  8
TEAM-BODY
 10
1249.756911
 20
1.901778
 30
0.0
 40
500.0
 50
180.070409
 51
195.694776
  0
ARC
  5
53
  8
TEAM-BODY
 10
1249.756911
 20
1.901778
 30
0.0
 40
500.0
 50
180.070409
 51
195.694776
  0
ARC
  5
54
  8
TEAM-BODY
 10
829.757288
 20
480.034103
 30
0.0
 40
30.0
 50
0.0
 51
90.0
  0
ARC
  5
55
  8
TEAM-BODY
 10
669.757288
 20
329.421015
 30
0.0
 40
80.0
 50
0.0
 51
90.0
  0
LINE
  5
56
  8
TEAM-AXE
 10
-59.035725
 20
-337.120965
 30
0.0
 11
-108.441524
 21
-322.379318
 31
0.0
  0
LINE
  5
59
  8
TEAM-AXE
 10
-85.374191
 20
-335.335906
 30
0.0
 11
-79.756509
 21
-325.359789
 31
0.0
  0
LINE
  5
5A
  8
TEAM-AXE
 10
-100.242712
 20
-309.218641
 30
0.0
 11
-100.242712
 21
-240.300339
 31
0.0
  0
LINE
  5
5B
  8
TEAM-AXE
 10
-134.150444
 20
-279.965897
 30
0.0
 11
-61.992033
 21
-279.965897
 31
0.0
  0
CIRCLE
  5
5C
  8
TEAM-KAN
  6
BYBLOCK
 10
-100.242712
 20
-279.965897
 30
0.0
 40
26.0
  0
POLYLINE
  5
5E
  8
TEAM-DET1
  6
BYBLOCK
 66
     1
 10
0.0
 20
0.0
 30
0.0
 70
   128
  0
VERTEX
  5
BAD
  8
TEAM-DET1
  6
BYBLOCK
 10
-58.620789
 20
-336.65484
 30
0.0
  0
VERTEX
  5
BAE
  8
TEAM-DET1
  6
BYBLOCK
 10
-59.45066
 20
-337.587091
 30
0.0
  0
VERTEX
  5
BAF
  8
TEAM-DET1
  6
BYBLOCK
 10
-61.194456
 20
-338.240564
 30
0.0
  0
VERTEX
  5
BB0
  8
TEAM-DET1
  6
BYBLOCK
 10
-63.773514
 20
-338.582354
 30
0.0
  0
VERTEX
  5
BB1
  8
TEAM-DET1
  6
BYBLOCK
 10
-67.126156
 20
-338.594401
 30
0.0
  0
VERTEX
  5
BB2
  8
TEAM-DET1
  6
BYBLOCK
 10
-71.09676
 20
-338.26651
 30
0.0
  0
VERTEX
  5
BB3
  8
TEAM-DET1
  6
BYBLOCK
 10
-75.594426
 20
-337.597068
 30
0.0
  0
VERTEX
  5
BB4
  8
TEAM-DET1
  6
BYBLOCK
 10
-80.404387
 20
-336.610666
 30
0.0
  0
VERTEX
  5
BB5
  8
TEAM-DET1
  6
BYBLOCK
 10
-85.374191
 20
-335.335906
 30
0.0
  0
VERTEX
  5
BB6
  8
TEAM-DET1
  6
BYBLOCK
 10
-90.292658
 20
-333.826166
 30
0.0
  0
VERTEX
  5
BB7
  8
TEAM-DET1
  6
BYBLOCK
 10
-94.93452
 20
-332.15624
 30
0.0
  0
VERTEX
  5
BB8
  8
TEAM-DET1
  6
BYBLOCK
 10
-99.152429
 20
-330.386371
 30
0.0
  0
VERTEX
  5
BB9
  8
TEAM-DET1
  6
BYBLOCK
 10
-102.73949
 20
-328.612875
 30
0.0
  0
VERTEX
  5
BBA
  8
TEAM-DET1
  6
BYBLOCK
 10
-105.589402
 20
-326.899946
 30
0.0
  0
VERTEX
  5
BBB
  8
TEAM-DET1
  6
BYBLOCK
 10
-107.594044
 20
-325.321154
 30
0.0
  0
VERTEX
  5
BBC
  8
TEAM-DET1
  6
BYBLOCK
 10
-108.683513
 20
-323.943897
 30
0.0
  0
VERTEX
  5
BBD
  8
TEAM-DET1
  6
BYBLOCK
 10
-108.835211
 20
-322.804841
 30
0.0
  0
VERTEX
  5
BBE
  8
TEAM-DET1
  6
BYBLOCK
 10
-108.047838
 20
-321.953795
 30
0.0
  0
VERTEX
  5
BBF
  8
TEAM-DET1
  6
BYBLOCK
 10
-106.343715
 20
-321.407292
 30
0.0
  0
VERTEX
  5
BC0
  8
TEAM-DET1
  6
BYBLOCK
 10
-103.792326
 20
-321.18486
 30
0.0
  0
VERTEX
  5
BC1
  8
TEAM-DET1
  6
BYBLOCK
 10
-100.473783
 20
-321.287645
 30
0.0
  0
VERTEX
  5
BC2
  8
TEAM-DET1
  6
BYBLOCK
 10
-96.496621
 20
-321.709335
 30
0.0
  0
VERTEX
  5
BC3
  8
TEAM-DET1
  6
BYBLOCK
 10
-92.029827
 20
-322.428085
 30
0.0
  0
VERTEX
  5
BC4
  8
TEAM-DET1
  6
BYBLOCK
 10
-87.193675
 20
-323.423955
 30
0.0
  0
VERTEX
  5
BC5
  8
TEAM-DET1
  6
BYBLOCK
 10
-82.230154
 20
-324.648642
 30
0.0
  0
VERTEX
  5
BC6
  8
TEAM-DET1
  6
BYBLOCK
 10
-77.282864
 20
-326.070936
 30
0.0
  0
VERTEX
  5
BC7
  8
TEAM-DET1
  6
BYBLOCK
 10
-72.592161
 20
-327.629483
 30
0.0
  0
VERTEX
  5
BC8
  8
TEAM-DET1
  6
BYBLOCK
 10
-68.346399
 20
-329.268703
 30
0.0
  0
VERTEX
  5
BC9
  8
TEAM-DET1
  6
BYBLOCK
 10
-64.702345
 20
-330.936857
 30
0.0
  0
VERTEX
  5
BCA
  8
TEAM-DET1
  6
BYBLOCK
 10
-61.834888
 20
-332.558633
 30
0.0
  0
VERTEX
  5
BCB
  8
TEAM-DET1
  6
BYBLOCK
 10
-59.820363
 20
-334.091766
 30
0.0
  0
VERTEX
  5
BCC
  8
TEAM-DET1
  6
BYBLOCK
 10
-58.741354
 20
-335.470382
 30
0.0
  0
VERTEX
  5
BCD
  8
TEAM-DET1
  6
BYBLOCK
 10
-58.620789
 20
-336.65484
 30
0.0
  0
SEQEND
  5
BCE
  8
TEAM-DET1
  6
BYBLOCK
  0
CIRCLE
  5
60
  8
TEAM-INSP
 10
0.0
 20
0.0
 30
0.0
 40
10.0
  0
LINE
  5
62
  8
TEAM-BODY
 10
47.469203
 20
370.704123
 30
0.0
 11
587.556791
 21
370.704123
 31
0.0
  0
POLYLINE
  5
63
  8
TEAM-BODY
 66
     1
 10
0.0
 20
0.0
 30
0.0
 70
   128
  0
VERTEX
  5
BCF
  8
TEAM-BODY
 10
629.757288
 20
-71.234947
 30
0.0
  0
VERTEX
  5
BD0
  8
TEAM-BODY
 10
624.213701
 20
-54.215961
 30
0.0
  0
VERTEX
  5
BD1
  8
TEAM-BODY
 10
617.720889
 20
-37.511812
 30
0.0
  0
VERTEX
  5
BD2
  8
TEAM-BODY
 10
610.345377
 20
-21.136128
 30
0.0
  0
VERTEX
  5
BD3
  8
TEAM-BODY
 10
602.138451
 20
-5.090898
 30
0.0
  0
VERTEX
  5
BD4
  8
TEAM-BODY
 10
592.811276
 20
11.169417
 30
0.0
  0
VERTEX
  5
BD5
  8
TEAM-BODY
 10
582.766674
 20
26.945326
 30
0.0
  0
VERTEX
  5
BD6
  8
TEAM-BODY
 10
572.070298
 20
42.233987
 30
0.0
  0
VERTEX
  5
BD7
  8
TEAM-BODY
 10
560.775343
 20
57.039796
 30
0.0
  0
VERTEX
  5
BD8
  8
TEAM-BODY
 10
548.923362
 20
71.372007
 30
0.0
  0
VERTEX
  5
BD9
  8
TEAM-BODY
 10
535.240425
 20
86.654364
 30
0.0
  0
VERTEX
  5
BDA
  8
TEAM-BODY
 10
520.619408
 20
101.757736
 30
0.0
  0
VERTEX
  5
BDB
  8
TEAM-BODY
 10
505.622115
 20
116.161117
 30
0.0
  0
VERTEX
  5
BDC
  8
TEAM-BODY
 10
489.975149
 20
130.19745
 30
0.0
  0
VERTEX
  5
BDD
  8
TEAM-BODY
 10
473.994628
 20
143.636882
 30
0.0
  0
VERTEX
  5
BDE
  8
TEAM-BODY
 10
458.020203
 20
156.282015
 30
0.0
  0
VERTEX
  5
BDF
  8
TEAM-BODY
 10
441.403419
 20
168.695096
 30
0.0
  0
VERTEX
  5
BE0
  8
TEAM-BODY
 10
424.878999
 20
180.370991
 30
0.0
  0
VERTEX
  5
BE1
  8
TEAM-BODY
 10
407.810464
 20
191.80307
 30
0.0
  0
VERTEX
  5
BE2
  8
TEAM-BODY
 10
382.901988
 20
207.463724
 30
0.0
  0
VERTEX
  5
BE3
  8
TEAM-BODY
 10
357.299289
 20
222.433793
 30
0.0
  0
VERTEX
  5
BE4
  8
TEAM-BODY
 10
331.182362
 20
236.657228
 30
0.0
  0
VERTEX
  5
BE5
  8
TEAM-BODY
 10
304.775416
 20
250.073709
 30
0.0
  0
VERTEX
  5
BE6
  8
TEAM-BODY
 10
277.805834
 20
262.870018
 30
0.0
  0
VERTEX
  5
BE7
  8
TEAM-BODY
 10
250.503995
 20
274.973563
 30
0.0
  0
VERTEX
  5
BE8
  8
TEAM-BODY
 10
222.999358
 20
286.370665
 30
0.0
  0
VERTEX
  5
BE9
  8
TEAM-BODY
 10
184.661619
 20
301.027183
 30
0.0
  0
VERTEX
  5
BEA
  8
TEAM-BODY
 10
145.953018
 20
314.469862
 30
0.0
  0
VERTEX
  5
BEB
  8
TEAM-BODY
 10
106.847767
 20
326.737534
 30
0.0
  0
VERTEX
  5
BEC
  8
TEAM-BODY
 10
67.349478
 20
337.842757
 30
0.0
  0
SEQEND
  5
BED
  8
TEAM-BODY
  0
DIMENSION
  5
64
  8
0
  2
*D2
 10
944.264924
 20
-279.965897
 30
0.0
 11
944.264924
 21
115.034103
 31
0.0
 12
-4000.0
 22
-136000.0
 32
0.0
 13
829.757288
 23
510.034103
 33
0.0
 14
-61.992033
 24
-279.965897
 34
0.0
 50
90.0
1001
ACAD
1000
DSTYLE
1002
{
1070
    78
1070
     0
1070
    40
1040
1.0
1002
}
  0
DIMENSION
  5
72
  8
0
  2
*D0
 10
-100.242712
 20
589.196001
 30
0.0
 11
379.757288
 21
589.196001
 31
0.0
 12
-4000.0
 22
-136000.0
 32
0.0
 13
859.757288
 23
480.034103
 33
0.0
 14
-100.242712
 24
-240.300339
 34
0.0
1001
ACAD
1000
DSTYLE
1002
{
1070
    78
1070
     0
1070
    40
1040
1.0
1002
}
  0
POLYLINE
  5
80
  8
TEAM-BODY
 66
     1
 10
0.0
 20
0.0
 30
0.0
 70
   128
  0
VERTEX
  5
BEE
  8
TEAM-BODY
 10
-233.820175
 20
-269.891449
 30
0.0
  0
VERTEX
  5
BEF
  8
TEAM-BODY
 10
-202.579458
 20
-281.021867
 30
0.0
  0
VERTEX
  5
BF0
  8
TEAM-BODY
 10
-171.304422
 20
-291.994476
 30
0.0
  0
VERTEX
  5
BF1
  8
TEAM-BODY
 10
-139.96075
 20
-302.651466
 30
0.0
  0
VERTEX
  5
BF2
  8
TEAM-BODY
 10
-108.514121
 20
-312.835025
 30
0.0
  0
VERTEX
  5
BF3
  8
TEAM-BODY
 10
-76.930219
 20
-322.387346
 30
0.0
  0
VERTEX
  5
BF4
  8
TEAM-BODY
 10
-45.174723
 20
-331.150618
 30
0.0
  0
VERTEX
  5
BF5
  8
TEAM-BODY
 10
-13.213316
 20
-338.967031
 30
0.0
  0
VERTEX
  5
BF6
  8
TEAM-BODY
 10
16.294169
 20
-345.1665
 30
0.0
  0
VERTEX
  5
BF7
  8
TEAM-BODY
 10
46.009731
 20
-350.346204
 30
0.0
  0
VERTEX
  5
BF8
  8
TEAM-BODY
 10
75.919209
 20
-354.444862
 30
0.0
  0
VERTEX
  5
BF9
  8
TEAM-BODY
 10
106.007338
 20
-357.402833
 30
0.0
  0
VERTEX
  5
BFA
  8
TEAM-BODY
 10
136.258853
 20
-359.160475
 30
0.0
  0
VERTEX
  5
BFB
  8
TEAM-BODY
 10
166.658489
 20
-359.658146
 30
0.0
  0
VERTEX
  5
BFC
  8
TEAM-BODY
 10
192.297483
 20
-359.058853
 30
0.0
  0
VERTEX
  5
BFD
  8
TEAM-BODY
 10
218.021173
 20
-357.493091
 30
0.0
  0
VERTEX
  5
BFE
  8
TEAM-BODY
 10
243.820511
 20
-354.925513
 30
0.0
  0
VERTEX
  5
BFF
  8
TEAM-BODY
 10
269.65604
 20
-351.307227
 30
0.0
  0
VERTEX
  5
C00
  8
TEAM-BODY
 10
289.878809
 20
-347.661375
 30
0.0
  0
VERTEX
  5
C01
  8
TEAM-BODY
 10
309.934686
 20
-343.248079
 30
0.0
  0
VERTEX
  5
C02
  8
TEAM-BODY
 10
329.732458
 20
-338.011527
 30
0.0
  0
VERTEX
  5
C03
  8
TEAM-BODY
 10
349.180912
 20
-331.89591
 30
0.0
  0
VERTEX
  5
C04
  8
TEAM-BODY
 10
354.964873
 20
-329.785467
 30
0.0
  0
SEQEND
  5
C05
  8
TEAM-BODY
  0
ENDSEC
  0
EOF
