  0
SECTION
  2
HEADER
  9
$ACADVER
  1
AC1009
  9
$INSBASE
 10
0.0
 20
0.0
 30
0.0
  9
$EXTMIN
 10
-525.128611
 20
-10.022159
 30
0.0
  9
$EXTMAX
 10
746.510989
 20
693.586286
 30
0.0
  9
$LIMMIN
 10
-525.128611
 20
-10.022159
  9
$LIMMAX
 10
746.510989
 20
693.586286
  9
$ORTHOMODE
 70
     1
  9
$REGENMODE
 70
     1
  9
$FILLMODE
 70
     1
  9
$QTEXTMODE
 70
     0
  9
$MIRRTEXT
 70
     0
  9
$DRAGMODE
 70
     2
  9
$LTSCALE
 40
25.0
  9
$OSMODE
 70
     0
  9
$ATTMODE
 70
     1
  9
$TEXTSIZE
 40
200.0
  9
$TRACEWID
 40
1.0
  9
$TEXTSTYLE
  7
STANDARD
  9
$CLAYER
  8
TEAM-MAS
  9
$CELTYPE
  6
BYLAYER
  9
$CECOLOR
 62
   256
  9
$DIMSCALE
 40
0.0
  9
$DIMASZ
 40
20.0
  9
$DIMEXO
 40
10.0
  9
$DIMDLI
 40
1.0
  9
$DIMRND
 40
0.0
  9
$DIMDLE
 40
0.0
  9
$DIMEXE
 40
1.0
  9
$DIMTP
 40
0.0
  9
$DIMTM
 40
0.0
  9
$DIMTXT
 40
35.0
  9
$DIMCEN
 40
1.0
  9
$DIMTSZ
 40
0.0
  9
$DIMTOL
 70
     0
  9
$DIMLIM
 70
     0
  9
$DIMTIH
 70
     0
  9
$DIMTOH
 70
     0
  9
$DIMSE1
 70
     0
  9
$DIMSE2
 70
     0
  9
$DIMTAD
 70
     0
  9
$DIMZIN
 70
     0
  9
$DIMBLK
  1

  9
$DIMASO
 70
     1
  9
$DIMSHO
 70
     0
  9
$DIMPOST
  1

  9
$DIMAPOST
  1

  9
$DIMALT
 70
     0
  9
$DIMALTD
 70
     2
  9
$DIMALTF
 40
25.4
  9
$DIMLFAC
 40
1.0
  9
$DIMTOFL
 70
     0
  9
$DIMTVP
 40
0.0
  9
$DIMTIX
 70
     0
  9
$DIMSOXD
 70
     0
  9
$DIMSAH
 70
     0
  9
$DIMBLK1
  1

  9
$DIMBLK2
  1

  9
$DIMSTYLE
  2
TEAM
  9
$DIMCLRD
 70
     9
  9
$DIMCLRE
 70
     9
  9
$DIMCLRT
 70
    11
  9
$DIMTFAC
 40
1.0
  9
$DIMGAP
 40
15.0
  9
$LUNITS
 70
     2
  9
$LUPREC
 70
     1
  9
$SKETCHINC
 40
1.0
  9
$FILLETRAD
 40
50.0
  9
$AUNITS
 70
     0
  9
$AUPREC
 70
     0
  9
$MENU
  1
ROPLANS
  9
$ELEVATION
 40
0.0
  9
$PELEVATION
 40
0.0
  9
$THICKNESS
 40
0.0
  9
$LIMCHECK
 70
     0
  9
$BLIPMODE
 70
     1
  9
$CHAMFERA
 40
0.0
  9
$CHAMFERB
 40
0.0
  9
$SKPOLY
 70
     0
  9
$TDCREATE
 40
2450392.957851
  9
$TDUPDATE
 40
2455493.945579
  9
$TDINDWG
 40
1.992456
  9
$TDUSRTIMER
 40
1.992456
  9
$USRTIMER
 70
     1
  9
$ANGBASE
 50
0.0
  9
$ANGDIR
 70
     0
  9
$PDMODE
 70
     0
  9
$PDSIZE
 40
0.0
  9
$PLINEWID
 40
0.0
  9
$COORDS
 70
     2
  9
$SPLFRAME
 70
     0
  9
$SPLINETYPE
 70
     6
  9
$SPLINESEGS
 70
     8
  9
$ATTDIA
 70
     0
  9
$ATTREQ
 70
     0
  9
$HANDLING
 70
     1
  9
$HANDSEED
  5
1AB
  9
$SURFTAB1
 70
    24
  9
$SURFTAB2
 70
    24
  9
$SURFTYPE
 70
     6
  9
$SURFU
 70
     6
  9
$SURFV
 70
     6
  9
$UCSNAME
  2

  9
$UCSORG
 10
0.0
 20
0.0
 30
0.0
  9
$UCSXDIR
 10
1.0
 20
0.0
 30
0.0
  9
$UCSYDIR
 10
0.0
 20
1.0
 30
0.0
  9
$PUCSNAME
  2

  9
$PUCSORG
 10
0.0
 20
0.0
 30
0.0
  9
$PUCSXDIR
 10
1.0
 20
0.0
 30
0.0
  9
$PUCSYDIR
 10
0.0
 20
1.0
 30
0.0
  9
$USERI1
 70
     0
  9
$USERI2
 70
     0
  9
$USERI3
 70
     0
  9
$USERI4
 70
     0
  9
$USERI5
 70
     0
  9
$USERR1
 40
0.0
  9
$USERR2
 40
0.0
  9
$USERR3
 40
0.0
  9
$USERR4
 40
0.0
  9
$USERR5
 40
0.0
  9
$WORLDVIEW
 70
     1
  9
$SHADEDGE
 70
     0
  9
$SHADEDIF
 70
    70
  9
$TILEMODE
 70
     1
  9
$MAXACTVP
 70
    16
  9
$PLIMCHECK
 70
     0
  9
$PEXTMIN
 10
-0.805942
 20
0.005011
 30
0.0
  9
$PEXTMAX
 10
20.250094
 20
11.356329
 30
0.0
  9
$PLIMMIN
 10
0.0
 20
0.0
  9
$PLIMMAX
 10
12.0
 20
9.0
  9
$UNITMODE
 70
     0
  9
$VISRETAIN
 70
     0
  9
$PLINEGEN
 70
     0
  9
$PSLTSCALE
 70
     0
  0
ENDSEC
  0
SECTION
  2
TABLES
  0
TABLE
  2
VPORT
 70
     2
  0
VPORT
  2
*ACTIVE
 70
     0
 10
0.0
 20
0.0
 11
1.0
 21
1.0
 12
110.691189
 22
341.782063
 13
0.0
 23
0.0
 14
1.0
 24
1.0
 15
50.0
 25
50.0
 16
0.0
 26
0.0
 36
1.0
 17
0.0
 27
0.0
 37
0.0
 40
707.929479
 41
1.865779
 42
50.0
 43
0.0
 44
0.0
 50
0.0
 51
0.0
 71
     0
 72
   100
 73
     1
 74
     1
 75
     0
 76
     0
 77
     0
 78
     0
  0
ENDTAB
  0
TABLE
  2
LTYPE
 70
     2
  0
LTYPE
  2
CONTINUOUS
 70
     0
  3
Solid Line
 72
    65
 73
     0
 40
0.0
  0
LTYPE
  2
31
 70
     0
  3

 72
    65
 73
     4
 40
2.1
 49
1.5
 49
-0.3
 49
0.0
 49
-0.3
  0
ENDTAB
  0
TABLE
  2
LAYER
 70
     9
  0
LAYER
  2
0
 70
     0
 62
     7
  6
CONTINUOUS
  0
LAYER
  2
DEFPOINTS
 70
     0
 62
     7
  6
CONTINUOUS
  0
LAYER
  2
TEAM-BODY
 70
     0
 62
     2
  6
CONTINUOUS
  0
LAYER
  2
TEAM-AXE
 70
     0
 62
    10
  6
31
  0
LAYER
  2
TEAM-MAS
 70
     0
 62
     9
  6
CONTINUOUS
  0
LAYER
  2
TEAM-TXT
 70
     0
 62
    11
  6
CONTINUOUS
  0
LAYER
  2
TEAM-DET1
 70
     0
 62
     4
  6
CONTINUOUS
  0
LAYER
  2
TEAM-KAN
 70
     0
 62
     6
  6
CONTINUOUS
  0
LAYER
  2
TEAM-INSP
 70
     0
 62
     5
  6
CONTINUOUS
  0
ENDTAB
  0
TABLE
  2
STYLE
 70
     2
  0
STYLE
  2
STANDARD
 70
     0
 40
0.0
 41
1.0
 50
0.0
 71
     0
 42
200.0
  3
txt
  4

  0
STYLE
  2
TEAM
 70
     0
 40
0.0
 41
0.8
 50
15.0
 71
     0
 42
7.0
  3
ROMANS.shx
  4

  0
ENDTAB
  0
TABLE
  2
VIEW
 70
     0
  0
ENDTAB
  0
TABLE
  2
UCS
 70
     0
  0
ENDTAB
  0
TABLE
  2
APPID
 70
     1
  0
APPID
  2
ACAD
 70
     0
  0
ENDTAB
  0
TABLE
  2
DIMSTYLE
 70
     1
  0
DIMSTYLE
  2
TEAM
 70
     0
  3

  4

  5

  6

  7

 40
0.0
 41
20.0
 42
10.0
 43
1.0
 44
1.0
 45
0.0
 46
0.0
 47
0.0
 48
0.0
140
35.0
141
1.0
142
0.0
143
25.4
144
1.0
145
0.0
146
1.0
147
15.0
 71
     0
 72
     0
 73
     0
 74
     0
 75
     0
 76
     0
 77
     0
 78
     0
170
     0
171
     2
172
     0
173
     0
174
     0
175
     0
176
     9
177
     9
178
    11
  0
ENDTAB
  0
ENDSEC
  0
SECTION
  2
BLOCKS
  0
BLOCK
  8
0
  2
$MODEL_SPACE
 70
     0
 10
0.0
 20
0.0
 30
0.0
  3
$MODEL_SPACE
  1

  0
ENDBLK
  5
190
  8
0
  0
BLOCK
 67
     1
  8
0
  2
$PAPER_SPACE
 70
     0
 10
0.0
 20
0.0
 30
0.0
  3
$PAPER_SPACE
  1

  0
ENDBLK
  5
18E
 67
     1
  8
0
  0
BLOCK
  8
0
  2
*D0
 70
     1
 10
0.0
 20
0.0
 30
0.0
  3
*D0
  1

  0
LINE
  5
3A
  8
0
  6
BYBLOCK
 62
     9
 10
8525.064095
 20
136610.0
 30
0.0
 11
8525.064095
 21
136678.78664
 31
0.0
  0
LINE
  5
3B
  8
0
  6
BYBLOCK
 62
     9
 10
7474.935905
 20
136610.0
 30
0.0
 11
7474.935905
 21
136678.78664
 31
0.0
  0
LINE
  5
3C
  8
0
  6
BYBLOCK
 62
     9
 10
8505.064095
 20
136677.78664
 30
0.0
 11
8055.26378
 21
136677.78664
 31
0.0
  0
LINE
  5
3D
  8
0
  6
BYBLOCK
 62
     9
 10
7494.935905
 20
136677.78664
 30
0.0
 11
7944.73622
 21
136677.78664
 31
0.0
  0
SOLID
  5
3E
  8
0
  6
BYBLOCK
 62
     9
 10
8505.064095
 20
136681.119973
 30
0.0
 11
8505.064095
 21
136674.453306
 31
0.0
 12
8525.064095
 22
136677.78664
 32
0.0
 13
8525.064095
 23
136677.78664
 33
0.0
  0
SOLID
  5
3F
  8
0
  6
BYBLOCK
 62
     9
 10
7494.935905
 20
136681.119973
 30
0.0
 11
7494.935905
 21
136674.453306
 31
0.0
 12
7474.935905
 22
136677.78664
 32
0.0
 13
7474.935905
 23
136677.78664
 33
0.0
  0
TEXT
  5
40
  8
0
  6
BYBLOCK
 62
    11
 10
7954.48622
 20
136660.28664
 30
0.0
 40
35.0
  1
1050
  0
POINT
  5
41
  8
DEFPOINTS
  6
BYBLOCK
 62
     0
 10
8525.064095
 20
136600.0
 30
0.0
  0
POINT
  5
42
  8
DEFPOINTS
  6
BYBLOCK
 62
     0
 10
7474.935905
 20
136600.0
 30
0.0
  0
POINT
  5
43
  8
DEFPOINTS
  6
BYBLOCK
 62
     0
 10
7474.935905
 20
136677.78664
 30
0.0
  0
ENDBLK
  5
45
  8
0
  0
BLOCK
  8
0
  2
*D1
 70
     1
 10
0.0
 20
0.0
 30
0.0
  3
*D1
  1

  0
LINE
  5
6D
  8
0
  6
BYBLOCK
 62
     9
 10
8535.064095
 20
136600.0
 30
0.0
 11
8594.143205
 21
136600.0
 31
0.0
  0
LINE
  5
6E
  8
0
  6
BYBLOCK
 62
     9
 10
8365.750639
 20
136420.0
 30
0.0
 11
8594.143205
 21
136420.0
 31
0.0
  0
LINE
  5
6F
  8
0
  6
BYBLOCK
 62
     9
 10
8593.143205
 20
136580.0
 30
0.0
 11
8593.143205
 21
136553.01378
 31
0.0
  0
LINE
  5
70
  8
0
  6
BYBLOCK
 62
     9
 10
8593.143205
 20
136440.0
 30
0.0
 11
8593.143205
 21
136466.98622
 31
0.0
  0
SOLID
  5
71
  8
0
  6
BYBLOCK
 62
     9
 10
8589.809872
 20
136580.0
 30
0.0
 11
8596.476539
 21
136580.0
 31
0.0
 12
8593.143205
 22
136600.0
 32
0.0
 13
8593.143205
 23
136600.0
 33
0.0
  0
SOLID
  5
72
  8
0
  6
BYBLOCK
 62
     9
 10
8589.809872
 20
136440.0
 30
0.0
 11
8596.476539
 21
136440.0
 31
0.0
 12
8593.143205
 22
136420.0
 32
0.0
 13
8593.143205
 23
136420.0
 33
0.0
  0
TEXT
  5
73
  8
0
  6
BYBLOCK
 62
    11
 10
8610.643205
 20
136476.73622
 30
0.0
 40
35.0
  1
180
 50
90.0
  0
POINT
  5
74
  8
DEFPOINTS
  6
BYBLOCK
 62
     0
 10
8525.064095
 20
136600.0
 30
0.0
  0
POINT
  5
75
  8
DEFPOINTS
  6
BYBLOCK
 62
     0
 10
8355.750639
 20
136420.0
 30
0.0
  0
POINT
  5
76
  8
DEFPOINTS
  6
BYBLOCK
 62
     0
 10
8593.143205
 20
136420.0
 30
0.0
  0
ENDBLK
  5
78
  8
0
  0
BLOCK
  8
0
  2
*D2
 70
     1
 10
0.0
 20
0.0
 30
0.0
  3
*D2
  1

  0
LINE
  5
5F
  8
0
  6
BYBLOCK
 62
     9
 10
8535.064095
 20
136600.0
 30
0.0
 11
8656.28609
 21
136600.0
 31
0.0
  0
LINE
  5
60
  8
0
  6
BYBLOCK
 62
     9
 10
8364.159758
 20
136140.0
 30
0.0
 11
8656.28609
 21
136140.0
 31
0.0
  0
LINE
  5
61
  8
0
  6
BYBLOCK
 62
     9
 10
8655.28609
 20
136580.0
 30
0.0
 11
8655.28609
 21
136418.26378
 31
0.0
  0
LINE
  5
62
  8
0
  6
BYBLOCK
 62
     9
 10
8655.28609
 20
136160.0
 30
0.0
 11
8655.28609
 21
136321.73622
 31
0.0
  0
SOLID
  5
63
  8
0
  6
BYBLOCK
 62
     9
 10
8651.952757
 20
136580.0
 30
0.0
 11
8658.619423
 21
136580.0
 31
0.0
 12
8655.28609
 22
136600.0
 32
0.0
 13
8655.28609
 23
136600.0
 33
0.0
  0
SOLID
  5
64
  8
0
  6
BYBLOCK
 62
     9
 10
8651.952757
 20
136160.0
 30
0.0
 11
8658.619423
 21
136160.0
 31
0.0
 12
8655.28609
 22
136140.0
 32
0.0
 13
8655.28609
 23
136140.0
 33
0.0
  0
TEXT
  5
65
  8
0
  6
BYBLOCK
 62
    11
 10
8672.78609
 20
136331.48622
 30
0.0
 40
35.0
  1
460
 50
90.0
  0
POINT
  5
66
  8
DEFPOINTS
  6
BYBLOCK
 62
     0
 10
8525.064095
 20
136600.0
 30
0.0
  0
POINT
  5
67
  8
DEFPOINTS
  6
BYBLOCK
 62
     0
 10
8354.159758
 20
136140.0
 30
0.0
  0
POINT
  5
68
  8
DEFPOINTS
  6
BYBLOCK
 62
     0
 10
8655.28609
 20
136140.0
 30
0.0
  0
ENDBLK
  5
6A
  8
0
  0
BLOCK
  8
0
  2
*D3
 70
     1
 10
0.0
 20
0.0
 30
0.0
  3
*D3
  1

  0
LINE
  5
29
  8
0
  6
BYBLOCK
 62
     9
 10
8535.064095
 20
136600.0
 30
0.0
 11
8731.74554
 21
136600.0
 31
0.0
  0
LINE
  5
2A
  8
0
  6
BYBLOCK
 62
     9
 10
8010.0
 20
136000.0
 30
0.0
 11
8731.74554
 21
136000.0
 31
0.0
  0
LINE
  5
2B
  8
0
  6
BYBLOCK
 62
     9
 10
8730.74554
 20
136580.0
 30
0.0
 11
8730.74554
 21
136347.561024
 31
0.0
  0
LINE
  5
2C
  8
0
  6
BYBLOCK
 62
     9
 10
8730.74554
 20
136020.0
 30
0.0
 11
8730.74554
 21
136252.438976
 31
0.0
  0
SOLID
  5
2D
  8
0
  6
BYBLOCK
 62
     9
 10
8727.412207
 20
136580.0
 30
0.0
 11
8734.078874
 21
136580.0
 31
0.0
 12
8730.74554
 22
136600.0
 32
0.0
 13
8730.74554
 23
136600.0
 33
0.0
  0
SOLID
  5
2E
  8
0
  6
BYBLOCK
 62
     9
 10
8727.412207
 20
136020.0
 30
0.0
 11
8734.078874
 21
136020.0
 31
0.0
 12
8730.74554
 22
136000.0
 32
0.0
 13
8730.74554
 23
136000.0
 33
0.0
  0
TEXT
  5
2F
  8
0
  6
BYBLOCK
 62
    11
 10
8748.24554
 20
136264.283465
 30
0.0
 40
35.0
  1
600
 50
90.0
  0
POINT
  5
30
  8
DEFPOINTS
  6
BYBLOCK
 62
     0
 10
8525.064095
 20
136600.0
 30
0.0
  0
POINT
  5
32
  8
DEFPOINTS
  6
BYBLOCK
 62
     0
 10
8000.0
 20
136000.0
 30
0.0
  0
POINT
  5
33
  8
DEFPOINTS
  6
BYBLOCK
 62
     0
 10
8730.74554
 20
136000.0
 30
0.0
  0
ENDBLK
  5
35
  8
0
  0
ENDSEC
  0
SECTION
  2
ENTITIES
  0
LINE
  5
20
  8
TEAM-BODY
 10
-243.092834
 20
140.0
 30
0.0
 11
354.159758
 21
140.0
 31
0.0
  0
LINE
  5
22
  8
TEAM-BODY
 10
-56.204955
 20
420.0
 30
0.0
 11
355.750639
 21
420.0
 31
0.0
  0
TEXT
  5
23
  8
TEAM-TXT
 10
35.857097
 20
440.893515
 30
0.0
 40
30.0
  1
team 121855
 41
0.8
 51
15.0
  7
TEAM
  0
POLYLINE
  5
26
  8
TEAM-BODY
 66
     1
 10
0.0
 20
0.0
 30
0.0
 70
   128
  0
VERTEX
  5
196
  8
TEAM-BODY
 10
-56.204981
 20
420.0
 30
0.0
  0
VERTEX
  5
197
  8
TEAM-BODY
 10
-47.111967
 20
425.804254
 30
0.0
  0
VERTEX
  5
198
  8
TEAM-BODY
 10
-37.922728
 20
432.374026
 30
0.0
  0
VERTEX
  5
199
  8
TEAM-BODY
 10
-28.989762
 20
439.418278
 30
0.0
  0
VERTEX
  5
19A
  8
TEAM-BODY
 10
-20.708679
 20
446.509337
 30
0.0
  0
VERTEX
  5
19B
  8
TEAM-BODY
 10
-12.337348
 20
454.208056
 30
0.0
  0
VERTEX
  5
19C
  8
TEAM-BODY
 10
-4.411126
 20
461.973478
 30
0.0
  0
VERTEX
  5
19D
  8
TEAM-BODY
 10
1.641781
 20
468.206057
 30
0.0
  0
VERTEX
  5
19E
  8
TEAM-BODY
 10
7.745492
 20
474.748892
 30
0.0
  0
VERTEX
  5
19F
  8
TEAM-BODY
 10
13.67886
 20
481.35135
 30
0.0
  0
VERTEX
  5
1A0
  8
TEAM-BODY
 10
19.339794
 20
487.86784
 30
0.0
  0
VERTEX
  5
1A1
  8
TEAM-BODY
 10
25.046131
 20
494.646046
 30
0.0
  0
VERTEX
  5
1A2
  8
TEAM-BODY
 10
30.797871
 20
501.685968
 30
0.0
  0
VERTEX
  5
1A3
  8
TEAM-BODY
 10
39.565886
 20
512.808081
 30
0.0
  0
VERTEX
  5
1A4
  8
TEAM-BODY
 10
48.443123
 20
524.533575
 30
0.0
  0
VERTEX
  5
1A5
  8
TEAM-BODY
 10
57.429583
 20
536.862448
 30
0.0
  0
VERTEX
  5
1A6
  8
TEAM-BODY
 10
66.525264
 20
549.794702
 30
0.0
  0
VERTEX
  5
1A7
  8
TEAM-BODY
 10
74.600415
 20
561.645148
 30
0.0
  0
VERTEX
  5
1A8
  8
TEAM-BODY
 10
80.135934
 20
570.0
 30
0.0
  0
SEQEND
  5
1A9
  8
TEAM-BODY
  0
DIMENSION
  5
27
  8
0
  2
*D3
 10
730.74554
 20
0.0
 30
0.0
 11
730.74554
 21
300.0
 31
0.0
 12
-8000.0
 22
-136000.0
 32
0.0
 13
525.064095
 23
600.0
 33
0.0
 14
0.0
 24
0.0
 34
0.0
 50
90.0
1001
ACAD
1000
DSTYLE
1002
{
1070
    78
1070
     0
1070
    40
1040
1.0
1002
}
  0
LINE
  5
36
  8
TEAM-BODY
 10
-525.004048
 20
600.0
 30
0.0
 11
525.064095
 21
600.0
 31
0.0
  0
LINE
  5
37
  8
TEAM-BODY
 10
-525.004048
 20
570.0
 30
0.0
 11
525.064095
 21
570.0
 31
0.0
  0
DIMENSION
  5
38
  8
0
  2
*D0
 10
-525.064095
 20
677.78664
 30
0.0
 11
0.0
 21
677.78664
 31
0.0
 12
-8000.0
 22
-136000.0
 32
0.0
 13
525.064095
 23
600.0
 33
0.0
 14
-525.064095
 24
600.0
 34
0.0
1001
ACAD
1000
DSTYLE
1002
{
1070
    78
1070
     0
1070
    40
1040
1.0
1002
}
  0
ARC
  5
46
  8
TEAM-KAN
 10
-218.935905
 20
120.0
 30
0.0
 40
20.0
 50
90.0
 51
180.0
  0
LINE
  5
48
  8
TEAM-KAN
 10
-290.935905
 20
109.675319
 30
0.0
 11
-238.935905
 21
109.675319
 31
0.0
  0
ARC
  5
49
  8
TEAM-KAN
 10
-310.935905
 20
120.0
 30
0.0
 40
20.0
 50
0.0
 51
90.0
  0
LINE
  5
4A
  8
TEAM-BODY
 10
-243.092834
 20
140.0
 30
0.0
 11
-344.632359
 21
140.0
 31
0.0
  0
LINE
  5
4B
  8
TEAM-BODY
 10
-243.092834
 20
140.0
 30
0.0
 11
-344.628155
 21
140.0
 31
0.0
  0
LINE
  5
4C
  8
TEAM-AXE
 10
-264.935905
 20
172.31972
 30
0.0
 11
-264.935905
 21
78.725108
 31
0.0
  0
LINE
  5
4F
  8
TEAM-KAN
 10
-290.935905
 20
109.675319
 30
0.0
 11
-290.935905
 21
120.0
 31
0.0
  0
LINE
  5
50
  8
TEAM-KAN
 10
-238.935905
 20
109.675319
 30
0.0
 11
-238.935905
 21
120.0
 31
0.0
  0
LINE
  5
51
  8
TEAM-AXE
 10
-264.935905
 20
39.708825
 30
0.0
 11
-264.935905
 21
199.092016
 31
0.0
  0
LINE
  5
52
  8
TEAM-DET1
 10
-254.861457
 20
140.0
 30
0.0
 11
-365.573495
 21
459.092083
 31
0.0
  0
LINE
  5
54
  8
TEAM-DET1
 10
-365.573495
 20
459.092083
 30
0.0
 11
-404.054053
 21
570.0
 31
0.0
  0
CIRCLE
  5
55
  8
TEAM-INSP
 10
0.0
 20
0.0
 30
0.0
 40
10.0
  0
LINE
  5
57
  8
TEAM-BODY
 10
-525.004048
 20
600.0
 30
0.0
 11
-525.004048
 21
570.0
 31
0.0
  0
LINE
  5
58
  8
TEAM-BODY
 10
-525.064095
 20
600.0
 30
0.0
 11
-525.064095
 21
570.0
 31
0.0
  0
ARC
  5
59
  8
TEAM-BODY
 10
754.28755
 20
510.976214
 30
0.0
 40
1159.844419
 50
177.082992
 51
198.653853
  0
LINE
  5
5A
  8
TEAM-BODY
 10
525.064095
 20
600.0
 30
0.0
 11
525.064095
 21
570.0
 31
0.0
  0
LINE
  5
5B
  8
TEAM-BODY
 10
346.245204
 20
140.0
 30
0.0
 11
354.056765
 21
140.0
 31
0.0
  0
LINE
  5
5C
  8
TEAM-BODY
 10
405.750639
 20
570.0
 30
0.0
 11
405.750639
 21
470.0
 31
0.0
  0
DIMENSION
  5
5D
  8
0
  2
*D2
 10
655.28609
 20
140.0
 30
0.0
 11
655.28609
 21
370.0
 31
0.0
 12
-8000.0
 22
-136000.0
 32
0.0
 13
525.064095
 23
600.0
 33
0.0
 14
354.159758
 24
140.0
 34
0.0
 50
90.0
1001
ACAD
1000
DSTYLE
1002
{
1070
    78
1070
     0
1070
    40
1040
1.0
1002
}
  0
DIMENSION
  5
6B
  8
0
  2
*D1
 10
593.143205
 20
420.0
 30
0.0
 11
593.143205
 21
510.0
 31
0.0
 12
-8000.0
 22
-136000.0
 32
0.0
 13
525.064095
 23
600.0
 33
0.0
 14
355.750639
 24
420.0
 34
0.0
 50
90.0
1001
ACAD
1000
DSTYLE
1002
{
1070
    78
1070
     0
1070
    40
1040
1.0
1002
}
  0
ARC
  5
79
  8
TEAM-BODY
 10
355.750639
 20
470.0
 30
0.0
 40
50.0
 50
270.0
 51
0.0
  0
ARC
  5
7A
  8
TEAM-BODY
 10
-519.07365
 20
462.864396
 30
0.0
 40
931.009131
 50
339.708915
 51
6.607934
  0
ENDSEC
  0
EOF
