  0
SECTION
  2
HEADER
  9
$ACADVER
  1
AC1009
  9
$INSBASE
 10
0.0
 20
0.0
 30
0.0
  9
$EXTMIN
 10
-874.833264
 20
-10.022006
 30
0.0
  9
$EXTMAX
 10
984.955158
 20
703.731215
 30
0.0
  9
$LIMMIN
 10
-874.833264
 20
-10.022006
  9
$LIMMAX
 10
984.955158
 20
703.731215
  9
$ORTHOMODE
 70
     1
  9
$REGENMODE
 70
     1
  9
$FILLMODE
 70
     1
  9
$QTEXTMODE
 70
     0
  9
$MIRRTEXT
 70
     0
  9
$DRAGMODE
 70
     2
  9
$LTSCALE
 40
25.0
  9
$OSMODE
 70
     0
  9
$ATTMODE
 70
     1
  9
$TEXTSIZE
 40
200.0
  9
$TRACEWID
 40
1.0
  9
$TEXTSTYLE
  7
STANDARD
  9
$CLAYER
  8
TEAM-MAS
  9
$CELTYPE
  6
BYLAYER
  9
$CECOLOR
 62
   256
  9
$DIMSCALE
 40
0.0
  9
$DIMASZ
 40
20.0
  9
$DIMEXO
 40
10.0
  9
$DIMDLI
 40
1.0
  9
$DIMRND
 40
0.0
  9
$DIMDLE
 40
0.0
  9
$DIMEXE
 40
1.0
  9
$DIMTP
 40
0.0
  9
$DIMTM
 40
0.0
  9
$DIMTXT
 40
35.0
  9
$DIMCEN
 40
1.0
  9
$DIMTSZ
 40
0.0
  9
$DIMTOL
 70
     0
  9
$DIMLIM
 70
     0
  9
$DIMTIH
 70
     0
  9
$DIMTOH
 70
     0
  9
$DIMSE1
 70
     0
  9
$DIMSE2
 70
     0
  9
$DIMTAD
 70
     0
  9
$DIMZIN
 70
     0
  9
$DIMBLK
  1

  9
$DIMASO
 70
     1
  9
$DIMSHO
 70
     0
  9
$DIMPOST
  1

  9
$DIMAPOST
  1

  9
$DIMALT
 70
     0
  9
$DIMALTD
 70
     2
  9
$DIMALTF
 40
25.4
  9
$DIMLFAC
 40
1.0
  9
$DIMTOFL
 70
     0
  9
$DIMTVP
 40
0.0
  9
$DIMTIX
 70
     0
  9
$DIMSOXD
 70
     0
  9
$DIMSAH
 70
     0
  9
$DIMBLK1
  1

  9
$DIMBLK2
  1

  9
$DIMSTYLE
  2
TEAM
  9
$DIMCLRD
 70
     9
  9
$DIMCLRE
 70
     9
  9
$DIMCLRT
 70
    11
  9
$DIMTFAC
 40
1.0
  9
$DIMGAP
 40
15.0
  9
$LUNITS
 70
     2
  9
$LUPREC
 70
     1
  9
$SKETCHINC
 40
1.0
  9
$FILLETRAD
 40
50.0
  9
$AUNITS
 70
     0
  9
$AUPREC
 70
     0
  9
$MENU
  1
ROPLANS
  9
$ELEVATION
 40
0.0
  9
$PELEVATION
 40
0.0
  9
$THICKNESS
 40
0.0
  9
$LIMCHECK
 70
     0
  9
$BLIPMODE
 70
     1
  9
$CHAMFERA
 40
0.0
  9
$CHAMFERB
 40
0.0
  9
$SKPOLY
 70
     0
  9
$TDCREATE
 40
2450392.957851
  9
$TDUPDATE
 40
2455493.945579
  9
$TDINDWG
 40
1.992456
  9
$TDUSRTIMER
 40
1.992456
  9
$USRTIMER
 70
     1
  9
$ANGBASE
 50
0.0
  9
$ANGDIR
 70
     0
  9
$PDMODE
 70
     0
  9
$PDSIZE
 40
0.0
  9
$PLINEWID
 40
0.0
  9
$COORDS
 70
     2
  9
$SPLFRAME
 70
     0
  9
$SPLINETYPE
 70
     6
  9
$SPLINESEGS
 70
     8
  9
$ATTDIA
 70
     0
  9
$ATTREQ
 70
     0
  9
$HANDLING
 70
     1
  9
$HANDSEED
  5
1F5
  9
$SURFTAB1
 70
    24
  9
$SURFTAB2
 70
    24
  9
$SURFTYPE
 70
     6
  9
$SURFU
 70
     6
  9
$SURFV
 70
     6
  9
$UCSNAME
  2

  9
$UCSORG
 10
0.0
 20
0.0
 30
0.0
  9
$UCSXDIR
 10
1.0
 20
0.0
 30
0.0
  9
$UCSYDIR
 10
0.0
 20
1.0
 30
0.0
  9
$PUCSNAME
  2

  9
$PUCSORG
 10
0.0
 20
0.0
 30
0.0
  9
$PUCSXDIR
 10
1.0
 20
0.0
 30
0.0
  9
$PUCSYDIR
 10
0.0
 20
1.0
 30
0.0
  9
$USERI1
 70
     0
  9
$USERI2
 70
     0
  9
$USERI3
 70
     0
  9
$USERI4
 70
     0
  9
$USERI5
 70
     0
  9
$USERR1
 40
0.0
  9
$USERR2
 40
0.0
  9
$USERR3
 40
0.0
  9
$USERR4
 40
0.0
  9
$USERR5
 40
0.0
  9
$WORLDVIEW
 70
     1
  9
$SHADEDGE
 70
     0
  9
$SHADEDIF
 70
    70
  9
$TILEMODE
 70
     1
  9
$MAXACTVP
 70
    16
  9
$PLIMCHECK
 70
     0
  9
$PEXTMIN
 10
-0.805942
 20
0.005011
 30
0.0
  9
$PEXTMAX
 10
20.250094
 20
11.356329
 30
0.0
  9
$PLIMMIN
 10
0.0
 20
0.0
  9
$PLIMMAX
 10
12.0
 20
9.0
  9
$UNITMODE
 70
     0
  9
$VISRETAIN
 70
     0
  9
$PLINEGEN
 70
     0
  9
$PSLTSCALE
 70
     0
  0
ENDSEC
  0
SECTION
  2
TABLES
  0
TABLE
  2
VPORT
 70
     2
  0
VPORT
  2
*ACTIVE
 70
     0
 10
0.0
 20
0.0
 11
1.0
 21
1.0
 12
55.060947
 22
346.854604
 13
0.0
 23
0.0
 14
1.0
 24
1.0
 15
50.0
 25
50.0
 16
0.0
 26
0.0
 36
1.0
 17
0.0
 27
0.0
 37
0.0
 40
1000.070354
 41
1.865779
 42
50.0
 43
0.0
 44
0.0
 50
0.0
 51
0.0
 71
     0
 72
   100
 73
     1
 74
     1
 75
     0
 76
     0
 77
     0
 78
     0
  0
ENDTAB
  0
TABLE
  2
LTYPE
 70
     2
  0
LTYPE
  2
CONTINUOUS
 70
     0
  3
Solid Line
 72
    65
 73
     0
 40
0.0
  0
LTYPE
  2
31
 70
     0
  3

 72
    65
 73
     4
 40
2.1
 49
1.5
 49
-0.3
 49
0.0
 49
-0.3
  0
ENDTAB
  0
TABLE
  2
LAYER
 70
     9
  0
LAYER
  2
0
 70
     0
 62
     7
  6
CONTINUOUS
  0
LAYER
  2
DEFPOINTS
 70
     0
 62
     7
  6
CONTINUOUS
  0
LAYER
  2
TEAM-BODY
 70
     0
 62
     2
  6
CONTINUOUS
  0
LAYER
  2
TEAM-AXE
 70
     0
 62
    10
  6
31
  0
LAYER
  2
TEAM-MAS
 70
     0
 62
     9
  6
CONTINUOUS
  0
LAYER
  2
TEAM-TXT
 70
     0
 62
    11
  6
CONTINUOUS
  0
LAYER
  2
TEAM-DET1
 70
     0
 62
     4
  6
CONTINUOUS
  0
LAYER
  2
TEAM-KAN
 70
     0
 62
     6
  6
CONTINUOUS
  0
LAYER
  2
TEAM-INSP
 70
     0
 62
     5
  6
CONTINUOUS
  0
ENDTAB
  0
TABLE
  2
STYLE
 70
     2
  0
STYLE
  2
STANDARD
 70
     0
 40
0.0
 41
1.0
 50
0.0
 71
     0
 42
200.0
  3
txt
  4

  0
STYLE
  2
TEAM
 70
     0
 40
0.0
 41
0.8
 50
15.0
 71
     0
 42
7.0
  3
ROMANS.shx
  4

  0
ENDTAB
  0
TABLE
  2
VIEW
 70
     0
  0
ENDTAB
  0
TABLE
  2
UCS
 70
     0
  0
ENDTAB
  0
TABLE
  2
APPID
 70
     1
  0
APPID
  2
ACAD
 70
     0
  0
ENDTAB
  0
TABLE
  2
DIMSTYLE
 70
     1
  0
DIMSTYLE
  2
TEAM
 70
     0
  3

  4

  5

  6

  7

 40
0.0
 41
20.0
 42
10.0
 43
1.0
 44
1.0
 45
0.0
 46
0.0
 47
0.0
 48
0.0
140
35.0
141
1.0
142
0.0
143
25.4
144
1.0
145
0.0
146
1.0
147
15.0
 71
     0
 72
     0
 73
     0
 74
     0
 75
     0
 76
     0
 77
     0
 78
     0
170
     0
171
     2
172
     0
173
     0
174
     0
175
     0
176
     9
177
     9
178
    11
  0
ENDTAB
  0
ENDSEC
  0
SECTION
  2
BLOCKS
  0
BLOCK
  8
0
  2
$MODEL_SPACE
 70
     0
 10
0.0
 20
0.0
 30
0.0
  3
$MODEL_SPACE
  1

  0
ENDBLK
  5
1CC
  8
0
  0
BLOCK
 67
     1
  8
0
  2
$PAPER_SPACE
 70
     0
 10
0.0
 20
0.0
 30
0.0
  3
$PAPER_SPACE
  1

  0
ENDBLK
  5
1CA
 67
     1
  8
0
  0
BLOCK
  8
0
  2
*D0
 70
     1
 10
0.0
 20
0.0
 30
0.0
  3
*D0
  1

  0
LINE
  5
59
  8
0
  6
BYBLOCK
 62
     9
 10
12884.757288
 20
136600.0
 30
0.0
 11
12970.133013
 21
136600.0
 31
0.0
  0
LINE
  5
5A
  8
0
  6
BYBLOCK
 62
     9
 10
12555.371714
 20
136140.0
 30
0.0
 11
12970.133013
 21
136140.0
 31
0.0
  0
LINE
  5
5B
  8
0
  6
BYBLOCK
 62
     9
 10
12969.133013
 20
136580.0
 30
0.0
 11
12969.133013
 21
136418.26378
 31
0.0
  0
LINE
  5
5C
  8
0
  6
BYBLOCK
 62
     9
 10
12969.133013
 20
136160.0
 30
0.0
 11
12969.133013
 21
136321.73622
 31
0.0
  0
SOLID
  5
5D
  8
0
  6
BYBLOCK
 62
     9
 10
12965.79968
 20
136580.0
 30
0.0
 11
12972.466347
 21
136580.0
 31
0.0
 12
12969.133013
 22
136600.0
 32
0.0
 13
12969.133013
 23
136600.0
 33
0.0
  0
SOLID
  5
5E
  8
0
  6
BYBLOCK
 62
     9
 10
12965.79968
 20
136160.0
 30
0.0
 11
12972.466347
 21
136160.0
 31
0.0
 12
12969.133013
 22
136140.0
 32
0.0
 13
12969.133013
 23
136140.0
 33
0.0
  0
TEXT
  5
5F
  8
0
  6
BYBLOCK
 62
    11
 10
12986.633013
 20
136331.48622
 30
0.0
 40
35.0
  1
460
 50
90.0
  0
POINT
  5
60
  8
DEFPOINTS
  6
BYBLOCK
 62
     0
 10
12874.757288
 20
136600.0
 30
0.0
  0
POINT
  5
61
  8
DEFPOINTS
  6
BYBLOCK
 62
     0
 10
12545.371714
 20
136140.0
 30
0.0
  0
POINT
  5
62
  8
DEFPOINTS
  6
BYBLOCK
 62
     0
 10
12969.133013
 20
136140.0
 30
0.0
  0
ENDBLK
  5
64
  8
0
  0
BLOCK
  8
0
  2
*D1
 70
     1
 10
0.0
 20
0.0
 30
0.0
  3
*D1
  1

  0
LINE
  5
24
  8
0
  6
BYBLOCK
 62
     9
 10
11125.242712
 20
136610.0
 30
0.0
 11
11125.242712
 21
136688.963567
 31
0.0
  0
LINE
  5
25
  8
0
  6
BYBLOCK
 62
     9
 10
12874.757288
 20
136610.0
 30
0.0
 11
12874.757288
 21
136688.963567
 31
0.0
  0
LINE
  5
26
  8
0
  6
BYBLOCK
 62
     9
 10
11145.242712
 20
136687.963567
 30
0.0
 11
11944.73622
 21
136687.963567
 31
0.0
  0
LINE
  5
27
  8
0
  6
BYBLOCK
 62
     9
 10
12854.757288
 20
136687.963567
 30
0.0
 11
12055.26378
 21
136687.963567
 31
0.0
  0
SOLID
  5
28
  8
0
  6
BYBLOCK
 62
     9
 10
11145.242712
 20
136691.296901
 30
0.0
 11
11145.242712
 21
136684.630234
 31
0.0
 12
11125.242712
 22
136687.963567
 32
0.0
 13
11125.242712
 23
136687.963567
 33
0.0
  0
SOLID
  5
29
  8
0
  6
BYBLOCK
 62
     9
 10
12854.757288
 20
136691.296901
 30
0.0
 11
12854.757288
 21
136684.630234
 31
0.0
 12
12874.757288
 22
136687.963567
 32
0.0
 13
12874.757288
 23
136687.963567
 33
0.0
  0
TEXT
  5
2A
  8
0
  6
BYBLOCK
 62
    11
 10
11954.48622
 20
136670.463567
 30
0.0
 40
35.0
  1
1750
  0
POINT
  5
2B
  8
DEFPOINTS
  6
BYBLOCK
 62
     0
 10
11125.242712
 20
136600.0
 30
0.0
  0
POINT
  5
2D
  8
DEFPOINTS
  6
BYBLOCK
 62
     0
 10
12874.757288
 20
136600.0
 30
0.0
  0
POINT
  5
2E
  8
DEFPOINTS
  6
BYBLOCK
 62
     0
 10
12874.757288
 20
136687.963567
 30
0.0
  0
ENDBLK
  5
30
  8
0
  0
BLOCK
  8
0
  2
*D2
 70
     1
 10
0.0
 20
0.0
 30
0.0
  3
*D2
  1

  0
LINE
  5
44
  8
0
  6
BYBLOCK
 62
     9
 10
11888.757288
 20
136099.675319
 30
0.0
 11
11888.757288
 21
136067.702423
 31
0.0
  0
LINE
  5
45
  8
0
  6
BYBLOCK
 62
     9
 10
11940.757288
 20
136099.675319
 30
0.0
 11
11940.757288
 21
136067.702423
 31
0.0
  0
LINE
  5
46
  8
0
  6
BYBLOCK
 62
     9
 10
11868.757288
 20
136068.702423
 30
0.0
 11
11848.757288
 21
136068.702423
 31
0.0
  0
LINE
  5
47
  8
0
  6
BYBLOCK
 62
     9
 10
11960.757288
 20
136068.702423
 30
0.0
 11
11980.757288
 21
136068.702423
 31
0.0
  0
TEXT
  5
48
  8
0
  6
BYBLOCK
 62
    11
 10
11945.206255
 20
136051.202423
 30
0.0
 40
35.0
  1
52
  0
LINE
  5
49
  8
0
  6
BYBLOCK
 62
     9
 10
11888.757288
 20
136068.702423
 30
0.0
 11
11940.757288
 21
136068.702423
 31
0.0
  0
SOLID
  5
4A
  8
0
  6
BYBLOCK
 62
     9
 10
11868.757288
 20
136072.035757
 30
0.0
 11
11868.757288
 21
136065.36909
 31
0.0
 12
11888.757288
 22
136068.702423
 32
0.0
 13
11888.757288
 23
136068.702423
 33
0.0
  0
SOLID
  5
4B
  8
0
  6
BYBLOCK
 62
     9
 10
11960.757288
 20
136072.035757
 30
0.0
 11
11960.757288
 21
136065.36909
 31
0.0
 12
11940.757288
 22
136068.702423
 32
0.0
 13
11940.757288
 23
136068.702423
 33
0.0
  0
POINT
  5
4C
  8
DEFPOINTS
  6
BYBLOCK
 62
     0
 10
11888.757288
 20
136109.675319
 30
0.0
  0
POINT
  5
4D
  8
DEFPOINTS
  6
BYBLOCK
 62
     0
 10
11940.757288
 20
136109.675319
 30
0.0
  0
POINT
  5
4E
  8
DEFPOINTS
  6
BYBLOCK
 62
     0
 10
11940.757288
 20
136068.702423
 30
0.0
  0
ENDBLK
  5
50
  8
0
  0
ENDSEC
  0
SECTION
  2
ENTITIES
  0
LINE
  5
20
  8
TEAM-BODY
 10
545.371714
 20
140.0
 30
0.0
 11
-646.314607
 21
140.0
 31
0.0
  0
DIMENSION
  5
22
  8
0
  2
*D1
 10
874.757288
 20
687.963567
 30
0.0
 11
0.0
 21
687.963567
 31
0.0
 12
-12000.0
 22
-136000.0
 32
0.0
 13
-874.757288
 23
600.0
 33
0.0
 14
874.757288
 24
600.0
 34
0.0
1001
ACAD
1000
DSTYLE
1002
{
1070
    78
1070
     0
1070
    40
1040
1.0
1002
}
  0
LINE
  5
31
  8
TEAM-BODY
 10
874.757288
 20
600.0
 30
0.0
 11
-874.757288
 21
600.0
 31
0.0
  0
LINE
  5
32
  8
TEAM-BODY
 10
874.757288
 20
570.0
 30
0.0
 11
-874.757288
 21
570.0
 31
0.0
  0
POLYLINE
  5
33
  8
TEAM-DET1
 66
     1
 10
0.0
 20
0.0
 30
0.0
 70
   128
  0
VERTEX
  5
1D2
  8
TEAM-DET1
 10
-60.302203
 20
497.364596
 30
0.0
  0
VERTEX
  5
1D3
  8
TEAM-DET1
 10
-61.132074
 20
502.365916
 30
0.0
  0
VERTEX
  5
1D4
  8
TEAM-DET1
 10
-62.87587
 20
507.185433
 30
0.0
  0
VERTEX
  5
1D5
  8
TEAM-DET1
 10
-65.454928
 20
511.622174
 30
0.0
  0
VERTEX
  5
1D6
  8
TEAM-DET1
 10
-68.807569
 20
515.560332
 30
0.0
  0
VERTEX
  5
1D7
  8
TEAM-DET1
 10
-72.778174
 20
518.805223
 30
0.0
  0
VERTEX
  5
1D8
  8
TEAM-DET1
 10
-77.275839
 20
521.26601
 30
0.0
  0
VERTEX
  5
1D9
  8
TEAM-DET1
 10
-82.085801
 20
522.805693
 30
0.0
  0
VERTEX
  5
1DA
  8
TEAM-DET1
 10
-87.055604
 20
523.363429
 30
0.0
  0
VERTEX
  5
1DB
  8
TEAM-DET1
 10
-91.974071
 20
522.8994
 30
0.0
  0
VERTEX
  5
1DC
  8
TEAM-DET1
 10
-96.615933
 20
521.435277
 30
0.0
  0
VERTEX
  5
1DD
  8
TEAM-DET1
 10
-100.833843
 20
519.01815
 30
0.0
  0
VERTEX
  5
1DE
  8
TEAM-DET1
 10
-104.420903
 20
515.775276
 30
0.0
  0
VERTEX
  5
1DF
  8
TEAM-DET1
 10
-107.270815
 20
511.823971
 30
0.0
  0
VERTEX
  5
1E0
  8
TEAM-DET1
 10
-109.275458
 20
507.329302
 30
0.0
  0
VERTEX
  5
1E1
  8
TEAM-DET1
 10
-110.364927
 20
502.491334
 30
0.0
  0
VERTEX
  5
1E2
  8
TEAM-DET1
 10
-110.516625
 20
497.446757
 30
0.0
  0
VERTEX
  5
1E3
  8
TEAM-DET1
 10
-109.729251
 20
492.435039
 30
0.0
  0
VERTEX
  5
1E4
  8
TEAM-DET1
 10
-108.025129
 20
487.585745
 30
0.0
  0
VERTEX
  5
1E5
  8
TEAM-DET1
 10
-105.47374
 20
483.114424
 30
0.0
  0
VERTEX
  5
1E6
  8
TEAM-DET1
 10
-102.155196
 20
479.169032
 30
0.0
  0
VERTEX
  5
1E7
  8
TEAM-DET1
 10
-98.178034
 20
475.899157
 30
0.0
  0
VERTEX
  5
1E8
  8
TEAM-DET1
 10
-93.711241
 20
473.453397
 30
0.0
  0
VERTEX
  5
1E9
  8
TEAM-DET1
 10
-88.875088
 20
471.91286
 30
0.0
  0
VERTEX
  5
1EA
  8
TEAM-DET1
 10
-83.911568
 20
471.365508
 30
0.0
  0
VERTEX
  5
1EB
  8
TEAM-DET1
 10
-78.964278
 20
471.835138
 30
0.0
  0
VERTEX
  5
1EC
  8
TEAM-DET1
 10
-74.273574
 20
473.309541
 30
0.0
  0
VERTEX
  5
1ED
  8
TEAM-DET1
 10
-70.027812
 20
475.726005
 30
0.0
  0
VERTEX
  5
1EE
  8
TEAM-DET1
 10
-66.383759
 20
478.996427
 30
0.0
  0
VERTEX
  5
1EF
  8
TEAM-DET1
 10
-63.516301
 20
482.949851
 30
0.0
  0
VERTEX
  5
1F0
  8
TEAM-DET1
 10
-61.501776
 20
487.45903
 30
0.0
  0
VERTEX
  5
1F1
  8
TEAM-DET1
 10
-60.422768
 20
492.31295
 30
0.0
  0
VERTEX
  5
1F2
  8
TEAM-DET1
 10
-60.302203
 20
497.364596
 30
0.0
  0
SEQEND
  5
1F3
  8
TEAM-DET1
  0
LINE
  5
35
  8
TEAM-AXE
 10
-60.362485
 20
494.838773
 30
0.0
 11
-110.122938
 21
494.940898
 31
0.0
  0
LINE
  5
38
  8
TEAM-AXE
 10
-89.514838
 20
523.131415
 30
0.0
 11
-81.437923
 21
471.600323
 31
0.0
  0
CIRCLE
  5
39
  8
TEAM-INSP
 10
0.0
 20
0.0
 30
0.0
 40
10.0
  0
LINE
  5
3B
  8
TEAM-AXE
 10
-85.242712
 20
172.31972
 30
0.0
 11
-85.242712
 21
78.725108
 31
0.0
  0
ARC
  5
3C
  8
TEAM-KAN
 10
-39.242712
 20
120.0
 30
0.0
 40
20.0
 50
90.0
 51
180.0
  0
ARC
  5
3E
  8
TEAM-KAN
 10
-131.242712
 20
120.0
 30
0.0
 40
20.0
 50
0.0
 51
90.0
  0
LINE
  5
3F
  8
TEAM-KAN
 10
-59.242712
 20
109.675319
 30
0.0
 11
-59.242712
 21
120.0
 31
0.0
  0
LINE
  5
40
  8
TEAM-KAN
 10
-111.242712
 20
109.675319
 30
0.0
 11
-111.242712
 21
120.0
 31
0.0
  0
LINE
  5
41
  8
TEAM-KAN
 10
-111.242712
 20
109.675319
 30
0.0
 11
-59.242712
 21
109.675319
 31
0.0
  0
DIMENSION
  5
42
  8
0
  2
*D2
 10
-59.242712
 20
68.702423
 30
0.0
 11
-29.242712
 21
68.702423
 31
0.0
 12
-12000.0
 22
-136000.0
 32
0.0
 70
   128
 13
-111.242712
 23
109.675319
 33
0.0
 14
-59.242712
 24
109.675319
 34
0.0
1001
ACAD
1000
DSTYLE
1002
{
1070
    78
1070
     0
1070
    40
1040
1.0
1002
}
  0
TEXT
  5
51
  8
TEAM-TXT
 10
-546.891924
 20
440.893515
 30
0.0
 40
30.0
  1
team 121855
 41
0.8
 51
15.0
  7
TEAM
  0
LINE
  5
54
  8
TEAM-BODY
 10
-874.757288
 20
570.0
 30
0.0
 11
-874.757288
 21
600.0
 31
0.0
  0
ARC
  5
55
  8
TEAM-BODY
 10
740.205639
 20
643.969201
 30
0.0
 40
1475.270601
 50
182.873982
 51
199.975077
  0
LINE
  5
56
  8
TEAM-BODY
 10
874.757288
 20
600.0
 30
0.0
 11
874.757288
 21
570.0
 31
0.0
  0
DIMENSION
  5
57
  8
0
  2
*D0
 10
969.133013
 20
140.0
 30
0.0
 11
969.133013
 21
370.0
 31
0.0
 12
-12000.0
 22
-136000.0
 32
0.0
 13
874.757288
 23
600.0
 33
0.0
 14
545.371714
 24
140.0
 34
0.0
 50
90.0
1001
ACAD
1000
DSTYLE
1002
{
1070
    78
1070
     0
1070
    40
1040
1.0
1002
}
  0
ARC
  5
65
  8
TEAM-BODY
 10
-140.386349
 20
760.150259
 30
0.0
 40
924.581237
 50
317.876077
 51
348.131807
  0
ENDSEC
  0
EOF
