  0
SECTION
  2
HEADER
  9
$ACADVER
  1
AC1009
  9
$INSBASE
 10
0.0
 20
0.0
 30
0.0
  9
$EXTMIN
 10
-916.959955
 20
-650.065531
 30
-0.000006
  9
$EXTMAX
 10
968.39427
 20
526.578241
 30
0.0
  9
$LIMMIN
 10
-916.959955
 20
-650.065531
  9
$LIMMAX
 10
968.39427
 20
526.578241
  9
$ORTHOMODE
 70
     1
  9
$REGENMODE
 70
     1
  9
$FILLMODE
 70
     1
  9
$QTEXTMODE
 70
     0
  9
$MIRRTEXT
 70
     0
  9
$DRAGMODE
 70
     2
  9
$LTSCALE
 40
25.0
  9
$OSMODE
 70
     0
  9
$ATTMODE
 70
     1
  9
$TEXTSIZE
 40
200.0
  9
$TRACEWID
 40
1.0
  9
$TEXTSTYLE
  7
STANDARD
  9
$CLAYER
  8
TEAM-MAS
  9
$CELTYPE
  6
BYLAYER
  9
$CECOLOR
 62
   256
  9
$DIMSCALE
 40
0.0
  9
$DIMASZ
 40
20.0
  9
$DIMEXO
 40
10.0
  9
$DIMDLI
 40
1.0
  9
$DIMRND
 40
0.0
  9
$DIMDLE
 40
0.0
  9
$DIMEXE
 40
1.0
  9
$DIMTP
 40
0.0
  9
$DIMTM
 40
0.0
  9
$DIMTXT
 40
35.0
  9
$DIMCEN
 40
1.0
  9
$DIMTSZ
 40
0.0
  9
$DIMTOL
 70
     0
  9
$DIMLIM
 70
     0
  9
$DIMTIH
 70
     0
  9
$DIMTOH
 70
     0
  9
$DIMSE1
 70
     0
  9
$DIMSE2
 70
     0
  9
$DIMTAD
 70
     0
  9
$DIMZIN
 70
     0
  9
$DIMBLK
  1

  9
$DIMASO
 70
     1
  9
$DIMSHO
 70
     0
  9
$DIMPOST
  1

  9
$DIMAPOST
  1

  9
$DIMALT
 70
     0
  9
$DIMALTD
 70
     2
  9
$DIMALTF
 40
25.4
  9
$DIMLFAC
 40
1.0
  9
$DIMTOFL
 70
     0
  9
$DIMTVP
 40
0.0
  9
$DIMTIX
 70
     0
  9
$DIMSOXD
 70
     0
  9
$DIMSAH
 70
     0
  9
$DIMBLK1
  1

  9
$DIMBLK2
  1

  9
$DIMSTYLE
  2
TEAM
  9
$DIMCLRD
 70
     9
  9
$DIMCLRE
 70
     9
  9
$DIMCLRT
 70
    11
  9
$DIMTFAC
 40
1.0
  9
$DIMGAP
 40
15.0
  9
$LUNITS
 70
     2
  9
$LUPREC
 70
     1
  9
$SKETCHINC
 40
1.0
  9
$FILLETRAD
 40
50.0
  9
$AUNITS
 70
     0
  9
$AUPREC
 70
     0
  9
$MENU
  1
ROPLANS
  9
$ELEVATION
 40
0.0
  9
$PELEVATION
 40
0.0
  9
$THICKNESS
 40
0.0
  9
$LIMCHECK
 70
     0
  9
$BLIPMODE
 70
     1
  9
$CHAMFERA
 40
0.0
  9
$CHAMFERB
 40
0.0
  9
$SKPOLY
 70
     0
  9
$TDCREATE
 40
2450392.957851
  9
$TDUPDATE
 40
2455534.564459
  9
$TDINDWG
 40
2.577934
  9
$TDUSRTIMER
 40
2.577934
  9
$USRTIMER
 70
     1
  9
$ANGBASE
 50
0.0
  9
$ANGDIR
 70
     0
  9
$PDMODE
 70
     0
  9
$PDSIZE
 40
0.0
  9
$PLINEWID
 40
0.0
  9
$COORDS
 70
     2
  9
$SPLFRAME
 70
     0
  9
$SPLINETYPE
 70
     6
  9
$SPLINESEGS
 70
     8
  9
$ATTDIA
 70
     0
  9
$ATTREQ
 70
     0
  9
$HANDLING
 70
     1
  9
$HANDSEED
  5
200
  9
$SURFTAB1
 70
    36
  9
$SURFTAB2
 70
    36
  9
$SURFTYPE
 70
     6
  9
$SURFU
 70
     6
  9
$SURFV
 70
     6
  9
$UCSNAME
  2

  9
$UCSORG
 10
0.0
 20
0.0
 30
0.0
  9
$UCSXDIR
 10
1.0
 20
0.0
 30
0.0
  9
$UCSYDIR
 10
0.0
 20
1.0
 30
0.0
  9
$PUCSNAME
  2

  9
$PUCSORG
 10
0.0
 20
0.0
 30
0.0
  9
$PUCSXDIR
 10
1.0
 20
0.0
 30
0.0
  9
$PUCSYDIR
 10
0.0
 20
1.0
 30
0.0
  9
$USERI1
 70
     0
  9
$USERI2
 70
     0
  9
$USERI3
 70
     0
  9
$USERI4
 70
     0
  9
$USERI5
 70
     0
  9
$USERR1
 40
0.0
  9
$USERR2
 40
0.0
  9
$USERR3
 40
0.0
  9
$USERR4
 40
0.0
  9
$USERR5
 40
0.0
  9
$WORLDVIEW
 70
     1
  9
$SHADEDGE
 70
     0
  9
$SHADEDIF
 70
    70
  9
$TILEMODE
 70
     1
  9
$MAXACTVP
 70
    16
  9
$PLIMCHECK
 70
     0
  9
$PEXTMIN
 10
-0.805942
 20
0.005011
 30
0.0
  9
$PEXTMAX
 10
20.421406
 20
13.725274
 30
0.0
  9
$PLIMMIN
 10
0.0
 20
0.0
  9
$PLIMMAX
 10
12.0
 20
9.0
  9
$UNITMODE
 70
     0
  9
$VISRETAIN
 70
     0
  9
$PLINEGEN
 70
     0
  9
$PSLTSCALE
 70
     0
  0
ENDSEC
  0
SECTION
  2
TABLES
  0
TABLE
  2
VPORT
 70
     2
  0
VPORT
  2
*ACTIVE
 70
     0
 10
0.0
 20
0.0
 11
1.0
 21
1.0
 12
25.717158
 22
-61.743645
 13
0.0
 23
0.0
 14
1.0
 24
1.0
 15
50.0
 25
50.0
 16
0.0
 26
0.0
 36
1.0
 17
0.0
 27
0.0
 37
0.0
 40
1183.869834
 41
1.865779
 42
50.0
 43
0.0
 44
0.0
 50
0.0
 51
0.0
 71
     0
 72
   100
 73
     1
 74
     1
 75
     0
 76
     0
 77
     0
 78
     0
  0
ENDTAB
  0
TABLE
  2
LTYPE
 70
     1
  0
LTYPE
  2
CONTINUOUS
 70
     0
  3
Solid Line
 72
    65
 73
     0
 40
0.0
  0
ENDTAB
  0
TABLE
  2
LAYER
 70
     8
  0
LAYER
  2
0
 70
     0
 62
     7
  6
CONTINUOUS
  0
LAYER
  2
DEFPOINTS
 70
     0
 62
     7
  6
CONTINUOUS
  0
LAYER
  2
TEAM-BODY
 70
     0
 62
     2
  6
CONTINUOUS
  0
LAYER
  2
TEAM-MAS
 70
     0
 62
     9
  6
CONTINUOUS
  0
LAYER
  2
TEAM-TXT
 70
     0
 62
    11
  6
CONTINUOUS
  0
LAYER
  2
TEAM-DET1
 70
     0
 62
     4
  6
CONTINUOUS
  0
LAYER
  2
TEAM-KAN
 70
     0
 62
     6
  6
CONTINUOUS
  0
LAYER
  2
TEAM-INSP
 70
     0
 62
     5
  6
CONTINUOUS
  0
ENDTAB
  0
TABLE
  2
STYLE
 70
     2
  0
STYLE
  2
STANDARD
 70
     0
 40
0.0
 41
1.0
 50
0.0
 71
     0
 42
200.0
  3
txt
  4

  0
STYLE
  2
TEAM
 70
     0
 40
0.0
 41
0.8
 50
15.0
 71
     0
 42
7.0
  3
ROMANS.shx
  4

  0
ENDTAB
  0
TABLE
  2
VIEW
 70
     0
  0
ENDTAB
  0
TABLE
  2
UCS
 70
     0
  0
ENDTAB
  0
TABLE
  2
APPID
 70
     1
  0
APPID
  2
ACAD
 70
     0
  0
ENDTAB
  0
TABLE
  2
DIMSTYLE
 70
     1
  0
DIMSTYLE
  2
TEAM
 70
     0
  3

  4

  5

  6

  7

 40
0.0
 41
20.0
 42
10.0
 43
1.0
 44
1.0
 45
0.0
 46
0.0
 47
0.0
 48
0.0
140
35.0
141
1.0
142
0.0
143
25.4
144
1.0
145
0.0
146
1.0
147
15.0
 71
     0
 72
     0
 73
     0
 74
     0
 75
     0
 76
     0
 77
     0
 78
     0
170
     0
171
     2
172
     0
173
     0
174
     0
175
     0
176
     9
177
     9
178
    11
  0
ENDTAB
  0
ENDSEC
  0
SECTION
  2
BLOCKS
  0
BLOCK
  8
0
  2
$MODEL_SPACE
 70
     0
 10
0.0
 20
0.0
 30
0.0
  3
$MODEL_SPACE
  1

  0
ENDBLK
  5
18F
  8
0
  0
BLOCK
 67
     1
  8
0
  2
$PAPER_SPACE
 70
     0
 10
0.0
 20
0.0
 30
0.0
  3
$PAPER_SPACE
  1

  0
ENDBLK
  5
18D
 67
     1
  8
0
  0
BLOCK
  8
0
  2
*D0
 70
     1
 10
0.0
 20
0.0
 30
0.0
  3
*D0
  1

  0
LINE
  5
38
  8
0
  6
BYBLOCK
 62
     9
 10
7140.0
 20
12350.0
 30
0.0
 11
7097.942546
 21
12350.0
 31
0.0
  0
LINE
  5
39
  8
0
  6
BYBLOCK
 62
     9
 10
7140.0
 20
11350.0
 30
0.0
 11
7097.942546
 21
11350.0
 31
0.0
  0
LINE
  5
3A
  8
0
  6
BYBLOCK
 62
     9
 10
7098.942546
 20
12330.0
 30
0.0
 11
7098.942546
 21
11924.583333
 31
0.0
  0
LINE
  5
3B
  8
0
  6
BYBLOCK
 62
     9
 10
7098.942546
 20
11370.0
 30
0.0
 11
7098.942546
 21
11795.416667
 31
0.0
  0
TEXT
  5
3C
  8
0
  6
BYBLOCK
 62
    11
 10
7116.442546
 20
11814.48622
 30
0.0
 40
35.0
  1
1000
 50
90.0
  0
SOLID
  5
3D
  8
0
  6
BYBLOCK
 62
     9
 10
7095.609213
 20
12330.0
 30
0.0
 11
7102.27588
 21
12330.0
 31
0.0
 12
7098.942546
 22
12350.0
 32
0.0
 13
7098.942546
 23
12350.0
 33
0.0
  0
SOLID
  5
3E
  8
0
  6
BYBLOCK
 62
     9
 10
7095.609213
 20
11370.0
 30
0.0
 11
7102.27588
 21
11370.0
 31
0.0
 12
7098.942546
 22
11350.0
 32
0.0
 13
7098.942546
 23
11350.0
 33
0.0
  0
POINT
  5
3F
  8
DEFPOINTS
  6
BYBLOCK
 62
     0
 10
7150.0
 20
12350.0
 30
0.0
  0
POINT
  5
40
  8
DEFPOINTS
  6
BYBLOCK
 62
     0
 10
7150.0
 20
11350.0
 30
0.0
  0
POINT
  5
41
  8
DEFPOINTS
  6
BYBLOCK
 62
     0
 10
7098.942546
 20
11350.0
 30
0.0
  0
ENDBLK
  5
43
  8
0
  0
BLOCK
  8
0
  2
*D1
 70
     1
 10
0.0
 20
0.0
 30
0.0
  3
*D1
  1

  0
LINE
  5
22
  8
0
  6
BYBLOCK
 62
     9
 10
8850.0
 20
12010.0
 30
0.0
 11
8850.0
 21
12511.800293
 31
0.0
  0
LINE
  5
23
  8
0
  6
BYBLOCK
 62
     9
 10
7149.999973
 20
12010.0
 30
0.0
 11
7149.999973
 21
12511.800293
 31
0.0
  0
LINE
  5
24
  8
0
  6
BYBLOCK
 62
     9
 10
8830.0
 20
12510.800293
 30
0.0
 11
8067.499987
 21
12510.800293
 31
0.0
  0
LINE
  5
25
  8
0
  6
BYBLOCK
 62
     9
 10
7169.999973
 20
12510.800293
 30
0.0
 11
7932.499987
 21
12510.800293
 31
0.0
  0
SOLID
  5
26
  8
0
  6
BYBLOCK
 62
     9
 10
8830.0
 20
12514.133626
 30
0.0
 11
8830.0
 21
12507.46696
 31
0.0
 12
8850.0
 22
12510.800293
 32
0.0
 13
8850.0
 23
12510.800293
 33
0.0
  0
SOLID
  5
27
  8
0
  6
BYBLOCK
 62
     9
 10
7169.999973
 20
12514.133626
 30
0.0
 11
7169.999973
 21
12507.46696
 31
0.0
 12
7149.999973
 22
12510.800293
 32
0.0
 13
7149.999973
 23
12510.800293
 33
0.0
  0
TEXT
  5
28
  8
0
  6
BYBLOCK
 62
    11
 10
7954.486207
 20
12493.300293
 30
0.0
 40
35.0
  1
1700
  0
POINT
  5
29
  8
DEFPOINTS
  6
BYBLOCK
 62
     0
 10
8850.0
 20
12000.0
 30
0.0
  0
POINT
  5
2B
  8
DEFPOINTS
  6
BYBLOCK
 62
     0
 10
7149.999973
 20
12000.0
 30
0.0
  0
POINT
  5
2C
  8
DEFPOINTS
  6
BYBLOCK
 62
     0
 10
7149.999973
 20
12510.800293
 30
0.0
  0
ENDBLK
  5
2E
  8
0
  0
BLOCK
  8
0
  2
*D2
 70
     1
 10
0.0
 20
0.0
 30
0.0
  3
*D2
  1

  0
LINE
  5
60
  8
0
  6
BYBLOCK
 62
     9
 10
8850.0
 20
12010.0
 30
0.0
 11
8850.0
 21
12429.317306
 31
0.0
  0
LINE
  5
61
  8
0
  6
BYBLOCK
 62
     9
 10
8100.0
 20
11970.0
 30
0.0
 11
8100.0
 21
12429.317306
 31
0.0
  0
LINE
  5
62
  8
0
  6
BYBLOCK
 62
     9
 10
8830.0
 20
12428.317306
 30
0.0
 11
8533.75
 21
12428.317306
 31
0.0
  0
LINE
  5
63
  8
0
  6
BYBLOCK
 62
     9
 10
8120.0
 20
12428.317306
 30
0.0
 11
8416.25
 21
12428.317306
 31
0.0
  0
SOLID
  5
64
  8
0
  6
BYBLOCK
 62
     9
 10
8830.0
 20
12431.650639
 30
0.0
 11
8830.0
 21
12424.983973
 31
0.0
 12
8850.0
 22
12428.317306
 32
0.0
 13
8850.0
 23
12428.317306
 33
0.0
  0
SOLID
  5
65
  8
0
  6
BYBLOCK
 62
     9
 10
8120.0
 20
12431.650639
 30
0.0
 11
8120.0
 21
12424.983973
 31
0.0
 12
8100.0
 22
12428.317306
 32
0.0
 13
8100.0
 23
12428.317306
 33
0.0
  0
TEXT
  5
66
  8
0
  6
BYBLOCK
 62
    11
 10
8438.23622
 20
12410.817306
 30
0.0
 40
35.0
  1
750
  0
POINT
  5
67
  8
DEFPOINTS
  6
BYBLOCK
 62
     0
 10
8850.0
 20
12000.0
 30
0.0
  0
POINT
  5
68
  8
DEFPOINTS
  6
BYBLOCK
 62
     0
 10
8100.0
 20
11960.0
 30
0.0
  0
POINT
  5
69
  8
DEFPOINTS
  6
BYBLOCK
 62
     0
 10
8100.0
 20
12428.317306
 30
0.0
  0
ENDBLK
  5
6B
  8
0
  0
BLOCK
  8
0
  2
*D3
 70
     1
 10
0.0
 20
0.0
 30
0.0
  3
*D3
  1

  0
LINE
  5
6E
  8
0
  6
BYBLOCK
 62
     9
 10
8110.0
 20
11960.0
 30
0.0
 11
8901.182946
 21
11960.0
 31
0.0
  0
LINE
  5
6F
  8
0
  6
BYBLOCK
 62
     9
 10
8860.0
 20
12350.0
 30
0.0
 11
8901.182946
 21
12350.0
 31
0.0
  0
LINE
  5
70
  8
0
  6
BYBLOCK
 62
     9
 10
8900.182946
 20
11980.0
 30
0.0
 11
8900.182946
 21
12096.25
 31
0.0
  0
LINE
  5
71
  8
0
  6
BYBLOCK
 62
     9
 10
8900.182946
 20
12330.0
 30
0.0
 11
8900.182946
 21
12213.75
 31
0.0
  0
SOLID
  5
72
  8
0
  6
BYBLOCK
 62
     9
 10
8896.849613
 20
11980.0
 30
0.0
 11
8903.516279
 21
11980.0
 31
0.0
 12
8900.182946
 22
11960.0
 32
0.0
 13
8900.182946
 23
11960.0
 33
0.0
  0
SOLID
  5
73
  8
0
  6
BYBLOCK
 62
     9
 10
8896.849613
 20
12330.0
 30
0.0
 11
8903.516279
 21
12330.0
 31
0.0
 12
8900.182946
 22
12350.0
 32
0.0
 13
8900.182946
 23
12350.0
 33
0.0
  0
TEXT
  5
74
  8
0
  6
BYBLOCK
 62
    11
 10
8917.682946
 20
12118.17507
 30
0.0
 40
35.0
  1
390
 50
90.0
  0
POINT
  5
75
  8
DEFPOINTS
  6
BYBLOCK
 62
     0
 10
8100.0
 20
11960.0
 30
0.0
  0
POINT
  5
76
  8
DEFPOINTS
  6
BYBLOCK
 62
     0
 10
8850.0
 20
12350.0
 30
0.0
  0
POINT
  5
77
  8
DEFPOINTS
  6
BYBLOCK
 62
     0
 10
8900.182946
 20
12350.0
 30
0.0
  0
ENDBLK
  5
79
  8
0
  0
BLOCK
  8
0
  2
*D4
 70
     1
 10
0.0
 20
0.0
 30
0.0
  3
*D4
  1

  0
LINE
  5
52
  8
0
  6
BYBLOCK
 62
     9
 10
8860.0
 20
12350.0
 30
0.0
 11
8953.520632
 21
12350.0
 31
0.0
  0
LINE
  5
53
  8
0
  6
BYBLOCK
 62
     9
 10
8860.0
 20
11730.0
 30
0.0
 11
8953.520632
 21
11730.0
 31
0.0
  0
LINE
  5
54
  8
0
  6
BYBLOCK
 62
     9
 10
8952.520632
 20
12330.0
 30
0.0
 11
8952.520632
 21
12098.75
 31
0.0
  0
LINE
  5
55
  8
0
  6
BYBLOCK
 62
     9
 10
8952.520632
 20
11750.0
 30
0.0
 11
8952.520632
 21
11981.25
 31
0.0
  0
SOLID
  5
56
  8
0
  6
BYBLOCK
 62
     9
 10
8949.187298
 20
12330.0
 30
0.0
 11
8955.853965
 21
12330.0
 31
0.0
 12
8952.520632
 22
12350.0
 32
0.0
 13
8952.520632
 23
12350.0
 33
0.0
  0
SOLID
  5
57
  8
0
  6
BYBLOCK
 62
     9
 10
8949.187298
 20
11750.0
 30
0.0
 11
8955.853965
 21
11750.0
 31
0.0
 12
8952.520632
 22
11730.0
 32
0.0
 13
8952.520632
 23
11730.0
 33
0.0
  0
TEXT
  5
58
  8
0
  6
BYBLOCK
 62
    11
 10
8970.020632
 20
12004.283465
 30
0.0
 40
35.0
  1
620
 50
90.0
  0
POINT
  5
59
  8
DEFPOINTS
  6
BYBLOCK
 62
     0
 10
8850.0
 20
12350.0
 30
0.0
  0
POINT
  5
5A
  8
DEFPOINTS
  6
BYBLOCK
 62
     0
 10
8850.0
 20
11730.0
 30
0.0
  0
POINT
  5
5B
  8
DEFPOINTS
  6
BYBLOCK
 62
     0
 10
8952.520632
 20
11730.0
 30
0.0
  0
ENDBLK
  5
5D
  8
0
  0
ENDSEC
  0
SECTION
  2
ENTITIES
  0
DIMENSION
  5
20
  8
TEAM-MAS
  2
*D1
 10
-850.000027
 20
510.800293
 30
0.0
 11
-0.000013
 21
510.800293
 31
0.0
 12
-8000.0
 22
-12000.0
 32
0.0
 13
850.0
 23
0.0
 33
0.0
 14
-850.000027
 24
0.0
 34
0.0
1001
ACAD
1000
DSTYLE
1002
{
1070
    40
1040
1.0
1002
}
  0
LINE
  5
2F
  8
TEAM-BODY
 10
-578.928974
 20
-512.556789
 30
0.0
 11
757.505415
 21
-213.824396
 31
0.0
  0
LINE
  5
31
  8
TEAM-BODY
 10
-850.0
 20
-650.0
 30
0.0
 11
850.0
 21
-270.0
 31
0.0
  0
LINE
  5
32
  8
TEAM-BODY
 10
705.789743
 20
275.0
 30
0.0
 11
-746.803757
 21
275.0
 31
0.0
  0
LINE
  5
33
  8
TEAM-BODY
 10
606.832498
 20
225.0
 30
0.0
 11
-467.117945
 21
225.0
 31
0.0
  0
LINE
  5
34
  8
TEAM-BODY
 10
-330.947575
 20
-405.891743
 30
0.0
 11
659.670391
 21
-184.459492
 31
0.0
  0
LINE
  5
35
  8
TEAM-BODY
 10
850.0
 20
350.0
 30
0.0
 11
-850.0
 21
350.0
 31
0.0
  0
DIMENSION
  5
36
  8
TEAM-MAS
  2
*D0
 10
-901.057454
 20
-650.0
 30
0.0
 11
-901.057454
 21
-140.0
 31
0.0
 12
-8000.0
 22
-12000.0
 32
0.0
 70
   128
 13
-850.0
 23
350.0
 33
0.0
 14
-850.0
 24
-650.0
 34
0.0
 50
90.0
  0
LINE
  5
44
  8
TEAM-BODY
 10
-850.0
 20
350.0
 30
0.0
 11
-850.0
 21
-650.0
 31
0.0
  0
ARC
  5
45
  8
TEAM-BODY
 10
-586.564083
 20
-478.399723
 30
0.0
 40
35.0
 50
199.775783
 51
282.60016
  0
ARC
  5
46
  8
TEAM-BODY
 10
-746.803757
 20
240.0
 30
0.0
 40
35.0
 50
90.0
 51
185.372302
  0
ARC
  5
47
  8
TEAM-BODY
 10
-338.582684
 20
-371.734677
 30
0.0
 40
35.0
 50
200.180502
 51
282.60016
  0
ARC
  5
48
  8
TEAM-BODY
 10
-467.117945
 20
190.0
 30
0.0
 40
35.0
 50
90.0
 51
185.596401
  0
CIRCLE
  5
49
  8
TEAM-INSP
 10
0.0
 20
0.0
 30
0.0
 40
10.0
  0
TEXT
  5
4B
  8
TEAM-TXT
 10
-377.914618
 20
111.61017
 30
0.0
 40
30.0
  1
team 121927
 41
0.8
 51
15.0
  7
TEAM
  0
ARC
  5
4E
  8
TEAM-BODY
 10
853.871475
 20
219.961323
 30
0.0
 40
1635.607379
 50
179.412822
 51
205.735264
  0
ARC
  5
4F
  8
TEAM-BODY
 10
638.358726
 20
147.380504
 30
0.0
 40
1140.983643
 50
178.030825
 51
207.746079
  0
DIMENSION
  5
50
  8
TEAM-MAS
  2
*D4
 10
952.520632
 20
-270.0
 30
0.0
 11
952.520632
 21
40.0
 31
0.0
 12
-8000.0
 22
-12000.0
 32
0.0
 13
850.0
 23
350.0
 33
0.0
 14
850.0
 24
-270.0
 34
0.0
 50
90.0
1001
ACAD
1000
DSTYLE
1002
{
1070
    40
1040
1.0
1002
}
  0
DIMENSION
  5
5E
  8
TEAM-MAS
  2
*D2
 10
100.0
 20
428.317306
 30
0.0
 11
475.0
 21
428.317306
 31
0.0
 12
-8000.0
 22
-12000.0
 32
0.0
 13
850.0
 23
0.0
 33
0.0
 14
100.0
 24
-40.0
 34
0.0
1001
ACAD
1000
DSTYLE
1002
{
1070
    40
1040
1.0
1002
}
  0
DIMENSION
  5
6C
  8
TEAM-MAS
  2
*D3
 10
900.182946
 20
350.0
 30
0.0
 11
900.182946
 21
155.0
 31
0.0
 12
-8000.0
 22
-12000.0
 32
0.0
 13
100.0
 23
-40.0
 33
0.0
 14
850.0
 24
350.0
 34
0.0
 50
90.0
1001
ACAD
1000
DSTYLE
1002
{
1070
    40
1040
1.0
1002
}
  0
LINE
  5
7A
  8
TEAM-KAN
 10
66.854751
 20
-296.235729
 30
0.0
 11
148.743742
 21
-278.583356
 31
0.0
  0
POLYLINE
  5
7C
  8
TEAM-KAN
 66
     1
 10
0.0
 20
0.0
 30
0.0
  0
VERTEX
  5
195
  8
TEAM-KAN
 10
139.150734
 20
-282.533534
 30
0.0
  0
VERTEX
  5
196
  8
TEAM-KAN
 10
139.627274
 20
-282.134148
 30
0.0
  0
VERTEX
  5
197
  8
TEAM-KAN
 10
140.011621
 20
-281.734176
 30
0.0
  0
VERTEX
  5
198
  8
TEAM-KAN
 10
140.290544
 20
-281.367158
 30
0.0
  0
VERTEX
  5
199
  8
TEAM-KAN
 10
140.479382
 20
-281.009331
 30
0.0
  0
VERTEX
  5
19A
  8
TEAM-KAN
 10
140.558582
 20
-280.664908
 30
0.0
  0
VERTEX
  5
19B
  8
TEAM-KAN
 10
140.542134
 20
-280.351332
 30
0.0
  0
SEQEND
  5
19C
  8
TEAM-KAN
  0
POLYLINE
  5
7D
  8
TEAM-KAN
 66
     1
 10
0.0
 20
0.0
 30
0.0
  0
VERTEX
  5
19D
  8
TEAM-KAN
 10
140.542134
 20
-280.351332
 30
0.0
  0
VERTEX
  5
19E
  8
TEAM-KAN
 10
140.427933
 20
-280.05883
 30
0.0
  0
VERTEX
  5
19F
  8
TEAM-KAN
 10
140.213869
 20
-279.777624
 30
0.0
  0
VERTEX
  5
1A0
  8
TEAM-KAN
 10
139.894383
 20
-279.529373
 30
0.0
  0
VERTEX
  5
1A1
  8
TEAM-KAN
 10
139.489024
 20
-279.309863
 30
0.0
  0
VERTEX
  5
1A2
  8
TEAM-KAN
 10
138.976136
 20
-279.113532
 30
0.0
  0
VERTEX
  5
1A3
  8
TEAM-KAN
 10
138.375269
 20
-278.936167
 30
0.0
  0
VERTEX
  5
1A4
  8
TEAM-KAN
 10
137.678754
 20
-278.789649
 30
0.0
  0
VERTEX
  5
1A5
  8
TEAM-KAN
 10
136.896368
 20
-278.671873
 30
0.0
  0
VERTEX
  5
1A6
  8
TEAM-KAN
 10
136.018334
 20
-278.584944
 30
0.0
  0
VERTEX
  5
1A7
  8
TEAM-KAN
 10
135.073979
 20
-278.522541
 30
0.0
  0
VERTEX
  5
1A8
  8
TEAM-KAN
 10
134.043752
 20
-278.488879
 30
0.0
  0
VERTEX
  5
1A9
  8
TEAM-KAN
 10
132.929761
 20
-278.493733
 30
0.0
  0
VERTEX
  5
1AA
  8
TEAM-KAN
 10
131.757117
 20
-278.51123
 30
0.0
  0
VERTEX
  5
1AB
  8
TEAM-KAN
 10
130.522367
 20
-278.572805
 30
0.0
  0
VERTEX
  5
1AC
  8
TEAM-KAN
 10
129.221295
 20
-278.658906
 30
0.0
  0
VERTEX
  5
1AD
  8
TEAM-KAN
 10
127.853903
 20
-278.769532
 30
0.0
  0
VERTEX
  5
1AE
  8
TEAM-KAN
 10
126.451623
 20
-278.908139
 30
0.0
  0
VERTEX
  5
1AF
  8
TEAM-KAN
 10
124.994905
 20
-279.07894
 30
0.0
  0
VERTEX
  5
1B0
  8
TEAM-KAN
 10
123.510968
 20
-279.265838
 30
0.0
  0
VERTEX
  5
1B1
  8
TEAM-KAN
 10
121.982369
 20
-279.482824
 30
0.0
  0
VERTEX
  5
1B2
  8
TEAM-KAN
 10
120.430764
 20
-279.735457
 30
0.0
  0
VERTEX
  5
1B3
  8
TEAM-KAN
 10
118.861716
 20
-280.002081
 30
0.0
  0
VERTEX
  5
1B4
  8
TEAM-KAN
 10
117.267556
 20
-280.294577
 30
0.0
  0
VERTEX
  5
1B5
  8
TEAM-KAN
 10
115.667835
 20
-280.608731
 30
0.0
  0
VERTEX
  5
1B6
  8
TEAM-KAN
 10
114.072329
 20
-280.942436
 30
0.0
  0
VERTEX
  5
1B7
  8
TEAM-KAN
 10
112.481037
 20
-281.295692
 30
0.0
  0
VERTEX
  5
1B8
  8
TEAM-KAN
 10
110.893959
 20
-281.668499
 30
0.0
  0
VERTEX
  5
1B9
  8
TEAM-KAN
 10
109.330647
 20
-282.056643
 30
0.0
  0
VERTEX
  5
1BA
  8
TEAM-KAN
 10
107.7911
 20
-282.460122
 30
0.0
  0
VERTEX
  5
1BB
  8
TEAM-KAN
 10
106.273212
 20
-282.869163
 30
0.0
  0
VERTEX
  5
1BC
  8
TEAM-KAN
 10
90.127788
 20
-286.462073
 30
0.0
  0
VERTEX
  5
1BD
  8
TEAM-KAN
 10
88.688864
 20
-286.90524
 30
0.0
  0
VERTEX
  5
1BE
  8
TEAM-KAN
 10
87.300924
 20
-287.347647
 30
0.0
  0
VERTEX
  5
1BF
  8
TEAM-KAN
 10
85.956301
 20
-287.801175
 30
0.0
  0
VERTEX
  5
1C0
  8
TEAM-KAN
 10
84.674545
 20
-288.261611
 30
0.0
  0
VERTEX
  5
1C1
  8
TEAM-KAN
 10
83.453549
 20
-288.719179
 30
0.0
  0
VERTEX
  5
1C2
  8
TEAM-KAN
 10
82.293312
 20
-289.173879
 30
0.0
  0
VERTEX
  5
1C3
  8
TEAM-KAN
 10
81.217602
 20
-289.641048
 30
0.0
  0
VERTEX
  5
1C4
  8
TEAM-KAN
 10
80.210319
 20
-290.093465
 30
0.0
  0
VERTEX
  5
1C5
  8
TEAM-KAN
 10
79.285455
 20
-290.548576
 30
0.0
  0
VERTEX
  5
1C6
  8
TEAM-KAN
 10
78.440901
 20
-290.996604
 30
0.0
  0
VERTEX
  5
1C7
  8
TEAM-KAN
 10
77.686434
 20
-291.435443
 30
0.0
  0
VERTEX
  5
1C8
  8
TEAM-KAN
 10
77.022053
 20
-291.865091
 30
0.0
  0
VERTEX
  5
1C9
  8
TEAM-KAN
 10
76.447758
 20
-292.28555
 30
0.0
  0
VERTEX
  5
1CA
  8
TEAM-KAN
 10
75.96355
 20
-292.69682
 30
0.0
  0
VERTEX
  5
1CB
  8
TEAM-KAN
 10
75.586872
 20
-293.084909
 30
0.0
  0
VERTEX
  5
1CC
  8
TEAM-KAN
 10
75.298173
 20
-293.454034
 30
0.0
  0
SEQEND
  5
1CD
  8
TEAM-KAN
  0
POLYLINE
  5
7E
  8
TEAM-KAN
 66
     1
 10
0.0
 20
0.0
 30
0.0
  0
VERTEX
  5
1CE
  8
TEAM-KAN
 10
75.298173
 20
-293.454034
 30
0.0
  0
VERTEX
  5
1CF
  8
TEAM-KAN
 10
75.119111
 20
-293.809754
 30
0.0
  0
VERTEX
  5
1D0
  8
TEAM-KAN
 10
75.039911
 20
-294.154177
 30
0.0
  0
VERTEX
  5
1D1
  8
TEAM-KAN
 10
75.046583
 20
-294.46986
 30
0.0
  0
VERTEX
  5
1D2
  8
TEAM-KAN
 10
75.17056
 20
-294.760255
 30
0.0
  0
VERTEX
  5
1D3
  8
TEAM-KAN
 10
75.384623
 20
-295.041461
 30
0.0
  0
VERTEX
  5
1D4
  8
TEAM-KAN
 10
75.694334
 20
-295.291819
 30
0.0
  0
VERTEX
  5
1D5
  8
TEAM-KAN
 10
76.109468
 20
-295.509222
 30
0.0
  0
VERTEX
  5
1D6
  8
TEAM-KAN
 10
76.614688
 20
-295.717435
 30
0.0
  0
VERTEX
  5
1D7
  8
TEAM-KAN
 10
77.223224
 20
-295.882918
 30
0.0
  0
VERTEX
  5
1D8
  8
TEAM-KAN
 10
77.919738
 20
-296.029435
 30
0.0
  0
VERTEX
  5
1D9
  8
TEAM-KAN
 10
78.702125
 20
-296.147212
 30
0.0
  0
VERTEX
  5
1DA
  8
TEAM-KAN
 10
79.570383
 20
-296.236248
 30
0.0
  0
VERTEX
  5
1DB
  8
TEAM-KAN
 10
80.524513
 20
-296.296544
 30
0.0
  0
VERTEX
  5
1DC
  8
TEAM-KAN
 10
81.55474
 20
-296.330206
 30
0.0
  0
VERTEX
  5
1DD
  8
TEAM-KAN
 10
82.658956
 20
-296.327459
 30
0.0
  0
VERTEX
  5
1DE
  8
TEAM-KAN
 10
83.8316
 20
-296.309962
 30
0.0
  0
VERTEX
  5
1DF
  8
TEAM-KAN
 10
85.076126
 20
-296.24628
 30
0.0
  0
VERTEX
  5
1E0
  8
TEAM-KAN
 10
86.379304
 20
-296.169955
 30
0.0
  0
VERTEX
  5
1E1
  8
TEAM-KAN
 10
87.734814
 20
-296.05166
 30
0.0
  0
VERTEX
  5
1E2
  8
TEAM-KAN
 10
89.146869
 20
-295.910946
 30
0.0
  0
VERTEX
  5
1E3
  8
TEAM-KAN
 10
90.593811
 20
-295.742252
 30
0.0
  0
VERTEX
  5
1E4
  8
TEAM-KAN
 10
92.087524
 20
-295.553246
 30
0.0
  0
VERTEX
  5
1E5
  8
TEAM-KAN
 10
108.2772
 20
-292.165621
 30
0.0
  0
VERTEX
  5
1E6
  8
TEAM-KAN
 10
109.830911
 20
-291.922763
 30
0.0
  0
VERTEX
  5
1E7
  8
TEAM-KAN
 10
111.399959
 20
-291.65614
 30
0.0
  0
VERTEX
  5
1E8
  8
TEAM-KAN
 10
112.984344
 20
-291.365751
 30
0.0
  0
VERTEX
  5
1E9
  8
TEAM-KAN
 10
114.584065
 20
-291.051597
 30
0.0
  0
VERTEX
  5
1EA
  8
TEAM-KAN
 10
116.179571
 20
-290.717892
 30
0.0
  0
VERTEX
  5
1EB
  8
TEAM-KAN
 10
117.770863
 20
-290.364636
 30
0.0
  0
VERTEX
  5
1EC
  8
TEAM-KAN
 10
119.357941
 20
-289.991829
 30
0.0
  0
VERTEX
  5
1ED
  8
TEAM-KAN
 10
120.931029
 20
-289.601578
 30
0.0
  0
VERTEX
  5
1EE
  8
TEAM-KAN
 10
122.470575
 20
-289.198098
 30
0.0
  0
VERTEX
  5
1EF
  8
TEAM-KAN
 10
123.986357
 20
-288.779282
 30
0.0
  0
VERTEX
  5
1F0
  8
TEAM-KAN
 10
125.470704
 20
-288.357012
 30
0.0
  0
VERTEX
  5
1F1
  8
TEAM-KAN
 10
126.899853
 20
-287.915952
 30
0.0
  0
VERTEX
  5
1F2
  8
TEAM-KAN
 10
128.297568
 20
-287.471438
 30
0.0
  0
VERTEX
  5
1F3
  8
TEAM-KAN
 10
129.632416
 20
-287.020017
 30
0.0
  0
VERTEX
  5
1F4
  8
TEAM-KAN
 10
130.926055
 20
-286.567249
 30
0.0
  0
VERTEX
  5
1F5
  8
TEAM-KAN
 10
132.144944
 20
-286.099906
 30
0.0
  0
VERTEX
  5
1F6
  8
TEAM-KAN
 10
133.295404
 20
-285.647313
 30
0.0
  0
VERTEX
  5
1F7
  8
TEAM-KAN
 10
134.371115
 20
-285.180144
 30
0.0
  0
VERTEX
  5
1F8
  8
TEAM-KAN
 10
135.388173
 20
-284.72562
 30
0.0
  0
VERTEX
  5
1F9
  8
TEAM-KAN
 10
136.313038
 20
-284.270509
 30
0.0
  0
VERTEX
  5
1FA
  8
TEAM-KAN
 10
137.147816
 20
-283.824588
 30
0.0
  0
VERTEX
  5
1FB
  8
TEAM-KAN
 10
137.912059
 20
-283.383642
 30
0.0
  0
VERTEX
  5
1FC
  8
TEAM-KAN
 10
138.57644
 20
-282.953993
 30
0.0
  0
VERTEX
  5
1FD
  8
TEAM-KAN
 10
139.150734
 20
-282.533534
 30
0.0
  0
SEQEND
  5
1FE
  8
TEAM-KAN
  0
CIRCLE
  5
7F
  8
TEAM-KAN
 10
100.0
 20
-40.0
 30
0.0
 40
26.0
  0
CIRCLE
  5
80
  8
TEAM-DET1
 10
100.0
 20
-40.0
 30
0.0
 40
35.0
  0
ARC
  5
82
  8
TEAM-BODY
 10
749.870307
 20
-179.66733
 30
0.0
 40
35.0
 50
282.60016
 51
0.676023
  0
ARC
  5
83
  8
TEAM-BODY
 10
-1525.486766
 20
-206.51512
 30
0.0
 40
2310.51546
 50
0.676023
 51
11.316347
  0
ARC
  5
84
  8
TEAM-BODY
 10
705.789743
 20
240.0
 30
0.0
 40
35.0
 50
11.316347
 51
90.0
  0
ARC
  5
85
  8
TEAM-BODY
 10
606.832498
 20
190.0
 30
0.0
 40
35.0
 50
20.839506
 51
90.0
  0
ARC
  5
86
  8
TEAM-BODY
 10
-91.867104
 20
-75.9625
 30
0.0
 40
782.607641
 50
354.293244
 51
20.839506
  0
ARC
  5
87
  8
TEAM-BODY
 10
652.035282
 20
-150.302426
 30
0.0
 40
35.0
 50
282.60016
 51
354.293244
  0
LINE
  5
88
  8
TEAM-BODY
 10
850.0
 20
-270.0
 30
0.0
 11
850.0
 21
350.0
 31
0.0
  0
ENDSEC
  0
EOF
