  0
SECTION
  2
HEADER
  9
$ACADVER
  1
AC1009
  9
$INSBASE
 10
0.0
 20
0.0
 30
0.0
  9
$EXTMIN
 10
-651.317233
 20
-10.050337
 30
-0.000006
  9
$EXTMAX
 10
471.021117
 20
644.907124
 30
0.0
  9
$LIMMIN
 10
-651.317233
 20
-10.050337
  9
$LIMMAX
 10
471.021117
 20
644.907124
  9
$ORTHOMODE
 70
     1
  9
$REGENMODE
 70
     1
  9
$FILLMODE
 70
     1
  9
$QTEXTMODE
 70
     0
  9
$MIRRTEXT
 70
     0
  9
$DRAGMODE
 70
     2
  9
$LTSCALE
 40
25.0
  9
$OSMODE
 70
     0
  9
$ATTMODE
 70
     1
  9
$TEXTSIZE
 40
200.0
  9
$TRACEWID
 40
1.0
  9
$TEXTSTYLE
  7
STANDARD
  9
$CLAYER
  8
TEAM-MAS
  9
$CELTYPE
  6
BYLAYER
  9
$CECOLOR
 62
   256
  9
$DIMSCALE
 40
0.0
  9
$DIMASZ
 40
20.0
  9
$DIMEXO
 40
10.0
  9
$DIMDLI
 40
1.0
  9
$DIMRND
 40
0.0
  9
$DIMDLE
 40
0.0
  9
$DIMEXE
 40
1.0
  9
$DIMTP
 40
0.0
  9
$DIMTM
 40
0.0
  9
$DIMTXT
 40
35.0
  9
$DIMCEN
 40
1.0
  9
$DIMTSZ
 40
0.0
  9
$DIMTOL
 70
     0
  9
$DIMLIM
 70
     0
  9
$DIMTIH
 70
     0
  9
$DIMTOH
 70
     0
  9
$DIMSE1
 70
     0
  9
$DIMSE2
 70
     0
  9
$DIMTAD
 70
     0
  9
$DIMZIN
 70
     0
  9
$DIMBLK
  1

  9
$DIMASO
 70
     1
  9
$DIMSHO
 70
     0
  9
$DIMPOST
  1

  9
$DIMAPOST
  1

  9
$DIMALT
 70
     0
  9
$DIMALTD
 70
     2
  9
$DIMALTF
 40
25.4
  9
$DIMLFAC
 40
1.0
  9
$DIMTOFL
 70
     0
  9
$DIMTVP
 40
0.0
  9
$DIMTIX
 70
     0
  9
$DIMSOXD
 70
     0
  9
$DIMSAH
 70
     0
  9
$DIMBLK1
  1

  9
$DIMBLK2
  1

  9
$DIMSTYLE
  2
TEAM
  9
$DIMCLRD
 70
     9
  9
$DIMCLRE
 70
     9
  9
$DIMCLRT
 70
    11
  9
$DIMTFAC
 40
1.0
  9
$DIMGAP
 40
15.0
  9
$LUNITS
 70
     2
  9
$LUPREC
 70
     1
  9
$SKETCHINC
 40
1.0
  9
$FILLETRAD
 40
50.0
  9
$AUNITS
 70
     0
  9
$AUPREC
 70
     0
  9
$MENU
  1
ROPLANS
  9
$ELEVATION
 40
0.0
  9
$PELEVATION
 40
0.0
  9
$THICKNESS
 40
0.0
  9
$LIMCHECK
 70
     0
  9
$BLIPMODE
 70
     1
  9
$CHAMFERA
 40
0.0
  9
$CHAMFERB
 40
0.0
  9
$SKPOLY
 70
     0
  9
$TDCREATE
 40
2450392.957851
  9
$TDUPDATE
 40
2455534.564459
  9
$TDINDWG
 40
2.577934
  9
$TDUSRTIMER
 40
2.577934
  9
$USRTIMER
 70
     1
  9
$ANGBASE
 50
0.0
  9
$ANGDIR
 70
     0
  9
$PDMODE
 70
     0
  9
$PDSIZE
 40
0.0
  9
$PLINEWID
 40
0.0
  9
$COORDS
 70
     2
  9
$SPLFRAME
 70
     0
  9
$SPLINETYPE
 70
     6
  9
$SPLINESEGS
 70
     8
  9
$ATTDIA
 70
     0
  9
$ATTREQ
 70
     0
  9
$HANDLING
 70
     1
  9
$HANDSEED
  5
A9
  9
$SURFTAB1
 70
    36
  9
$SURFTAB2
 70
    36
  9
$SURFTYPE
 70
     6
  9
$SURFU
 70
     6
  9
$SURFV
 70
     6
  9
$UCSNAME
  2

  9
$UCSORG
 10
0.0
 20
0.0
 30
0.0
  9
$UCSXDIR
 10
1.0
 20
0.0
 30
0.0
  9
$UCSYDIR
 10
0.0
 20
1.0
 30
0.0
  9
$PUCSNAME
  2

  9
$PUCSORG
 10
0.0
 20
0.0
 30
0.0
  9
$PUCSXDIR
 10
1.0
 20
0.0
 30
0.0
  9
$PUCSYDIR
 10
0.0
 20
1.0
 30
0.0
  9
$USERI1
 70
     0
  9
$USERI2
 70
     0
  9
$USERI3
 70
     0
  9
$USERI4
 70
     0
  9
$USERI5
 70
     0
  9
$USERR1
 40
0.0
  9
$USERR2
 40
0.0
  9
$USERR3
 40
0.0
  9
$USERR4
 40
0.0
  9
$USERR5
 40
0.0
  9
$WORLDVIEW
 70
     1
  9
$SHADEDGE
 70
     0
  9
$SHADEDIF
 70
    70
  9
$TILEMODE
 70
     1
  9
$MAXACTVP
 70
    16
  9
$PLIMCHECK
 70
     0
  9
$PEXTMIN
 10
-0.805942
 20
0.005011
 30
0.0
  9
$PEXTMAX
 10
20.421406
 20
13.725274
 30
0.0
  9
$PLIMMIN
 10
0.0
 20
0.0
  9
$PLIMMAX
 10
12.0
 20
9.0
  9
$UNITMODE
 70
     0
  9
$VISRETAIN
 70
     0
  9
$PLINEGEN
 70
     0
  9
$PSLTSCALE
 70
     0
  0
ENDSEC
  0
SECTION
  2
TABLES
  0
TABLE
  2
VPORT
 70
     2
  0
VPORT
  2
*ACTIVE
 70
     0
 10
0.0
 20
0.0
 11
1.0
 21
1.0
 12
-90.148058
 22
317.428393
 13
0.0
 23
0.0
 14
1.0
 24
1.0
 15
50.0
 25
50.0
 16
0.0
 26
0.0
 36
1.0
 17
0.0
 27
0.0
 37
0.0
 40
658.979717
 41
1.865779
 42
50.0
 43
0.0
 44
0.0
 50
0.0
 51
0.0
 71
     0
 72
   100
 73
     1
 74
     1
 75
     0
 76
     0
 77
     0
 78
     0
  0
ENDTAB
  0
TABLE
  2
LTYPE
 70
     2
  0
LTYPE
  2
CONTINUOUS
 70
     0
  3
Solid Line
 72
    65
 73
     0
 40
0.0
  0
LTYPE
  2
22
 70
     0
  3

 72
    65
 73
     2
 40
1.4
 49
1.2
 49
-0.2
  0
ENDTAB
  0
TABLE
  2
LAYER
 70
     8
  0
LAYER
  2
0
 70
     0
 62
     7
  6
CONTINUOUS
  0
LAYER
  2
DEFPOINTS
 70
     0
 62
     7
  6
CONTINUOUS
  0
LAYER
  2
TEAM-BODY
 70
     0
 62
     2
  6
CONTINUOUS
  0
LAYER
  2
TEAM-MAS
 70
     0
 62
     9
  6
CONTINUOUS
  0
LAYER
  2
TEAM-TXT
 70
     0
 62
    11
  6
CONTINUOUS
  0
LAYER
  2
TEAM-HIDE
 70
     0
 62
     8
  6
22
  0
LAYER
  2
TEAM-KAN
 70
     0
 62
     6
  6
CONTINUOUS
  0
LAYER
  2
TEAM-INSP
 70
     0
 62
     5
  6
CONTINUOUS
  0
ENDTAB
  0
TABLE
  2
STYLE
 70
     2
  0
STYLE
  2
STANDARD
 70
     0
 40
0.0
 41
1.0
 50
0.0
 71
     0
 42
200.0
  3
txt
  4

  0
STYLE
  2
TEAM
 70
     0
 40
0.0
 41
0.8
 50
15.0
 71
     0
 42
7.0
  3
ROMANS.shx
  4

  0
ENDTAB
  0
TABLE
  2
VIEW
 70
     0
  0
ENDTAB
  0
TABLE
  2
UCS
 70
     0
  0
ENDTAB
  0
TABLE
  2
APPID
 70
     1
  0
APPID
  2
ACAD
 70
     0
  0
ENDTAB
  0
TABLE
  2
DIMSTYLE
 70
     1
  0
DIMSTYLE
  2
TEAM
 70
     0
  3

  4

  5

  6

  7

 40
0.0
 41
20.0
 42
10.0
 43
1.0
 44
1.0
 45
0.0
 46
0.0
 47
0.0
 48
0.0
140
35.0
141
1.0
142
0.0
143
25.4
144
1.0
145
0.0
146
1.0
147
15.0
 71
     0
 72
     0
 73
     0
 74
     0
 75
     0
 76
     0
 77
     0
 78
     0
170
     0
171
     2
172
     0
173
     0
174
     0
175
     0
176
     9
177
     9
178
    11
  0
ENDTAB
  0
ENDSEC
  0
SECTION
  2
BLOCKS
  0
BLOCK
  8
0
  2
$MODEL_SPACE
 70
     0
 10
0.0
 20
0.0
 30
0.0
  3
$MODEL_SPACE
  1

  0
ENDBLK
  5
A2
  8
0
  0
BLOCK
 67
     1
  8
0
  2
$PAPER_SPACE
 70
     0
 10
0.0
 20
0.0
 30
0.0
  3
$PAPER_SPACE
  1

  0
ENDBLK
  5
A0
 67
     1
  8
0
  0
BLOCK
  8
0
  2
*D0
 70
     1
 10
0.0
 20
0.0
 30
0.0
  3
*D0
  1

  0
LINE
  5
48
  8
0
  6
BYBLOCK
 62
     9
 10
4354.000006
 20
12580.0
 30
0.0
 11
4454.746316
 21
12580.0
 31
0.0
  0
LINE
  5
49
  8
0
  6
BYBLOCK
 62
     9
 10
4010.0
 20
12000.0
 30
0.0
 11
4454.746316
 21
12000.0
 31
0.0
  0
LINE
  5
4A
  8
0
  6
BYBLOCK
 62
     9
 10
4453.746316
 20
12560.0
 30
0.0
 11
4453.746316
 21
12348.75
 31
0.0
  0
LINE
  5
4B
  8
0
  6
BYBLOCK
 62
     9
 10
4453.746316
 20
12020.0
 30
0.0
 11
4453.746316
 21
12231.25
 31
0.0
  0
SOLID
  5
4C
  8
0
  6
BYBLOCK
 62
     9
 10
4450.412983
 20
12560.0
 30
0.0
 11
4457.07965
 21
12560.0
 31
0.0
 12
4453.746316
 22
12580.0
 32
0.0
 13
4453.746316
 23
12580.0
 33
0.0
  0
SOLID
  5
4D
  8
0
  6
BYBLOCK
 62
     9
 10
4450.412983
 20
12020.0
 30
0.0
 11
4457.07965
 21
12020.0
 31
0.0
 12
4453.746316
 22
12000.0
 32
0.0
 13
4453.746316
 23
12000.0
 33
0.0
  0
TEXT
  5
4E
  8
0
  6
BYBLOCK
 62
    11
 10
4471.246316
 20
12253.23622
 30
0.0
 40
35.0
  1
580
 50
90.0
  0
POINT
  5
4F
  8
DEFPOINTS
  6
BYBLOCK
 62
     0
 10
4344.000006
 20
12580.0
 30
0.0
  0
POINT
  5
50
  8
DEFPOINTS
  6
BYBLOCK
 62
     0
 10
4000.0
 20
12000.0
 30
0.0
  0
POINT
  5
51
  8
DEFPOINTS
  6
BYBLOCK
 62
     0
 10
4453.746316
 20
12000.0
 30
0.0
  0
ENDBLK
  5
53
  8
0
  0
BLOCK
  8
0
  2
*D1
 70
     1
 10
0.0
 20
0.0
 30
0.0
  3
*D1
  1

  0
LINE
  5
22
  8
0
  6
BYBLOCK
 62
     9
 10
3349.999994
 20
12584.0
 30
0.0
 11
3349.999994
 21
12630.129159
 31
0.0
  0
LINE
  5
23
  8
0
  6
BYBLOCK
 62
     9
 10
4350.000006
 20
12584.0
 30
0.0
 11
4350.000006
 21
12630.129159
 31
0.0
  0
LINE
  5
24
  8
0
  6
BYBLOCK
 62
     9
 10
3369.999994
 20
12629.129159
 30
0.0
 11
3785.416667
 21
12629.129159
 31
0.0
  0
LINE
  5
25
  8
0
  6
BYBLOCK
 62
     9
 10
4330.000006
 20
12629.129159
 30
0.0
 11
3914.583333
 21
12629.129159
 31
0.0
  0
SOLID
  5
26
  8
0
  6
BYBLOCK
 62
     9
 10
3369.999994
 20
12632.462492
 30
0.0
 11
3369.999994
 21
12625.795826
 31
0.0
 12
3349.999994
 22
12629.129159
 32
0.0
 13
3349.999994
 23
12629.129159
 33
0.0
  0
SOLID
  5
27
  8
0
  6
BYBLOCK
 62
     9
 10
4330.000006
 20
12632.462492
 30
0.0
 11
4330.000006
 21
12625.795826
 31
0.0
 12
4350.000006
 22
12629.129159
 32
0.0
 13
4350.000006
 23
12629.129159
 33
0.0
  0
TEXT
  5
28
  8
0
  6
BYBLOCK
 62
    11
 10
3804.48622
 20
12611.629159
 30
0.0
 40
35.0
  1
1000
  0
POINT
  5
29
  8
DEFPOINTS
  6
BYBLOCK
 62
     0
 10
3349.999994
 20
12574.0
 30
0.0
  0
POINT
  5
2B
  8
DEFPOINTS
  6
BYBLOCK
 62
     0
 10
4350.000006
 20
12574.0
 30
0.0
  0
POINT
  5
2C
  8
DEFPOINTS
  6
BYBLOCK
 62
     0
 10
4350.000006
 20
12629.129159
 30
0.0
  0
ENDBLK
  5
2E
  8
0
  0
BLOCK
  8
0
  2
*D2
 70
     1
 10
0.0
 20
0.0
 30
0.0
  3
*D2
  1

  0
LINE
  5
3A
  8
0
  6
BYBLOCK
 62
     9
 10
4354.000006
 20
12580.0
 30
0.0
 11
4398.667998
 21
12580.0
 31
0.0
  0
LINE
  5
3B
  8
0
  6
BYBLOCK
 62
     9
 10
3943.68
 20
12099.999994
 30
0.0
 11
4398.667998
 21
12099.999994
 31
0.0
  0
LINE
  5
3C
  8
0
  6
BYBLOCK
 62
     9
 10
4397.667998
 20
12560.0
 30
0.0
 11
4397.667998
 21
12370.749997
 31
0.0
  0
LINE
  5
3D
  8
0
  6
BYBLOCK
 62
     9
 10
4397.667998
 20
12119.999994
 30
0.0
 11
4397.667998
 21
12253.249997
 31
0.0
  0
TEXT
  5
3E
  8
0
  6
BYBLOCK
 62
    11
 10
4415.167998
 20
12273.486217
 30
0.0
 40
35.0
  1
480
 50
90.0
  0
SOLID
  5
3F
  8
0
  6
BYBLOCK
 62
     9
 10
4394.334665
 20
12560.0
 30
0.0
 11
4401.001331
 21
12560.0
 31
0.0
 12
4397.667998
 22
12580.0
 32
0.0
 13
4397.667998
 23
12580.0
 33
0.0
  0
SOLID
  5
40
  8
0
  6
BYBLOCK
 62
     9
 10
4394.334665
 20
12119.999994
 30
0.0
 11
4401.001331
 21
12119.999994
 31
0.0
 12
4397.667998
 22
12099.999994
 32
0.0
 13
4397.667998
 23
12099.999994
 33
0.0
  0
POINT
  5
41
  8
DEFPOINTS
  6
BYBLOCK
 62
     0
 10
4344.000006
 20
12580.0
 30
0.0
  0
POINT
  5
42
  8
DEFPOINTS
  6
BYBLOCK
 62
     0
 10
3933.68
 20
12099.999994
 30
0.0
  0
POINT
  5
43
  8
DEFPOINTS
  6
BYBLOCK
 62
     0
 10
4397.667998
 20
12099.999994
 30
0.0
  0
ENDBLK
  5
45
  8
0
  0
ENDSEC
  0
SECTION
  2
ENTITIES
  0
DIMENSION
  5
20
  8
TEAM-MAS
  2
*D1
 10
350.000006
 20
629.129159
 30
0.0
 11
-150.0
 21
629.129159
 31
0.0
 12
-4000.0
 22
-12000.0
 32
0.0
 13
-650.000006
 23
574.0
 33
0.0
 14
350.000006
 24
574.0
 34
0.0
1001
ACAD
1000
DSTYLE
1002
{
1070
    40
1040
1.0
1002
}
  0
LINE
  5
2F
  8
TEAM-BODY
 10
-83.718302
 20
110.77714
 30
0.0
 11
-454.783354
 21
119.792386
 31
0.0
  0
LINE
  5
31
  8
TEAM-BODY
 10
-644.000006
 20
520.0
 30
0.0
 11
344.000006
 21
520.0
 31
0.0
  0
LINE
  5
32
  8
TEAM-BODY
 10
344.000006
 20
580.0
 30
0.0
 11
-644.000006
 21
580.0
 31
0.0
  0
ARC
  5
33
  8
TEAM-BODY
 10
-644.000006
 20
574.0
 30
0.0
 40
6.0
 50
90.0
 51
180.0
  0
ARC
  5
34
  8
TEAM-BODY
 10
-644.000006
 20
526.0
 30
0.0
 40
6.0
 50
180.0
 51
270.0
  0
LINE
  5
35
  8
TEAM-BODY
 10
-650.000006
 20
574.0
 30
0.0
 11
-650.000006
 21
526.0
 31
0.0
  0
ARC
  5
36
  8
TEAM-BODY
 10
3999.017411
 20
1462.222671
 30
0.0
 40
4678.062097
 50
191.619601
 51
196.267884
  0
ARC
  5
37
  8
TEAM-BODY
 10
-452.547944
 20
159.729874
 30
0.0
 40
40.0
 50
191.487939
 51
266.796343
  0
DIMENSION
  5
38
  8
TEAM-MAS
  2
*D2
 10
397.667998
 20
99.999994
 30
0.0
 11
397.667998
 21
311.999997
 31
0.0
 12
-4000.0
 22
-12000.0
 32
0.0
 70
   128
 13
344.000006
 23
580.0
 33
0.0
 14
-66.32
 24
99.999994
 34
0.0
 50
270.0
1001
ACAD
1000
DSTYLE
1002
{
1070
    40
1040
1.0
1002
}
  0
DIMENSION
  5
46
  8
TEAM-MAS
  2
*D0
 10
453.746316
 20
0.0
 30
0.0
 11
453.746316
 21
290.0
 31
0.0
 12
-4000.0
 22
-12000.0
 32
0.0
 13
344.000006
 23
580.0
 33
0.0
 14
0.0
 24
0.0
 34
0.0
 50
270.0
1001
ACAD
1000
DSTYLE
1002
{
1070
    40
1040
1.0
1002
}
  0
ARC
  5
54
  8
TEAM-BODY
 10
4219.027411
 20
1462.222671
 30
0.0
 40
4678.062097
 50
191.619601
 51
196.267884
  0
LINE
  5
55
  8
TEAM-HIDE
 10
-83.708302
 20
110.77714
 30
0.0
 11
-234.773354
 21
119.792386
 31
0.0
  0
ARC
  5
58
  8
TEAM-BODY
 10
-232.537944
 20
159.729874
 30
0.0
 40
40.0
 50
191.487939
 51
266.796343
  0
ARC
  5
59
  8
TEAM-KAN
 10
-83.980001
 20
98.779994
 30
0.0
 40
9.0
 50
32.8383
 51
88.75653
  0
ARC
  5
5B
  8
TEAM-KAN
 10
-83.980001
 20
98.779994
 30
0.0
 40
12.0
 50
32.8338
 51
88.75038
  0
ARC
  5
5C
  8
TEAM-KAN
 10
-69.69
 20
107.999994
 30
0.0
 40
5.0
 50
212.8213
 51
270.0
  0
ARC
  5
5D
  8
TEAM-KAN
 10
-69.69
 20
107.999994
 30
0.0
 40
8.0
 50
212.821
 51
270.0
  0
LINE
  5
5E
  8
TEAM-KAN
 10
-66.32
 20
99.999994
 30
0.0
 11
-66.32
 21
102.999994
 31
0.0
  0
LINE
  5
5F
  8
TEAM-BODY
 10
3.718302
 20
110.77714
 30
0.0
 11
154.783354
 21
119.792386
 31
0.0
  0
ARC
  5
60
  8
TEAM-KAN
 10
3.990001
 20
98.779994
 30
0.0
 40
9.0
 50
91.26834
 51
147.16169
  0
ARC
  5
61
  8
TEAM-KAN
 10
3.990001
 20
98.779994
 30
0.0
 40
12.0
 50
91.24963
 51
147.16615
  0
ARC
  5
62
  8
TEAM-KAN
 10
-10.3
 20
107.999994
 30
0.0
 40
5.0
 50
270.0
 51
327.1787
  0
ARC
  5
63
  8
TEAM-KAN
 10
-10.3
 20
107.999994
 30
0.0
 40
8.0
 50
270.0
 51
327.179
  0
LINE
  5
64
  8
TEAM-KAN
 10
-13.67
 20
99.999994
 30
0.0
 11
-13.67
 21
102.999994
 31
0.0
  0
ARC
  5
65
  8
TEAM-BODY
 10
152.547944
 20
159.729874
 30
0.0
 40
40.0
 50
273.203657
 51
348.512061
  0
ARC
  5
66
  8
TEAM-BODY
 10
-4299.017411
 20
1462.222671
 30
0.0
 40
4678.062097
 50
343.732116
 51
348.380399
  0
CIRCLE
  5
67
  8
TEAM-INSP
 10
0.0
 20
0.0
 30
0.0
 40
10.0
  0
LINE
  5
69
  8
TEAM-BODY
 10
350.000006
 20
574.0
 30
0.0
 11
350.000006
 21
526.0
 31
0.0
  0
ARC
  5
6A
  8
TEAM-BODY
 10
344.000006
 20
526.0
 30
0.0
 40
6.0
 50
270.0
 51
0.0
  0
ARC
  5
6B
  8
TEAM-BODY
 10
344.000006
 20
574.0
 30
0.0
 40
6.0
 50
0.0
 51
90.0
  0
TEXT
  5
6C
  8
TEAM-TXT
 10
-6.026914
 20
467.75601
 30
0.0
 40
30.0
  1
team 121927
 41
0.8
 51
15.0
  7
TEAM
  0
LINE
  5
6F
  8
TEAM-KAN
 10
-69.69
 20
99.999994
 30
0.0
 11
-10.3
 21
99.999994
 31
0.0
  0
LINE
  5
70
  8
TEAM-KAN
 10
-69.69
 20
102.999994
 30
0.0
 11
-10.3
 21
102.999994
 31
0.0
  0
ENDSEC
  0
EOF
