  0
SECTION
  2
HEADER
  9
$ACADVER
  1
AC1009
  9
$INSBASE
 10
0.0
 20
0.0
 30
0.0
  9
$EXTMIN
 10
-996.438121
 20
-1050.037739
 30
-0.000006
  9
$EXTMAX
 10
1049.449155
 20
526.664977
 30
0.0
  9
$LIMMIN
 10
-996.438121
 20
-1050.037739
  9
$LIMMAX
 10
1049.449155
 20
526.664977
  9
$ORTHOMODE
 70
     1
  9
$REGENMODE
 70
     1
  9
$FILLMODE
 70
     1
  9
$QTEXTMODE
 70
     0
  9
$MIRRTEXT
 70
     0
  9
$DRAGMODE
 70
     2
  9
$LTSCALE
 40
25.0
  9
$OSMODE
 70
     0
  9
$ATTMODE
 70
     1
  9
$TEXTSIZE
 40
200.0
  9
$TRACEWID
 40
1.0
  9
$TEXTSTYLE
  7
STANDARD
  9
$CLAYER
  8
TEAM-MAS
  9
$CELTYPE
  6
BYLAYER
  9
$CECOLOR
 62
   256
  9
$DIMSCALE
 40
0.0
  9
$DIMASZ
 40
20.0
  9
$DIMEXO
 40
10.0
  9
$DIMDLI
 40
1.0
  9
$DIMRND
 40
0.0
  9
$DIMDLE
 40
0.0
  9
$DIMEXE
 40
1.0
  9
$DIMTP
 40
0.0
  9
$DIMTM
 40
0.0
  9
$DIMTXT
 40
35.0
  9
$DIMCEN
 40
1.0
  9
$DIMTSZ
 40
0.0
  9
$DIMTOL
 70
     0
  9
$DIMLIM
 70
     0
  9
$DIMTIH
 70
     0
  9
$DIMTOH
 70
     0
  9
$DIMSE1
 70
     0
  9
$DIMSE2
 70
     0
  9
$DIMTAD
 70
     0
  9
$DIMZIN
 70
     0
  9
$DIMBLK
  1

  9
$DIMASO
 70
     1
  9
$DIMSHO
 70
     0
  9
$DIMPOST
  1

  9
$DIMAPOST
  1

  9
$DIMALT
 70
     0
  9
$DIMALTD
 70
     2
  9
$DIMALTF
 40
25.4
  9
$DIMLFAC
 40
1.0
  9
$DIMTOFL
 70
     0
  9
$DIMTVP
 40
0.0
  9
$DIMTIX
 70
     0
  9
$DIMSOXD
 70
     0
  9
$DIMSAH
 70
     0
  9
$DIMBLK1
  1

  9
$DIMBLK2
  1

  9
$DIMSTYLE
  2
TEAM
  9
$DIMCLRD
 70
     9
  9
$DIMCLRE
 70
     9
  9
$DIMCLRT
 70
    11
  9
$DIMTFAC
 40
1.0
  9
$DIMGAP
 40
15.0
  9
$LUNITS
 70
     2
  9
$LUPREC
 70
     1
  9
$SKETCHINC
 40
1.0
  9
$FILLETRAD
 40
50.0
  9
$AUNITS
 70
     0
  9
$AUPREC
 70
     0
  9
$MENU
  1
ROPLANS
  9
$ELEVATION
 40
0.0
  9
$PELEVATION
 40
0.0
  9
$THICKNESS
 40
0.0
  9
$LIMCHECK
 70
     0
  9
$BLIPMODE
 70
     1
  9
$CHAMFERA
 40
0.0
  9
$CHAMFERB
 40
0.0
  9
$SKPOLY
 70
     0
  9
$TDCREATE
 40
2450392.957851
  9
$TDUPDATE
 40
2455534.564459
  9
$TDINDWG
 40
2.577934
  9
$TDUSRTIMER
 40
2.577934
  9
$USRTIMER
 70
     1
  9
$ANGBASE
 50
0.0
  9
$ANGDIR
 70
     0
  9
$PDMODE
 70
     0
  9
$PDSIZE
 40
0.0
  9
$PLINEWID
 40
0.0
  9
$COORDS
 70
     2
  9
$SPLFRAME
 70
     0
  9
$SPLINETYPE
 70
     6
  9
$SPLINESEGS
 70
     8
  9
$ATTDIA
 70
     0
  9
$ATTREQ
 70
     0
  9
$HANDLING
 70
     1
  9
$HANDSEED
  5
200
  9
$SURFTAB1
 70
    36
  9
$SURFTAB2
 70
    36
  9
$SURFTYPE
 70
     6
  9
$SURFU
 70
     6
  9
$SURFV
 70
     6
  9
$UCSNAME
  2

  9
$UCSORG
 10
0.0
 20
0.0
 30
0.0
  9
$UCSXDIR
 10
1.0
 20
0.0
 30
0.0
  9
$UCSYDIR
 10
0.0
 20
1.0
 30
0.0
  9
$PUCSNAME
  2

  9
$PUCSORG
 10
0.0
 20
0.0
 30
0.0
  9
$PUCSXDIR
 10
1.0
 20
0.0
 30
0.0
  9
$PUCSYDIR
 10
0.0
 20
1.0
 30
0.0
  9
$USERI1
 70
     0
  9
$USERI2
 70
     0
  9
$USERI3
 70
     0
  9
$USERI4
 70
     0
  9
$USERI5
 70
     0
  9
$USERR1
 40
0.0
  9
$USERR2
 40
0.0
  9
$USERR3
 40
0.0
  9
$USERR4
 40
0.0
  9
$USERR5
 40
0.0
  9
$WORLDVIEW
 70
     1
  9
$SHADEDGE
 70
     0
  9
$SHADEDIF
 70
    70
  9
$TILEMODE
 70
     1
  9
$MAXACTVP
 70
    16
  9
$PLIMCHECK
 70
     0
  9
$PEXTMIN
 10
-0.805942
 20
0.005011
 30
0.0
  9
$PEXTMAX
 10
20.421406
 20
13.725274
 30
0.0
  9
$PLIMMIN
 10
0.0
 20
0.0
  9
$PLIMMAX
 10
12.0
 20
9.0
  9
$UNITMODE
 70
     0
  9
$VISRETAIN
 70
     0
  9
$PLINEGEN
 70
     0
  9
$PSLTSCALE
 70
     0
  0
ENDSEC
  0
SECTION
  2
TABLES
  0
TABLE
  2
VPORT
 70
     2
  0
VPORT
  2
*ACTIVE
 70
     0
 10
0.0
 20
0.0
 11
1.0
 21
1.0
 12
26.505517
 22
-261.686381
 13
0.0
 23
0.0
 14
1.0
 24
1.0
 15
50.0
 25
50.0
 16
0.0
 26
0.0
 36
1.0
 17
0.0
 27
0.0
 37
0.0
 40
1586.385639
 41
1.865779
 42
50.0
 43
0.0
 44
0.0
 50
0.0
 51
0.0
 71
     0
 72
   100
 73
     1
 74
     1
 75
     0
 76
     0
 77
     0
 78
     0
  0
ENDTAB
  0
TABLE
  2
LTYPE
 70
     1
  0
LTYPE
  2
CONTINUOUS
 70
     0
  3
Solid Line
 72
    65
 73
     0
 40
0.0
  0
ENDTAB
  0
TABLE
  2
LAYER
 70
     8
  0
LAYER
  2
0
 70
     0
 62
     7
  6
CONTINUOUS
  0
LAYER
  2
DEFPOINTS
 70
     0
 62
     7
  6
CONTINUOUS
  0
LAYER
  2
TEAM-BODY
 70
     0
 62
     2
  6
CONTINUOUS
  0
LAYER
  2
TEAM-MAS
 70
     0
 62
     9
  6
CONTINUOUS
  0
LAYER
  2
TEAM-TXT
 70
     0
 62
    11
  6
CONTINUOUS
  0
LAYER
  2
TEAM-DET1
 70
     0
 62
     4
  6
CONTINUOUS
  0
LAYER
  2
TEAM-KAN
 70
     0
 62
     6
  6
CONTINUOUS
  0
LAYER
  2
TEAM-INSP
 70
     0
 62
     5
  6
CONTINUOUS
  0
ENDTAB
  0
TABLE
  2
STYLE
 70
     2
  0
STYLE
  2
STANDARD
 70
     0
 40
0.0
 41
1.0
 50
0.0
 71
     0
 42
200.0
  3
txt
  4

  0
STYLE
  2
TEAM
 70
     0
 40
0.0
 41
0.8
 50
15.0
 71
     0
 42
7.0
  3
ROMANS.shx
  4

  0
ENDTAB
  0
TABLE
  2
VIEW
 70
     0
  0
ENDTAB
  0
TABLE
  2
UCS
 70
     0
  0
ENDTAB
  0
TABLE
  2
APPID
 70
     1
  0
APPID
  2
ACAD
 70
     0
  0
ENDTAB
  0
TABLE
  2
DIMSTYLE
 70
     1
  0
DIMSTYLE
  2
TEAM
 70
     0
  3

  4

  5

  6

  7

 40
0.0
 41
20.0
 42
10.0
 43
1.0
 44
1.0
 45
0.0
 46
0.0
 47
0.0
 48
0.0
140
35.0
141
1.0
142
0.0
143
25.4
144
1.0
145
0.0
146
1.0
147
15.0
 71
     0
 72
     0
 73
     0
 74
     0
 75
     0
 76
     0
 77
     0
 78
     0
170
     0
171
     2
172
     0
173
     0
174
     0
175
     0
176
     9
177
     9
178
    11
  0
ENDTAB
  0
ENDSEC
  0
SECTION
  2
BLOCKS
  0
BLOCK
  8
0
  2
$MODEL_SPACE
 70
     0
 10
0.0
 20
0.0
 30
0.0
  3
$MODEL_SPACE
  1

  0
ENDBLK
  5
18F
  8
0
  0
BLOCK
 67
     1
  8
0
  2
$PAPER_SPACE
 70
     0
 10
0.0
 20
0.0
 30
0.0
  3
$PAPER_SPACE
  1

  0
ENDBLK
  5
18D
 67
     1
  8
0
  0
BLOCK
  8
0
  2
*D0
 70
     1
 10
0.0
 20
0.0
 30
0.0
  3
*D0
  1

  0
LINE
  5
52
  8
0
  6
BYBLOCK
 62
     9
 10
8910.0
 20
20350.0
 30
0.0
 11
9034.54149
 21
20350.0
 31
0.0
  0
LINE
  5
53
  8
0
  6
BYBLOCK
 62
     9
 10
8910.0
 20
19670.0
 30
0.0
 11
9034.54149
 21
19670.0
 31
0.0
  0
LINE
  5
54
  8
0
  6
BYBLOCK
 62
     9
 10
9033.54149
 20
20330.0
 30
0.0
 11
9033.54149
 21
20068.75
 31
0.0
  0
LINE
  5
55
  8
0
  6
BYBLOCK
 62
     9
 10
9033.54149
 20
19690.0
 30
0.0
 11
9033.54149
 21
19951.25
 31
0.0
  0
SOLID
  5
56
  8
0
  6
BYBLOCK
 62
     9
 10
9030.208157
 20
20330.0
 30
0.0
 11
9036.874823
 21
20330.0
 31
0.0
 12
9033.54149
 22
20350.0
 32
0.0
 13
9033.54149
 23
20350.0
 33
0.0
  0
SOLID
  5
57
  8
0
  6
BYBLOCK
 62
     9
 10
9030.208157
 20
19690.0
 30
0.0
 11
9036.874823
 21
19690.0
 31
0.0
 12
9033.54149
 22
19670.0
 32
0.0
 13
9033.54149
 23
19670.0
 33
0.0
  0
TEXT
  5
58
  8
0
  6
BYBLOCK
 62
    11
 10
9051.04149
 20
19974.283465
 30
0.0
 40
35.0
  1
680
 50
90.0
  0
POINT
  5
59
  8
DEFPOINTS
  6
BYBLOCK
 62
     0
 10
8900.0
 20
20350.0
 30
0.0
  0
POINT
  5
5A
  8
DEFPOINTS
  6
BYBLOCK
 62
     0
 10
8900.0
 20
19670.0
 30
0.0
  0
POINT
  5
5B
  8
DEFPOINTS
  6
BYBLOCK
 62
     0
 10
9033.54149
 20
19670.0
 30
0.0
  0
ENDBLK
  5
5D
  8
0
  0
BLOCK
  8
0
  2
*D1
 70
     1
 10
0.0
 20
0.0
 30
0.0
  3
*D1
  1

  0
LINE
  5
60
  8
0
  6
BYBLOCK
 62
     9
 10
8900.0
 20
20010.0
 30
0.0
 11
8900.0
 21
20429.317306
 31
0.0
  0
LINE
  5
61
  8
0
  6
BYBLOCK
 62
     9
 10
8120.0
 20
19895.0
 30
0.0
 11
8120.0
 21
20429.317306
 31
0.0
  0
LINE
  5
62
  8
0
  6
BYBLOCK
 62
     9
 10
8880.0
 20
20428.317306
 30
0.0
 11
8568.75
 21
20428.317306
 31
0.0
  0
LINE
  5
63
  8
0
  6
BYBLOCK
 62
     9
 10
8140.0
 20
20428.317306
 30
0.0
 11
8451.25
 21
20428.317306
 31
0.0
  0
SOLID
  5
64
  8
0
  6
BYBLOCK
 62
     9
 10
8880.0
 20
20431.650639
 30
0.0
 11
8880.0
 21
20424.983973
 31
0.0
 12
8900.0
 22
20428.317306
 32
0.0
 13
8900.0
 23
20428.317306
 33
0.0
  0
SOLID
  5
65
  8
0
  6
BYBLOCK
 62
     9
 10
8140.0
 20
20431.650639
 30
0.0
 11
8140.0
 21
20424.983973
 31
0.0
 12
8120.0
 22
20428.317306
 32
0.0
 13
8120.0
 23
20428.317306
 33
0.0
  0
TEXT
  5
66
  8
0
  6
BYBLOCK
 62
    11
 10
8473.23622
 20
20410.817306
 30
0.0
 40
35.0
  1
780
  0
POINT
  5
67
  8
DEFPOINTS
  6
BYBLOCK
 62
     0
 10
8900.0
 20
20000.0
 30
0.0
  0
POINT
  5
68
  8
DEFPOINTS
  6
BYBLOCK
 62
     0
 10
8120.0
 20
19885.0
 30
0.0
  0
POINT
  5
69
  8
DEFPOINTS
  6
BYBLOCK
 62
     0
 10
8120.0
 20
20428.317306
 30
0.0
  0
ENDBLK
  5
6B
  8
0
  0
BLOCK
  8
0
  2
*D2
 70
     1
 10
0.0
 20
0.0
 30
0.0
  3
*D2
  1

  0
LINE
  5
6E
  8
0
  6
BYBLOCK
 62
     9
 10
8130.0
 20
19885.0
 30
0.0
 11
8969.795674
 21
19885.0
 31
0.0
  0
LINE
  5
6F
  8
0
  6
BYBLOCK
 62
     9
 10
8910.0
 20
20350.0
 30
0.0
 11
8969.795674
 21
20350.0
 31
0.0
  0
LINE
  5
70
  8
0
  6
BYBLOCK
 62
     9
 10
8968.795674
 20
19905.0
 30
0.0
 11
8968.795674
 21
20055.833333
 31
0.0
  0
LINE
  5
71
  8
0
  6
BYBLOCK
 62
     9
 10
8968.795674
 20
20330.0
 30
0.0
 11
8968.795674
 21
20179.166667
 31
0.0
  0
SOLID
  5
72
  8
0
  6
BYBLOCK
 62
     9
 10
8965.462341
 20
19905.0
 30
0.0
 11
8972.129007
 21
19905.0
 31
0.0
 12
8968.795674
 22
19885.0
 32
0.0
 13
8968.795674
 23
19885.0
 33
0.0
  0
SOLID
  5
73
  8
0
  6
BYBLOCK
 62
     9
 10
8965.462341
 20
20330.0
 30
0.0
 11
8972.129007
 21
20330.0
 31
0.0
 12
8968.795674
 22
20350.0
 32
0.0
 13
8968.795674
 23
20350.0
 33
0.0
  0
TEXT
  5
74
  8
0
  6
BYBLOCK
 62
    11
 10
8986.295674
 20
20078.275126
 30
0.0
 40
35.0
  1
465
 50
90.0
  0
POINT
  5
75
  8
DEFPOINTS
  6
BYBLOCK
 62
     0
 10
8120.0
 20
19885.0
 30
0.0
  0
POINT
  5
76
  8
DEFPOINTS
  6
BYBLOCK
 62
     0
 10
8900.0
 20
20350.0
 30
0.0
  0
POINT
  5
77
  8
DEFPOINTS
  6
BYBLOCK
 62
     0
 10
8968.795674
 20
20350.0
 30
0.0
  0
ENDBLK
  5
79
  8
0
  0
BLOCK
  8
0
  2
*D3
 70
     1
 10
0.0
 20
0.0
 30
0.0
  3
*D3
  1

  0
LINE
  5
22
  8
0
  6
BYBLOCK
 62
     9
 10
8900.0
 20
20010.0
 30
0.0
 11
8900.0
 21
20511.800293
 31
0.0
  0
LINE
  5
23
  8
0
  6
BYBLOCK
 62
     9
 10
7099.999973
 20
20010.0
 30
0.0
 11
7099.999973
 21
20511.800293
 31
0.0
  0
LINE
  5
24
  8
0
  6
BYBLOCK
 62
     9
 10
8880.0
 20
20510.800293
 30
0.0
 11
8067.499987
 21
20510.800293
 31
0.0
  0
LINE
  5
25
  8
0
  6
BYBLOCK
 62
     9
 10
7119.999973
 20
20510.800293
 30
0.0
 11
7932.499987
 21
20510.800293
 31
0.0
  0
SOLID
  5
26
  8
0
  6
BYBLOCK
 62
     9
 10
8880.0
 20
20514.133626
 30
0.0
 11
8880.0
 21
20507.46696
 31
0.0
 12
8900.0
 22
20510.800293
 32
0.0
 13
8900.0
 23
20510.800293
 33
0.0
  0
SOLID
  5
27
  8
0
  6
BYBLOCK
 62
     9
 10
7119.999973
 20
20514.133626
 30
0.0
 11
7119.999973
 21
20507.46696
 31
0.0
 12
7099.999973
 22
20510.800293
 32
0.0
 13
7099.999973
 23
20510.800293
 33
0.0
  0
TEXT
  5
28
  8
0
  6
BYBLOCK
 62
    11
 10
7954.486207
 20
20493.300293
 30
0.0
 40
35.0
  1
1800
  0
POINT
  5
29
  8
DEFPOINTS
  6
BYBLOCK
 62
     0
 10
8900.0
 20
20000.0
 30
0.0
  0
POINT
  5
2B
  8
DEFPOINTS
  6
BYBLOCK
 62
     0
 10
7099.999973
 20
20000.0
 30
0.0
  0
POINT
  5
2C
  8
DEFPOINTS
  6
BYBLOCK
 62
     0
 10
7099.999973
 20
20510.800293
 30
0.0
  0
ENDBLK
  5
2E
  8
0
  0
BLOCK
  8
0
  2
*D4
 70
     1
 10
0.0
 20
0.0
 30
0.0
  3
*D4
  1

  0
LINE
  5
38
  8
0
  6
BYBLOCK
 62
     9
 10
7090.0
 20
20350.0
 30
0.0
 11
7018.47124
 21
20350.0
 31
0.0
  0
LINE
  5
39
  8
0
  6
BYBLOCK
 62
     9
 10
7090.0
 20
18950.0
 30
0.0
 11
7018.47124
 21
18950.0
 31
0.0
  0
LINE
  5
3A
  8
0
  6
BYBLOCK
 62
     9
 10
7019.47124
 20
20330.0
 30
0.0
 11
7019.47124
 21
19717.5
 31
0.0
  0
LINE
  5
3B
  8
0
  6
BYBLOCK
 62
     9
 10
7019.47124
 20
18970.0
 30
0.0
 11
7019.47124
 21
19582.5
 31
0.0
  0
TEXT
  5
3C
  8
0
  6
BYBLOCK
 62
    11
 10
7036.97124
 20
19602.73622
 30
0.0
 40
35.0
  1
1400
 50
90.0
  0
SOLID
  5
3D
  8
0
  6
BYBLOCK
 62
     9
 10
7016.137907
 20
20330.0
 30
0.0
 11
7022.804573
 21
20330.0
 31
0.0
 12
7019.47124
 22
20350.0
 32
0.0
 13
7019.47124
 23
20350.0
 33
0.0
  0
SOLID
  5
3E
  8
0
  6
BYBLOCK
 62
     9
 10
7016.137907
 20
18970.0
 30
0.0
 11
7022.804573
 21
18970.0
 31
0.0
 12
7019.47124
 22
18950.0
 32
0.0
 13
7019.47124
 23
18950.0
 33
0.0
  0
POINT
  5
3F
  8
DEFPOINTS
  6
BYBLOCK
 62
     0
 10
7100.0
 20
20350.0
 30
0.0
  0
POINT
  5
40
  8
DEFPOINTS
  6
BYBLOCK
 62
     0
 10
7100.0
 20
18950.0
 30
0.0
  0
POINT
  5
41
  8
DEFPOINTS
  6
BYBLOCK
 62
     0
 10
7019.47124
 20
18950.0
 30
0.0
  0
ENDBLK
  5
43
  8
0
  0
ENDSEC
  0
SECTION
  2
ENTITIES
  0
DIMENSION
  5
20
  8
TEAM-MAS
  2
*D3
 10
-900.000027
 20
510.800293
 30
0.0
 11
-0.000013
 21
510.800293
 31
0.0
 12
-8000.0
 22
-20000.0
 32
0.0
 13
900.0
 23
0.0
 33
0.0
 14
-900.000027
 24
0.0
 34
0.0
1001
ACAD
1000
DSTYLE
1002
{
1070
    40
1040
1.0
1002
}
  0
LINE
  5
2F
  8
TEAM-BODY
 10
900.0
 20
350.0
 30
0.0
 11
-900.0
 21
350.0
 31
0.0
  0
LINE
  5
31
  8
TEAM-BODY
 10
656.832498
 20
225.0
 30
0.0
 11
-517.117945
 21
225.0
 31
0.0
  0
LINE
  5
32
  8
TEAM-BODY
 10
755.789743
 20
275.0
 30
0.0
 11
-796.803757
 21
275.0
 31
0.0
  0
LINE
  5
33
  8
TEAM-BODY
 10
-380.947575
 20
-656.672301
 30
0.0
 11
709.670391
 21
-244.459492
 31
0.0
  0
LINE
  5
34
  8
TEAM-BODY
 10
-900.0
 20
-1050.0
 30
0.0
 11
900.0
 21
-330.0
 31
0.0
  0
LINE
  5
35
  8
TEAM-BODY
 10
-628.928974
 20
-835.594658
 30
0.0
 11
807.505415
 21
-273.824396
 31
0.0
  0
DIMENSION
  5
36
  8
TEAM-MAS
  2
*D4
 10
-980.52876
 20
-1050.0
 30
0.0
 11
-980.52876
 21
-350.0
 31
0.0
 12
-8000.0
 22
-20000.0
 32
0.0
 70
   128
 13
-900.0
 23
350.0
 33
0.0
 14
-900.0
 24
-1050.0
 34
0.0
 50
90.0
  0
CIRCLE
  5
44
  8
TEAM-INSP
 10
0.0
 20
0.0
 30
0.0
 40
10.0
  0
TEXT
  5
46
  8
TEAM-TXT
 10
-427.914618
 20
111.61017
 30
0.0
 40
30.0
  1
team 121931
 41
0.8
 51
15.0
  7
TEAM
  0
ARC
  5
49
  8
TEAM-BODY
 10
-796.803757
 20
240.0
 30
0.0
 40
35.0
 50
90.0
 51
185.372302
  0
ARC
  5
4A
  8
TEAM-BODY
 10
-517.117945
 20
190.0
 30
0.0
 40
35.0
 50
90.0
 51
185.596401
  0
ARC
  5
4B
  8
TEAM-BODY
 10
-388.582684
 20
-622.515236
 30
0.0
 40
35.0
 50
200.180502
 51
282.60016
  0
ARC
  5
4C
  8
TEAM-BODY
 10
-636.564083
 20
-801.437593
 30
0.0
 40
35.0
 50
199.775783
 51
282.60016
  0
LINE
  5
4D
  8
TEAM-BODY
 10
-900.0
 20
350.0
 30
0.0
 11
-900.0
 21
-1050.0
 31
0.0
  0
ARC
  5
4E
  8
TEAM-BODY
 10
1717.155518
 20
126.27641
 30
0.0
 40
2269.907986
 50
178.477499
 51
199.584506
  0
ARC
  5
4F
  8
TEAM-BODY
 10
2455.777124
 20
206.873239
 30
0.0
 40
3287.562653
 50
179.479769
 51
198.077715
  0
DIMENSION
  5
50
  8
TEAM-MAS
  2
*D0
 10
1033.54149
 20
-330.0
 30
0.0
 11
1033.54149
 21
10.0
 31
0.0
 12
-8000.0
 22
-20000.0
 32
0.0
 13
900.0
 23
350.0
 33
0.0
 14
900.0
 24
-330.0
 34
0.0
 50
90.0
1001
ACAD
1000
DSTYLE
1002
{
1070
    40
1040
1.0
1002
}
  0
DIMENSION
  5
5E
  8
TEAM-MAS
  2
*D1
 10
120.0
 20
428.317306
 30
0.0
 11
510.0
 21
428.317306
 31
0.0
 12
-8000.0
 22
-20000.0
 32
0.0
 13
900.0
 23
0.0
 33
0.0
 14
120.0
 24
-115.0
 34
0.0
1001
ACAD
1000
DSTYLE
1002
{
1070
    40
1040
1.0
1002
}
  0
DIMENSION
  5
6C
  8
TEAM-MAS
  2
*D2
 10
968.795674
 20
350.0
 30
0.0
 11
968.795674
 21
117.5
 31
0.0
 12
-8000.0
 22
-20000.0
 32
0.0
 13
120.0
 23
-115.0
 33
0.0
 14
900.0
 24
350.0
 34
0.0
 50
90.0
1001
ACAD
1000
DSTYLE
1002
{
1070
    40
1040
1.0
1002
}
  0
CIRCLE
  5
7A
  8
TEAM-DET1
 10
120.0
 20
-115.0
 30
0.0
 40
35.0
  0
CIRCLE
  5
7C
  8
TEAM-KAN
 10
120.0
 20
-115.0
 30
0.0
 40
26.0
  0
POLYLINE
  5
7E
  8
TEAM-KAN
 66
     1
 10
0.0
 20
0.0
 30
0.0
  0
VERTEX
  5
195
  8
TEAM-KAN
 10
159.150734
 20
-435.551865
 30
0.0
  0
VERTEX
  5
196
  8
TEAM-KAN
 10
159.627274
 20
-435.152478
 30
0.0
  0
VERTEX
  5
197
  8
TEAM-KAN
 10
160.011621
 20
-434.752506
 30
0.0
  0
VERTEX
  5
198
  8
TEAM-KAN
 10
160.290544
 20
-434.385489
 30
0.0
  0
VERTEX
  5
199
  8
TEAM-KAN
 10
160.479382
 20
-434.027661
 30
0.0
  0
VERTEX
  5
19A
  8
TEAM-KAN
 10
160.558582
 20
-433.683238
 30
0.0
  0
VERTEX
  5
19B
  8
TEAM-KAN
 10
160.542134
 20
-433.369663
 30
0.0
  0
SEQEND
  5
19C
  8
TEAM-KAN
  0
POLYLINE
  5
7F
  8
TEAM-KAN
 66
     1
 10
0.0
 20
0.0
 30
0.0
  0
VERTEX
  5
19D
  8
TEAM-KAN
 10
160.542134
 20
-433.369663
 30
0.0
  0
VERTEX
  5
19E
  8
TEAM-KAN
 10
160.427933
 20
-433.07716
 30
0.0
  0
VERTEX
  5
19F
  8
TEAM-KAN
 10
160.213869
 20
-432.795954
 30
0.0
  0
VERTEX
  5
1A0
  8
TEAM-KAN
 10
159.894383
 20
-432.547703
 30
0.0
  0
VERTEX
  5
1A1
  8
TEAM-KAN
 10
159.489024
 20
-432.328193
 30
0.0
  0
VERTEX
  5
1A2
  8
TEAM-KAN
 10
158.976136
 20
-432.131862
 30
0.0
  0
VERTEX
  5
1A3
  8
TEAM-KAN
 10
158.375269
 20
-431.954497
 30
0.0
  0
VERTEX
  5
1A4
  8
TEAM-KAN
 10
157.678754
 20
-431.80798
 30
0.0
  0
VERTEX
  5
1A5
  8
TEAM-KAN
 10
156.896368
 20
-431.690203
 30
0.0
  0
VERTEX
  5
1A6
  8
TEAM-KAN
 10
156.018334
 20
-431.603274
 30
0.0
  0
VERTEX
  5
1A7
  8
TEAM-KAN
 10
155.073979
 20
-431.540871
 30
0.0
  0
VERTEX
  5
1A8
  8
TEAM-KAN
 10
154.043752
 20
-431.507209
 30
0.0
  0
VERTEX
  5
1A9
  8
TEAM-KAN
 10
152.929761
 20
-431.512063
 30
0.0
  0
VERTEX
  5
1AA
  8
TEAM-KAN
 10
151.757117
 20
-431.529561
 30
0.0
  0
VERTEX
  5
1AB
  8
TEAM-KAN
 10
150.522367
 20
-431.591135
 30
0.0
  0
VERTEX
  5
1AC
  8
TEAM-KAN
 10
149.221295
 20
-431.677236
 30
0.0
  0
VERTEX
  5
1AD
  8
TEAM-KAN
 10
147.853903
 20
-431.787863
 30
0.0
  0
VERTEX
  5
1AE
  8
TEAM-KAN
 10
146.451623
 20
-431.926469
 30
0.0
  0
VERTEX
  5
1AF
  8
TEAM-KAN
 10
144.994905
 20
-432.09727
 30
0.0
  0
VERTEX
  5
1B0
  8
TEAM-KAN
 10
143.510968
 20
-432.284169
 30
0.0
  0
VERTEX
  5
1B1
  8
TEAM-KAN
 10
141.982369
 20
-432.501154
 30
0.0
  0
VERTEX
  5
1B2
  8
TEAM-KAN
 10
140.430764
 20
-432.753787
 30
0.0
  0
VERTEX
  5
1B3
  8
TEAM-KAN
 10
138.861716
 20
-433.020411
 30
0.0
  0
VERTEX
  5
1B4
  8
TEAM-KAN
 10
137.267556
 20
-433.312907
 30
0.0
  0
VERTEX
  5
1B5
  8
TEAM-KAN
 10
135.667835
 20
-433.627061
 30
0.0
  0
VERTEX
  5
1B6
  8
TEAM-KAN
 10
134.072329
 20
-433.960766
 30
0.0
  0
VERTEX
  5
1B7
  8
TEAM-KAN
 10
132.481037
 20
-434.314022
 30
0.0
  0
VERTEX
  5
1B8
  8
TEAM-KAN
 10
130.893959
 20
-434.686829
 30
0.0
  0
VERTEX
  5
1B9
  8
TEAM-KAN
 10
129.330647
 20
-435.074973
 30
0.0
  0
VERTEX
  5
1BA
  8
TEAM-KAN
 10
127.7911
 20
-435.478452
 30
0.0
  0
VERTEX
  5
1BB
  8
TEAM-KAN
 10
126.273212
 20
-435.887493
 30
0.0
  0
VERTEX
  5
1BC
  8
TEAM-KAN
 10
110.127788
 20
-439.480403
 30
0.0
  0
VERTEX
  5
1BD
  8
TEAM-KAN
 10
108.688864
 20
-439.92357
 30
0.0
  0
VERTEX
  5
1BE
  8
TEAM-KAN
 10
107.300924
 20
-440.365977
 30
0.0
  0
VERTEX
  5
1BF
  8
TEAM-KAN
 10
105.956301
 20
-440.819505
 30
0.0
  0
VERTEX
  5
1C0
  8
TEAM-KAN
 10
104.674545
 20
-441.279941
 30
0.0
  0
VERTEX
  5
1C1
  8
TEAM-KAN
 10
103.453549
 20
-441.737509
 30
0.0
  0
VERTEX
  5
1C2
  8
TEAM-KAN
 10
102.293312
 20
-442.192209
 30
0.0
  0
VERTEX
  5
1C3
  8
TEAM-KAN
 10
101.217602
 20
-442.659378
 30
0.0
  0
VERTEX
  5
1C4
  8
TEAM-KAN
 10
100.210319
 20
-443.111795
 30
0.0
  0
VERTEX
  5
1C5
  8
TEAM-KAN
 10
99.285455
 20
-443.566906
 30
0.0
  0
VERTEX
  5
1C6
  8
TEAM-KAN
 10
98.440901
 20
-444.014934
 30
0.0
  0
VERTEX
  5
1C7
  8
TEAM-KAN
 10
97.686434
 20
-444.453773
 30
0.0
  0
VERTEX
  5
1C8
  8
TEAM-KAN
 10
97.022053
 20
-444.883422
 30
0.0
  0
VERTEX
  5
1C9
  8
TEAM-KAN
 10
96.447758
 20
-445.30388
 30
0.0
  0
VERTEX
  5
1CA
  8
TEAM-KAN
 10
95.96355
 20
-445.71515
 30
0.0
  0
VERTEX
  5
1CB
  8
TEAM-KAN
 10
95.586872
 20
-446.103239
 30
0.0
  0
VERTEX
  5
1CC
  8
TEAM-KAN
 10
95.298173
 20
-446.472364
 30
0.0
  0
SEQEND
  5
1CD
  8
TEAM-KAN
  0
POLYLINE
  5
80
  8
TEAM-KAN
 66
     1
 10
0.0
 20
0.0
 30
0.0
  0
VERTEX
  5
1CE
  8
TEAM-KAN
 10
95.298173
 20
-446.472364
 30
0.0
  0
VERTEX
  5
1CF
  8
TEAM-KAN
 10
95.119111
 20
-446.828084
 30
0.0
  0
VERTEX
  5
1D0
  8
TEAM-KAN
 10
95.039911
 20
-447.172507
 30
0.0
  0
VERTEX
  5
1D1
  8
TEAM-KAN
 10
95.046583
 20
-447.48819
 30
0.0
  0
VERTEX
  5
1D2
  8
TEAM-KAN
 10
95.17056
 20
-447.778585
 30
0.0
  0
VERTEX
  5
1D3
  8
TEAM-KAN
 10
95.384623
 20
-448.059791
 30
0.0
  0
VERTEX
  5
1D4
  8
TEAM-KAN
 10
95.694334
 20
-448.310149
 30
0.0
  0
VERTEX
  5
1D5
  8
TEAM-KAN
 10
96.109468
 20
-448.527552
 30
0.0
  0
VERTEX
  5
1D6
  8
TEAM-KAN
 10
96.614688
 20
-448.735766
 30
0.0
  0
VERTEX
  5
1D7
  8
TEAM-KAN
 10
97.223224
 20
-448.901248
 30
0.0
  0
VERTEX
  5
1D8
  8
TEAM-KAN
 10
97.919738
 20
-449.047766
 30
0.0
  0
VERTEX
  5
1D9
  8
TEAM-KAN
 10
98.702125
 20
-449.165542
 30
0.0
  0
VERTEX
  5
1DA
  8
TEAM-KAN
 10
99.570383
 20
-449.254578
 30
0.0
  0
VERTEX
  5
1DB
  8
TEAM-KAN
 10
100.524513
 20
-449.314874
 30
0.0
  0
VERTEX
  5
1DC
  8
TEAM-KAN
 10
101.55474
 20
-449.348536
 30
0.0
  0
VERTEX
  5
1DD
  8
TEAM-KAN
 10
102.658956
 20
-449.345789
 30
0.0
  0
VERTEX
  5
1DE
  8
TEAM-KAN
 10
103.8316
 20
-449.328292
 30
0.0
  0
VERTEX
  5
1DF
  8
TEAM-KAN
 10
105.076126
 20
-449.26461
 30
0.0
  0
VERTEX
  5
1E0
  8
TEAM-KAN
 10
106.379304
 20
-449.188285
 30
0.0
  0
VERTEX
  5
1E1
  8
TEAM-KAN
 10
107.734814
 20
-449.06999
 30
0.0
  0
VERTEX
  5
1E2
  8
TEAM-KAN
 10
109.146869
 20
-448.929276
 30
0.0
  0
VERTEX
  5
1E3
  8
TEAM-KAN
 10
110.593811
 20
-448.760582
 30
0.0
  0
VERTEX
  5
1E4
  8
TEAM-KAN
 10
112.087524
 20
-448.571577
 30
0.0
  0
VERTEX
  5
1E5
  8
TEAM-KAN
 10
128.2772
 20
-445.183951
 30
0.0
  0
VERTEX
  5
1E6
  8
TEAM-KAN
 10
129.830911
 20
-444.941093
 30
0.0
  0
VERTEX
  5
1E7
  8
TEAM-KAN
 10
131.399959
 20
-444.67447
 30
0.0
  0
VERTEX
  5
1E8
  8
TEAM-KAN
 10
132.984344
 20
-444.384081
 30
0.0
  0
VERTEX
  5
1E9
  8
TEAM-KAN
 10
134.584065
 20
-444.069927
 30
0.0
  0
VERTEX
  5
1EA
  8
TEAM-KAN
 10
136.179571
 20
-443.736222
 30
0.0
  0
VERTEX
  5
1EB
  8
TEAM-KAN
 10
137.770863
 20
-443.382966
 30
0.0
  0
VERTEX
  5
1EC
  8
TEAM-KAN
 10
139.357941
 20
-443.010159
 30
0.0
  0
VERTEX
  5
1ED
  8
TEAM-KAN
 10
140.931029
 20
-442.619908
 30
0.0
  0
VERTEX
  5
1EE
  8
TEAM-KAN
 10
142.470575
 20
-442.216428
 30
0.0
  0
VERTEX
  5
1EF
  8
TEAM-KAN
 10
143.986357
 20
-441.797612
 30
0.0
  0
VERTEX
  5
1F0
  8
TEAM-KAN
 10
145.470704
 20
-441.375342
 30
0.0
  0
VERTEX
  5
1F1
  8
TEAM-KAN
 10
146.899853
 20
-440.934282
 30
0.0
  0
VERTEX
  5
1F2
  8
TEAM-KAN
 10
148.297568
 20
-440.489768
 30
0.0
  0
VERTEX
  5
1F3
  8
TEAM-KAN
 10
149.632416
 20
-440.038347
 30
0.0
  0
VERTEX
  5
1F4
  8
TEAM-KAN
 10
150.926055
 20
-439.585579
 30
0.0
  0
VERTEX
  5
1F5
  8
TEAM-KAN
 10
152.144944
 20
-439.118236
 30
0.0
  0
VERTEX
  5
1F6
  8
TEAM-KAN
 10
153.295404
 20
-438.665643
 30
0.0
  0
VERTEX
  5
1F7
  8
TEAM-KAN
 10
154.371115
 20
-438.198475
 30
0.0
  0
VERTEX
  5
1F8
  8
TEAM-KAN
 10
155.388173
 20
-437.74395
 30
0.0
  0
VERTEX
  5
1F9
  8
TEAM-KAN
 10
156.313038
 20
-437.288839
 30
0.0
  0
VERTEX
  5
1FA
  8
TEAM-KAN
 10
157.147816
 20
-436.842918
 30
0.0
  0
VERTEX
  5
1FB
  8
TEAM-KAN
 10
157.912059
 20
-436.401972
 30
0.0
  0
VERTEX
  5
1FC
  8
TEAM-KAN
 10
158.57644
 20
-435.972324
 30
0.0
  0
VERTEX
  5
1FD
  8
TEAM-KAN
 10
159.150734
 20
-435.551865
 30
0.0
  0
SEQEND
  5
1FE
  8
TEAM-KAN
  0
LINE
  5
81
  8
TEAM-KAN
 10
86.854751
 20
-449.254059
 30
0.0
 11
168.743742
 21
-431.601686
 31
0.0
  0
LINE
  5
82
  8
TEAM-BODY
 10
900.0
 20
-330.0
 30
0.0
 11
900.0
 21
350.0
 31
0.0
  0
ARC
  5
83
  8
TEAM-BODY
 10
-318.97169
 20
-123.007007
 30
0.0
 40
1059.728562
 50
355.086056
 51
17.88544
  0
ARC
  5
84
  8
TEAM-BODY
 10
-2162.875343
 20
-270.142911
 30
0.0
 40
2997.902346
 50
0.590351
 51
9.930736
  0
ARC
  5
85
  8
TEAM-BODY
 10
702.035282
 20
-210.302426
 30
0.0
 40
35.0
 50
282.60016
 51
354.293244
  0
ARC
  5
86
  8
TEAM-BODY
 10
799.870307
 20
-239.66733
 30
0.0
 40
35.0
 50
282.60016
 51
0.676023
  0
ARC
  5
87
  8
TEAM-BODY
 10
755.789743
 20
240.0
 30
0.0
 40
35.0
 50
11.316347
 51
90.0
  0
ARC
  5
88
  8
TEAM-BODY
 10
656.832498
 20
190.0
 30
0.0
 40
35.0
 50
20.839506
 51
90.0
  0
ENDSEC
  0
EOF
