  0
SECTION
  2
HEADER
  9
$ACADVER
  1
AC1009
  9
$INSBASE
 10
0.0
 20
0.0
 30
0.0
  9
$EXTMIN
 10
-901.276461
 20
-10.050337
 30
-0.000006
  9
$EXTMAX
 10
961.012867
 20
643.890977
 30
0.0
  9
$LIMMIN
 10
-901.276461
 20
-10.050337
  9
$LIMMAX
 10
961.012867
 20
643.890977
  9
$ORTHOMODE
 70
     1
  9
$REGENMODE
 70
     1
  9
$FILLMODE
 70
     1
  9
$QTEXTMODE
 70
     0
  9
$MIRRTEXT
 70
     0
  9
$DRAGMODE
 70
     2
  9
$LTSCALE
 40
25.0
  9
$OSMODE
 70
     0
  9
$ATTMODE
 70
     1
  9
$TEXTSIZE
 40
200.0
  9
$TRACEWID
 40
1.0
  9
$TEXTSTYLE
  7
STANDARD
  9
$CLAYER
  8
TEAM-MAS
  9
$CELTYPE
  6
BYLAYER
  9
$CECOLOR
 62
   256
  9
$DIMSCALE
 40
0.0
  9
$DIMASZ
 40
20.0
  9
$DIMEXO
 40
10.0
  9
$DIMDLI
 40
1.0
  9
$DIMRND
 40
0.0
  9
$DIMDLE
 40
0.0
  9
$DIMEXE
 40
1.0
  9
$DIMTP
 40
0.0
  9
$DIMTM
 40
0.0
  9
$DIMTXT
 40
35.0
  9
$DIMCEN
 40
1.0
  9
$DIMTSZ
 40
0.0
  9
$DIMTOL
 70
     0
  9
$DIMLIM
 70
     0
  9
$DIMTIH
 70
     0
  9
$DIMTOH
 70
     0
  9
$DIMSE1
 70
     0
  9
$DIMSE2
 70
     0
  9
$DIMTAD
 70
     0
  9
$DIMZIN
 70
     0
  9
$DIMBLK
  1

  9
$DIMASO
 70
     1
  9
$DIMSHO
 70
     0
  9
$DIMPOST
  1

  9
$DIMAPOST
  1

  9
$DIMALT
 70
     0
  9
$DIMALTD
 70
     2
  9
$DIMALTF
 40
25.4
  9
$DIMLFAC
 40
1.0
  9
$DIMTOFL
 70
     0
  9
$DIMTVP
 40
0.0
  9
$DIMTIX
 70
     0
  9
$DIMSOXD
 70
     0
  9
$DIMSAH
 70
     0
  9
$DIMBLK1
  1

  9
$DIMBLK2
  1

  9
$DIMSTYLE
  2
TEAM
  9
$DIMCLRD
 70
     9
  9
$DIMCLRE
 70
     9
  9
$DIMCLRT
 70
    11
  9
$DIMTFAC
 40
1.0
  9
$DIMGAP
 40
15.0
  9
$LUNITS
 70
     2
  9
$LUPREC
 70
     1
  9
$SKETCHINC
 40
1.0
  9
$FILLETRAD
 40
50.0
  9
$AUNITS
 70
     0
  9
$AUPREC
 70
     0
  9
$MENU
  1
ROPLANS
  9
$ELEVATION
 40
0.0
  9
$PELEVATION
 40
0.0
  9
$THICKNESS
 40
0.0
  9
$LIMCHECK
 70
     0
  9
$BLIPMODE
 70
     1
  9
$CHAMFERA
 40
0.0
  9
$CHAMFERB
 40
0.0
  9
$SKPOLY
 70
     0
  9
$TDCREATE
 40
2450392.957851
  9
$TDUPDATE
 40
2455534.564459
  9
$TDINDWG
 40
2.577934
  9
$TDUSRTIMER
 40
2.577934
  9
$USRTIMER
 70
     1
  9
$ANGBASE
 50
0.0
  9
$ANGDIR
 70
     0
  9
$PDMODE
 70
     0
  9
$PDSIZE
 40
0.0
  9
$PLINEWID
 40
0.0
  9
$COORDS
 70
     2
  9
$SPLFRAME
 70
     0
  9
$SPLINETYPE
 70
     6
  9
$SPLINESEGS
 70
     8
  9
$ATTDIA
 70
     0
  9
$ATTREQ
 70
     0
  9
$HANDLING
 70
     1
  9
$HANDSEED
  5
AD
  9
$SURFTAB1
 70
    36
  9
$SURFTAB2
 70
    36
  9
$SURFTYPE
 70
     6
  9
$SURFU
 70
     6
  9
$SURFV
 70
     6
  9
$UCSNAME
  2

  9
$UCSORG
 10
0.0
 20
0.0
 30
0.0
  9
$UCSXDIR
 10
1.0
 20
0.0
 30
0.0
  9
$UCSYDIR
 10
0.0
 20
1.0
 30
0.0
  9
$PUCSNAME
  2

  9
$PUCSORG
 10
0.0
 20
0.0
 30
0.0
  9
$PUCSXDIR
 10
1.0
 20
0.0
 30
0.0
  9
$PUCSYDIR
 10
0.0
 20
1.0
 30
0.0
  9
$USERI1
 70
     0
  9
$USERI2
 70
     0
  9
$USERI3
 70
     0
  9
$USERI4
 70
     0
  9
$USERI5
 70
     0
  9
$USERR1
 40
0.0
  9
$USERR2
 40
0.0
  9
$USERR3
 40
0.0
  9
$USERR4
 40
0.0
  9
$USERR5
 40
0.0
  9
$WORLDVIEW
 70
     1
  9
$SHADEDGE
 70
     0
  9
$SHADEDIF
 70
    70
  9
$TILEMODE
 70
     1
  9
$MAXACTVP
 70
    16
  9
$PLIMCHECK
 70
     0
  9
$PEXTMIN
 10
-0.805942
 20
0.005011
 30
0.0
  9
$PEXTMAX
 10
20.421406
 20
13.725274
 30
0.0
  9
$PLIMMIN
 10
0.0
 20
0.0
  9
$PLIMMAX
 10
12.0
 20
9.0
  9
$UNITMODE
 70
     0
  9
$VISRETAIN
 70
     0
  9
$PLINEGEN
 70
     0
  9
$PSLTSCALE
 70
     0
  0
ENDSEC
  0
SECTION
  2
TABLES
  0
TABLE
  2
VPORT
 70
     2
  0
VPORT
  2
*ACTIVE
 70
     0
 10
0.0
 20
0.0
 11
1.0
 21
1.0
 12
29.868203
 22
316.92032
 13
0.0
 23
0.0
 14
1.0
 24
1.0
 15
50.0
 25
50.0
 16
0.0
 26
0.0
 36
1.0
 17
0.0
 27
0.0
 37
0.0
 40
1001.415175
 41
1.865779
 42
50.0
 43
0.0
 44
0.0
 50
0.0
 51
0.0
 71
     0
 72
   100
 73
     1
 74
     1
 75
     0
 76
     0
 77
     0
 78
     0
  0
ENDTAB
  0
TABLE
  2
LTYPE
 70
     2
  0
LTYPE
  2
CONTINUOUS
 70
     0
  3
Solid Line
 72
    65
 73
     0
 40
0.0
  0
LTYPE
  2
22
 70
     0
  3

 72
    65
 73
     2
 40
1.4
 49
1.2
 49
-0.2
  0
ENDTAB
  0
TABLE
  2
LAYER
 70
     8
  0
LAYER
  2
0
 70
     0
 62
     7
  6
CONTINUOUS
  0
LAYER
  2
DEFPOINTS
 70
     0
 62
     7
  6
CONTINUOUS
  0
LAYER
  2
TEAM-BODY
 70
     0
 62
     2
  6
CONTINUOUS
  0
LAYER
  2
TEAM-MAS
 70
     0
 62
     9
  6
CONTINUOUS
  0
LAYER
  2
TEAM-TXT
 70
     0
 62
    11
  6
CONTINUOUS
  0
LAYER
  2
TEAM-HIDE
 70
     0
 62
     8
  6
22
  0
LAYER
  2
TEAM-KAN
 70
     0
 62
     6
  6
CONTINUOUS
  0
LAYER
  2
TEAM-INSP
 70
     0
 62
     5
  6
CONTINUOUS
  0
ENDTAB
  0
TABLE
  2
STYLE
 70
     2
  0
STYLE
  2
STANDARD
 70
     0
 40
0.0
 41
1.0
 50
0.0
 71
     0
 42
200.0
  3
txt
  4

  0
STYLE
  2
TEAM
 70
     0
 40
0.0
 41
0.8
 50
15.0
 71
     0
 42
7.0
  3
ROMANS.shx
  4

  0
ENDTAB
  0
TABLE
  2
VIEW
 70
     0
  0
ENDTAB
  0
TABLE
  2
UCS
 70
     0
  0
ENDTAB
  0
TABLE
  2
APPID
 70
     1
  0
APPID
  2
ACAD
 70
     0
  0
ENDTAB
  0
TABLE
  2
DIMSTYLE
 70
     1
  0
DIMSTYLE
  2
TEAM
 70
     0
  3

  4

  5

  6

  7

 40
0.0
 41
20.0
 42
10.0
 43
1.0
 44
1.0
 45
0.0
 46
0.0
 47
0.0
 48
0.0
140
35.0
141
1.0
142
0.0
143
25.4
144
1.0
145
0.0
146
1.0
147
15.0
 71
     0
 72
     0
 73
     0
 74
     0
 75
     0
 76
     0
 77
     0
 78
     0
170
     0
171
     2
172
     0
173
     0
174
     0
175
     0
176
     9
177
     9
178
    11
  0
ENDTAB
  0
ENDSEC
  0
SECTION
  2
BLOCKS
  0
BLOCK
  8
0
  2
$MODEL_SPACE
 70
     0
 10
0.0
 20
0.0
 30
0.0
  3
$MODEL_SPACE
  1

  0
ENDBLK
  5
A6
  8
0
  0
BLOCK
 67
     1
  8
0
  2
$PAPER_SPACE
 70
     0
 10
0.0
 20
0.0
 30
0.0
  3
$PAPER_SPACE
  1

  0
ENDBLK
  5
A4
 67
     1
  8
0
  0
BLOCK
  8
0
  2
*D0
 70
     1
 10
0.0
 20
0.0
 30
0.0
  3
*D0
  1

  0
LINE
  5
38
  8
0
  6
BYBLOCK
 62
     9
 10
126.0
 20
20089.999994
 30
0.0
 11
126.0
 21
20036.691411
 31
0.0
  0
LINE
  5
39
  8
0
  6
BYBLOCK
 62
     9
 10
74.0
 20
20089.999994
 30
0.0
 11
74.0
 21
20036.691411
 31
0.0
  0
LINE
  5
3A
  8
0
  6
BYBLOCK
 62
     9
 10
146.0
 20
20037.691411
 30
0.0
 11
166.0
 21
20037.691411
 31
0.0
  0
LINE
  5
3B
  8
0
  6
BYBLOCK
 62
     9
 10
54.0
 20
20037.691411
 30
0.0
 11
34.0
 21
20037.691411
 31
0.0
  0
TEXT
  5
3C
  8
0
  6
BYBLOCK
 62
    11
 10
239.948982
 20
20020.191411
 30
0.0
 40
35.0
  1
52
  0
LINE
  5
3D
  8
0
  6
BYBLOCK
 62
     9
 10
126.0
 20
20037.691411
 30
0.0
 11
74.0
 21
20037.691411
 31
0.0
  0
SOLID
  5
3E
  8
0
  6
BYBLOCK
 62
     9
 10
146.0
 20
20041.024744
 30
0.0
 11
146.0
 21
20034.358078
 31
0.0
 12
126.0
 22
20037.691411
 32
0.0
 13
126.0
 23
20037.691411
 33
0.0
  0
SOLID
  5
3F
  8
0
  6
BYBLOCK
 62
     9
 10
54.0
 20
20041.024744
 30
0.0
 11
54.0
 21
20034.358078
 31
0.0
 12
74.0
 22
20037.691411
 32
0.0
 13
74.0
 23
20037.691411
 33
0.0
  0
POINT
  5
40
  8
DEFPOINTS
  6
BYBLOCK
 62
     0
 10
126.0
 20
20099.999994
 30
0.0
  0
POINT
  5
41
  8
DEFPOINTS
  6
BYBLOCK
 62
     0
 10
74.0
 20
20099.999994
 30
0.0
  0
POINT
  5
42
  8
DEFPOINTS
  6
BYBLOCK
 62
     0
 10
74.0
 20
20037.691411
 30
0.0
  0
ENDBLK
  5
44
  8
0
  0
BLOCK
  8
0
  2
*D1
 70
     1
 10
0.0
 20
0.0
 30
0.0
  3
*D1
  1

  0
LINE
  5
47
  8
0
  6
BYBLOCK
 62
     9
 10
904.0
 20
20585.0
 30
0.0
 11
944.803911
 21
20585.0
 31
0.0
  0
LINE
  5
48
  8
0
  6
BYBLOCK
 62
     9
 10
139.19
 20
20099.999994
 30
0.0
 11
944.803911
 21
20099.999994
 31
0.0
  0
LINE
  5
49
  8
0
  6
BYBLOCK
 62
     9
 10
943.803911
 20
20565.0
 30
0.0
 11
943.803911
 21
20404.166663
 31
0.0
  0
LINE
  5
4A
  8
0
  6
BYBLOCK
 62
     9
 10
943.803911
 20
20119.999994
 30
0.0
 11
943.803911
 21
20280.83333
 31
0.0
  0
SOLID
  5
4B
  8
0
  6
BYBLOCK
 62
     9
 10
940.470577
 20
20565.0
 30
0.0
 11
947.137244
 21
20565.0
 31
0.0
 12
943.803911
 22
20585.0
 32
0.0
 13
943.803911
 23
20585.0
 33
0.0
  0
SOLID
  5
4C
  8
0
  6
BYBLOCK
 62
     9
 10
940.470577
 20
20119.999994
 30
0.0
 11
947.137244
 21
20119.999994
 31
0.0
 12
943.803911
 22
20099.999994
 32
0.0
 13
943.803911
 23
20099.999994
 33
0.0
  0
TEXT
  5
4D
  8
0
  6
BYBLOCK
 62
    11
 10
961.303911
 20
20303.275123
 30
0.0
 40
35.0
  1
485
 50
90.0
  0
POINT
  5
4E
  8
DEFPOINTS
  6
BYBLOCK
 62
     0
 10
894.0
 20
20585.0
 30
0.0
  0
POINT
  5
4F
  8
DEFPOINTS
  6
BYBLOCK
 62
     0
 10
129.19
 20
20099.999994
 30
0.0
  0
POINT
  5
50
  8
DEFPOINTS
  6
BYBLOCK
 62
     0
 10
943.803911
 20
20099.999994
 30
0.0
  0
ENDBLK
  5
52
  8
0
  0
BLOCK
  8
0
  2
*D2
 70
     1
 10
0.0
 20
0.0
 30
0.0
  3
*D2
  1

  0
LINE
  5
22
  8
0
  6
BYBLOCK
 62
     9
 10
-900.000027
 20
20551.0
 30
0.0
 11
-900.000027
 21
20629.106516
 31
0.0
  0
LINE
  5
23
  8
0
  6
BYBLOCK
 62
     9
 10
900.0
 20
20551.0
 30
0.0
 11
900.0
 21
20629.106516
 31
0.0
  0
LINE
  5
24
  8
0
  6
BYBLOCK
 62
     9
 10
-880.000027
 20
20628.106516
 30
0.0
 11
-67.500013
 21
20628.106516
 31
0.0
  0
LINE
  5
25
  8
0
  6
BYBLOCK
 62
     9
 10
880.0
 20
20628.106516
 30
0.0
 11
67.499987
 21
20628.106516
 31
0.0
  0
SOLID
  5
26
  8
0
  6
BYBLOCK
 62
     9
 10
-880.000027
 20
20631.439849
 30
0.0
 11
-880.000027
 21
20624.773182
 31
0.0
 12
-900.000027
 22
20628.106516
 32
0.0
 13
-900.000027
 23
20628.106516
 33
0.0
  0
SOLID
  5
27
  8
0
  6
BYBLOCK
 62
     9
 10
880.0
 20
20631.439849
 30
0.0
 11
880.0
 21
20624.773182
 31
0.0
 12
900.0
 22
20628.106516
 32
0.0
 13
900.0
 23
20628.106516
 33
0.0
  0
TEXT
  5
28
  8
0
  6
BYBLOCK
 62
    11
 10
-45.513793
 20
20610.606516
 30
0.0
 40
35.0
  1
1800
  0
POINT
  5
29
  8
DEFPOINTS
  6
BYBLOCK
 62
     0
 10
-900.000027
 20
20541.0
 30
0.0
  0
POINT
  5
2B
  8
DEFPOINTS
  6
BYBLOCK
 62
     0
 10
900.0
 20
20541.0
 30
0.0
  0
POINT
  5
2C
  8
DEFPOINTS
  6
BYBLOCK
 62
     0
 10
900.0
 20
20628.106516
 30
0.0
  0
ENDBLK
  5
2E
  8
0
  0
ENDSEC
  0
SECTION
  2
ENTITIES
  0
DIMENSION
  5
20
  8
TEAM-MAS
  2
*D2
 10
900.0
 20
628.106516
 30
0.0
 11
-0.000013
 21
628.106516
 31
0.0
 12
0.0
 22
-20000.0
 32
0.0
 13
-900.000027
 23
541.0
 33
0.0
 14
900.0
 24
541.0
 34
0.0
  0
LINE
  5
2F
  8
TEAM-BODY
 10
-894.000027
 20
585.0
 30
0.0
 11
894.0
 21
585.0
 31
0.0
  0
LINE
  5
31
  8
TEAM-BODY
 10
-894.000027
 20
525.0
 30
0.0
 11
894.0
 21
525.0
 31
0.0
  0
LINE
  5
32
  8
TEAM-BODY
 10
-900.000027
 20
635.0
 30
0.0
 11
-900.000027
 21
541.0
 31
0.0
  0
ARC
  5
33
  8
TEAM-BODY
 10
-894.000027
 20
579.0
 30
0.0
 40
6.0
 50
90.0
 51
180.0
  0
ARC
  5
34
  8
TEAM-BODY
 10
-894.000027
 20
531.0
 30
0.0
 40
6.0
 50
180.0
 51
270.0
  0
LINE
  5
35
  8
TEAM-BODY
 10
-900.000027
 20
531.0
 30
0.0
 11
-900.000027
 21
579.0
 31
0.0
  0
DIMENSION
  5
36
  8
TEAM-MAS
  2
*D0
 10
74.0
 20
37.691411
 30
0.0
 11
265.500015
 21
37.691411
 31
0.0
 12
0.0
 22
-20000.0
 32
0.0
 70
   128
 13
126.0
 23
99.999994
 33
0.0
 14
74.0
 24
99.999994
 34
0.0
1001
ACAD
1000
DSTYLE
1002
{
1070
    40
1040
1.0
1002
}
  0
DIMENSION
  5
45
  8
TEAM-MAS
  2
*D1
 10
943.803911
 20
99.999994
 30
0.0
 11
943.803911
 21
342.499997
 31
0.0
 12
0.0
 22
-20000.0
 32
0.0
 13
894.0
 23
585.0
 33
0.0
 14
129.19
 24
99.999994
 34
0.0
 50
90.0
1001
ACAD
1000
DSTYLE
1002
{
1070
    40
1040
1.0
1002
}
  0
CIRCLE
  5
53
  8
TEAM-INSP
 10
0.0
 20
0.0
 30
0.0
 40
10.0
  0
ARC
  5
55
  8
TEAM-BODY
 10
-499.689466
 20
149.164774
 30
0.0
 40
25.0
 50
219.547694
 51
269.286482
  0
LINE
  5
56
  8
TEAM-BODY
 10
60.739999
 20
111.329994
 30
0.0
 11
-500.000788
 21
124.166712
 31
0.0
  0
ARC
  5
57
  8
TEAM-BODY
 10
-278.922215
 20
178.646399
 30
0.0
 40
62.069136
 50
227.006958
 51
253.786753
  0
LINE
  5
58
  8
TEAM-BODY
 10
900.0
 20
531.0
 30
0.0
 11
900.0
 21
579.0
 31
0.0
  0
ARC
  5
59
  8
TEAM-BODY
 10
894.0
 20
531.0
 30
0.0
 40
6.0
 50
270.0
 51
0.0
  0
ARC
  5
5A
  8
TEAM-BODY
 10
894.0
 20
579.0
 30
0.0
 40
6.0
 50
0.0
 51
90.0
  0
LINE
  5
5B
  8
TEAM-BODY
 10
139.270001
 20
111.329994
 30
0.0
 11
709.521488
 21
111.773777
 31
0.0
  0
ARC
  5
5C
  8
TEAM-BODY
 10
708.913224
 20
136.766376
 30
0.0
 40
25.0
 50
271.394176
 51
343.260724
  0
ARC
  5
5D
  8
TEAM-BODY
 10
-1155.468766
 20
827.872711
 30
0.0
 40
2013.304412
 50
339.705471
 51
351.347813
  0
ARC
  5
5E
  8
TEAM-HIDE
 10
-1221.377158
 20
827.872711
 30
0.0
 40
2013.304412
 50
339.705471
 51
351.347813
  0
ARC
  5
61
  8
TEAM-HIDE
 10
643.004832
 20
136.766376
 30
0.0
 40
25.0
 50
271.394176
 51
343.260724
  0
ARC
  5
62
  8
TEAM-BODY
 10
100.0
 20
1610.810016
 30
0.0
 40
1500.000023
 50
268.5
 51
271.5
  0
LINE
  5
63
  8
TEAM-KAN
 10
70.81
 20
102.999994
 30
0.0
 11
129.19
 21
102.999994
 31
0.0
  0
LINE
  5
65
  8
TEAM-KAN
 10
70.81
 20
99.999994
 30
0.0
 11
129.19
 21
99.999994
 31
0.0
  0
ARC
  5
66
  8
TEAM-KAN
 10
56.119999
 20
99.439994
 30
0.0
 40
12.0
 50
30.18664
 51
88.48913
  0
ARC
  5
67
  8
TEAM-KAN
 10
56.119999
 20
99.439994
 30
0.0
 40
9.0
 50
30.19201
 51
88.50761
  0
ARC
  5
68
  8
TEAM-KAN
 10
70.81
 20
107.999994
 30
0.0
 40
8.0
 50
210.196
 51
270.0
  0
ARC
  5
69
  8
TEAM-KAN
 10
70.81
 20
107.999994
 30
0.0
 40
5.0
 50
210.2113
 51
270.0
  0
LINE
  5
6A
  8
TEAM-KAN
 10
74.0
 20
99.999994
 30
0.0
 11
74.0
 21
102.999994
 31
0.0
  0
ARC
  5
6B
  8
TEAM-KAN
 10
143.890001
 20
99.439994
 30
0.0
 40
12.0
 50
91.51086
 51
149.804
  0
ARC
  5
6C
  8
TEAM-KAN
 10
143.890001
 20
99.439994
 30
0.0
 40
9.0
 50
91.51724
 51
149.7955
  0
ARC
  5
6D
  8
TEAM-KAN
 10
129.19
 20
107.999994
 30
0.0
 40
8.0
 50
270.0
 51
329.804
  0
ARC
  5
6E
  8
TEAM-KAN
 10
129.19
 20
107.999994
 30
0.0
 40
5.0
 50
270.0
 51
329.8112
  0
LINE
  5
6F
  8
TEAM-KAN
 10
126.0
 20
99.999994
 30
0.0
 11
126.0
 21
102.999994
 31
0.0
  0
TEXT
  5
70
  8
TEAM-TXT
 10
-524.945992
 20
472.75601
 30
0.0
 40
30.0
  1
team 121931
 41
0.8
 51
15.0
  7
TEAM
  0
ARC
  5
73
  8
TEAM-BODY
 10
1651.627588
 20
2063.05471
 30
0.0
 40
2904.417129
 50
211.975535
 51
221.6393
  0
ARC
  5
74
  8
TEAM-BODY
 10
1849.346673
 20
2063.05471
 30
0.0
 40
2904.417129
 50
211.975535
 51
221.6393
  0
ENDSEC
  0
EOF
