  0
SECTION
  2
HEADER
  9
$ACADVER
  1
AC1009
  9
$INSBASE
 10
0.0
 20
0.0
 30
0.0
  9
$EXTMIN
 10
-450.016104
 20
-7.103768
 30
0.0
  9
$EXTMAX
 10
609.051378
 20
240.003771
 30
0.0
  9
$LIMMIN
 10
-450.016104
 20
-7.103768
  9
$LIMMAX
 10
609.051378
 20
240.003771
  9
$ORTHOMODE
 70
     1
  9
$REGENMODE
 70
     1
  9
$FILLMODE
 70
     1
  9
$QTEXTMODE
 70
     0
  9
$MIRRTEXT
 70
     0
  9
$DRAGMODE
 70
     2
  9
$LTSCALE
 40
25.0
  9
$OSMODE
 70
     0
  9
$ATTMODE
 70
     1
  9
$TEXTSIZE
 40
200.0
  9
$TRACEWID
 40
1.0
  9
$TEXTSTYLE
  7
STANDARD
  9
$CLAYER
  8
TEAM-MAS
  9
$CELTYPE
  6
BYLAYER
  9
$CECOLOR
 62
   256
  9
$DIMSCALE
 40
0.0
  9
$DIMASZ
 40
20.0
  9
$DIMEXO
 40
10.0
  9
$DIMDLI
 40
1.0
  9
$DIMRND
 40
0.0
  9
$DIMDLE
 40
0.0
  9
$DIMEXE
 40
1.0
  9
$DIMTP
 40
0.0
  9
$DIMTM
 40
0.0
  9
$DIMTXT
 40
35.0
  9
$DIMCEN
 40
1.0
  9
$DIMTSZ
 40
0.0
  9
$DIMTOL
 70
     0
  9
$DIMLIM
 70
     0
  9
$DIMTIH
 70
     0
  9
$DIMTOH
 70
     0
  9
$DIMSE1
 70
     0
  9
$DIMSE2
 70
     0
  9
$DIMTAD
 70
     0
  9
$DIMZIN
 70
     0
  9
$DIMBLK
  1

  9
$DIMASO
 70
     1
  9
$DIMSHO
 70
     0
  9
$DIMPOST
  1

  9
$DIMAPOST
  1

  9
$DIMALT
 70
     0
  9
$DIMALTD
 70
     2
  9
$DIMALTF
 40
25.4
  9
$DIMLFAC
 40
1.0
  9
$DIMTOFL
 70
     0
  9
$DIMTVP
 40
0.0
  9
$DIMTIX
 70
     0
  9
$DIMSOXD
 70
     0
  9
$DIMSAH
 70
     0
  9
$DIMBLK1
  1

  9
$DIMBLK2
  1

  9
$DIMSTYLE
  2
TEAM
  9
$DIMCLRD
 70
     9
  9
$DIMCLRE
 70
     9
  9
$DIMCLRT
 70
    11
  9
$DIMTFAC
 40
1.0
  9
$DIMGAP
 40
15.0
  9
$LUNITS
 70
     2
  9
$LUPREC
 70
     1
  9
$SKETCHINC
 40
1.0
  9
$FILLETRAD
 40
50.0
  9
$AUNITS
 70
     0
  9
$AUPREC
 70
     0
  9
$MENU
  1
ROPLANS
  9
$ELEVATION
 40
0.0
  9
$PELEVATION
 40
0.0
  9
$THICKNESS
 40
0.0
  9
$LIMCHECK
 70
     0
  9
$BLIPMODE
 70
     1
  9
$CHAMFERA
 40
0.0
  9
$CHAMFERB
 40
0.0
  9
$SKPOLY
 70
     0
  9
$TDCREATE
 40
2450392.957851
  9
$TDUPDATE
 40
2455493.972203
  9
$TDINDWG
 40
1.964307
  9
$TDUSRTIMER
 40
1.964307
  9
$USRTIMER
 70
     1
  9
$ANGBASE
 50
0.0
  9
$ANGDIR
 70
     0
  9
$PDMODE
 70
     0
  9
$PDSIZE
 40
0.0
  9
$PLINEWID
 40
0.0
  9
$COORDS
 70
     2
  9
$SPLFRAME
 70
     0
  9
$SPLINETYPE
 70
     6
  9
$SPLINESEGS
 70
     8
  9
$ATTDIA
 70
     0
  9
$ATTREQ
 70
     0
  9
$HANDLING
 70
     1
  9
$HANDSEED
  5
F3
  9
$SURFTAB1
 70
    24
  9
$SURFTAB2
 70
    24
  9
$SURFTYPE
 70
     6
  9
$SURFU
 70
     6
  9
$SURFV
 70
     6
  9
$UCSNAME
  2

  9
$UCSORG
 10
0.0
 20
0.0
 30
0.0
  9
$UCSXDIR
 10
1.0
 20
0.0
 30
0.0
  9
$UCSYDIR
 10
0.0
 20
1.0
 30
0.0
  9
$PUCSNAME
  2

  9
$PUCSORG
 10
0.0
 20
0.0
 30
0.0
  9
$PUCSXDIR
 10
1.0
 20
0.0
 30
0.0
  9
$PUCSYDIR
 10
0.0
 20
1.0
 30
0.0
  9
$USERI1
 70
     0
  9
$USERI2
 70
     0
  9
$USERI3
 70
     0
  9
$USERI4
 70
     0
  9
$USERI5
 70
     0
  9
$USERR1
 40
0.0
  9
$USERR2
 40
0.0
  9
$USERR3
 40
0.0
  9
$USERR4
 40
0.0
  9
$USERR5
 40
0.0
  9
$WORLDVIEW
 70
     1
  9
$SHADEDGE
 70
     0
  9
$SHADEDIF
 70
    70
  9
$TILEMODE
 70
     1
  9
$MAXACTVP
 70
    16
  9
$PLIMCHECK
 70
     0
  9
$PEXTMIN
 10
-0.805942
 20
0.005011
 30
0.0
  9
$PEXTMAX
 10
20.250094
 20
11.356329
 30
0.0
  9
$PLIMMIN
 10
0.0
 20
0.0
  9
$PLIMMAX
 10
12.0
 20
9.0
  9
$UNITMODE
 70
     0
  9
$VISRETAIN
 70
     0
  9
$PLINEGEN
 70
     0
  9
$PSLTSCALE
 70
     0
  0
ENDSEC
  0
SECTION
  2
TABLES
  0
TABLE
  2
VPORT
 70
     2
  0
VPORT
  2
*ACTIVE
 70
     0
 10
0.0
 20
0.0
 11
1.0
 21
1.0
 12
79.517637
 22
116.450002
 13
0.0
 23
0.0
 14
1.0
 24
1.0
 15
50.0
 25
50.0
 16
0.0
 26
0.0
 36
1.0
 17
0.0
 27
0.0
 37
0.0
 40
569.49596
 41
1.865779
 42
50.0
 43
0.0
 44
0.0
 50
0.0
 51
0.0
 71
     0
 72
   100
 73
     1
 74
     1
 75
     0
 76
     0
 77
     0
 78
     0
  0
ENDTAB
  0
TABLE
  2
LTYPE
 70
     2
  0
LTYPE
  2
CONTINUOUS
 70
     0
  3
Solid Line
 72
    65
 73
     0
 40
0.0
  0
LTYPE
  2
31
 70
     0
  3

 72
    65
 73
     4
 40
2.1
 49
1.5
 49
-0.3
 49
0.0
 49
-0.3
  0
ENDTAB
  0
TABLE
  2
LAYER
 70
     8
  0
LAYER
  2
0
 70
     0
 62
     7
  6
CONTINUOUS
  0
LAYER
  2
DEFPOINTS
 70
     0
 62
     7
  6
CONTINUOUS
  0
LAYER
  2
TEAM-BODY
 70
     0
 62
     2
  6
CONTINUOUS
  0
LAYER
  2
TEAM-AXE
 70
     0
 62
    10
  6
31
  0
LAYER
  2
TEAM-MAS
 70
     0
 62
     9
  6
CONTINUOUS
  0
LAYER
  2
TEAM-TXT
 70
     0
 62
    11
  6
CONTINUOUS
  0
LAYER
  2
TEAM-DET1
 70
     0
 62
     4
  6
CONTINUOUS
  0
LAYER
  2
TEAM-INSP
 70
     0
 62
     5
  6
CONTINUOUS
  0
ENDTAB
  0
TABLE
  2
STYLE
 70
     2
  0
STYLE
  2
STANDARD
 70
     0
 40
0.0
 41
1.0
 50
0.0
 71
     0
 42
200.0
  3
txt
  4

  0
STYLE
  2
TEAM
 70
     0
 40
0.0
 41
0.8
 50
15.0
 71
     0
 42
7.0
  3
ROMANS.shx
  4

  0
ENDTAB
  0
TABLE
  2
VIEW
 70
     0
  0
ENDTAB
  0
TABLE
  2
UCS
 70
     0
  0
ENDTAB
  0
TABLE
  2
APPID
 70
     1
  0
APPID
  2
ACAD
 70
     0
  0
ENDTAB
  0
TABLE
  2
DIMSTYLE
 70
     1
  0
DIMSTYLE
  2
TEAM
 70
     0
  3

  4

  5

  6

  7

 40
0.0
 41
20.0
 42
10.0
 43
1.0
 44
1.0
 45
0.0
 46
0.0
 47
0.0
 48
0.0
140
35.0
141
1.0
142
0.0
143
25.4
144
1.0
145
0.0
146
1.0
147
15.0
 71
     0
 72
     0
 73
     0
 74
     0
 75
     0
 76
     0
 77
     0
 78
     0
170
     0
171
     2
172
     0
173
     0
174
     0
175
     0
176
     9
177
     9
178
    11
  0
ENDTAB
  0
ENDSEC
  0
SECTION
  2
BLOCKS
  0
BLOCK
  8
0
  2
$MODEL_SPACE
 70
     0
 10
0.0
 20
0.0
 30
0.0
  3
$MODEL_SPACE
  1

  0
ENDBLK
  5
EC
  8
0
  0
BLOCK
 67
     1
  8
0
  2
$PAPER_SPACE
 70
     0
 10
0.0
 20
0.0
 30
0.0
  3
$PAPER_SPACE
  1

  0
ENDBLK
  5
EA
 67
     1
  8
0
  0
BLOCK
  8
0
  2
*D0
 70
     1
 10
0.0
 20
0.0
 30
0.0
  3
*D0
  1

  0
LINE
  5
4D
  8
0
  6
BYBLOCK
 62
     9
 10
4215.0
 20
220125.0
 30
0.0
 11
4215.0
 21
220088.384189
 31
0.0
  0
LINE
  5
4E
  8
0
  6
BYBLOCK
 62
     9
 10
4305.0
 20
220125.0
 30
0.0
 11
4305.0
 21
220088.384189
 31
0.0
  0
LINE
  5
4F
  8
0
  6
BYBLOCK
 62
     9
 10
4235.0
 20
220089.384189
 30
0.0
 11
4285.0
 21
220089.384189
 31
0.0
  0
TEXT
  5
50
  8
0
  6
BYBLOCK
 62
    11
 10
4236.088793
 20
220030.884189
 30
0.0
 40
35.0
  1
90
  0
SOLID
  5
51
  8
0
  6
BYBLOCK
 62
     9
 10
4235.0
 20
220092.717523
 30
0.0
 11
4235.0
 21
220086.050856
 31
0.0
 12
4215.0
 22
220089.384189
 32
0.0
 13
4215.0
 23
220089.384189
 33
0.0
  0
SOLID
  5
52
  8
0
  6
BYBLOCK
 62
     9
 10
4285.0
 20
220092.717523
 30
0.0
 11
4285.0
 21
220086.050856
 31
0.0
 12
4305.0
 22
220089.384189
 32
0.0
 13
4305.0
 23
220089.384189
 33
0.0
  0
POINT
  5
53
  8
DEFPOINTS
  6
BYBLOCK
 62
     0
 10
4215.0
 20
220135.0
 30
0.0
  0
POINT
  5
54
  8
DEFPOINTS
  6
BYBLOCK
 62
     0
 10
4305.0
 20
220135.0
 30
0.0
  0
POINT
  5
55
  8
DEFPOINTS
  6
BYBLOCK
 62
     0
 10
4305.0
 20
220089.384189
 30
0.0
  0
ENDBLK
  5
57
  8
0
  0
BLOCK
  8
0
  2
*D1
 70
     1
 10
0.0
 20
0.0
 30
0.0
  3
*D1
  1

  0
LINE
  5
24
  8
0
  6
BYBLOCK
 62
     9
 10
4315.0
 20
220135.0
 30
0.0
 11
4551.832891
 21
220135.0
 31
0.0
  0
LINE
  5
25
  8
0
  6
BYBLOCK
 62
     9
 10
4460.0
 20
220200.0
 30
0.0
 11
4551.832891
 21
220200.0
 31
0.0
  0
LINE
  5
26
  8
0
  6
BYBLOCK
 62
     9
 10
4550.832891
 20
220115.0
 30
0.0
 11
4550.832891
 21
220095.0
 31
0.0
  0
LINE
  5
27
  8
0
  6
BYBLOCK
 62
     9
 10
4550.832891
 20
220220.0
 30
0.0
 11
4550.832891
 21
220240.0
 31
0.0
  0
TEXT
  5
28
  8
0
  6
BYBLOCK
 62
    11
 10
4609.332891
 20
220143.32237
 30
0.0
 40
35.0
  1
65
 50
90.0
  0
LINE
  5
29
  8
0
  6
BYBLOCK
 62
     9
 10
4550.832891
 20
220135.0
 30
0.0
 11
4550.832891
 21
220200.0
 31
0.0
  0
SOLID
  5
2A
  8
0
  6
BYBLOCK
 62
     9
 10
4547.499557
 20
220115.0
 30
0.0
 11
4554.166224
 21
220115.0
 31
0.0
 12
4550.832891
 22
220135.0
 32
0.0
 13
4550.832891
 23
220135.0
 33
0.0
  0
SOLID
  5
2B
  8
0
  6
BYBLOCK
 62
     9
 10
4547.499557
 20
220220.0
 30
0.0
 11
4554.166224
 21
220220.0
 31
0.0
 12
4550.832891
 22
220200.0
 32
0.0
 13
4550.832891
 23
220200.0
 33
0.0
  0
POINT
  5
2C
  8
DEFPOINTS
  6
BYBLOCK
 62
     0
 10
4305.0
 20
220135.0
 30
0.0
  0
POINT
  5
2E
  8
DEFPOINTS
  6
BYBLOCK
 62
     0
 10
4450.0
 20
220200.0
 30
0.0
  0
POINT
  5
2F
  8
DEFPOINTS
  6
BYBLOCK
 62
     0
 10
4550.832891
 20
220200.0
 30
0.0
  0
ENDBLK
  5
31
  8
0
  0
ENDSEC
  0
SECTION
  2
ENTITIES
  0
LINE
  5
20
  8
TEAM-BODY
 10
392.052844
 20
195.368755
 30
0.0
 11
357.947156
 21
149.631245
 31
0.0
  0
DIMENSION
  5
22
  8
TEAM-MAS
  2
*D1
 10
550.832891
 20
200.0
 30
0.0
 11
591.832891
 21
167.5
 31
0.0
 12
-4000.0
 22
-220000.0
 32
0.0
 13
305.0
 23
135.0
 33
0.0
 14
450.0
 24
200.0
 34
0.0
 50
90.0
  0
LINE
  5
32
  8
TEAM-DET1
 10
305.0
 20
145.371564
 30
0.0
 11
305.0
 21
135.0
 31
0.0
  0
ARC
  5
34
  8
TEAM-BODY
 10
349.510541
 20
155.0
 30
0.0
 40
10.0
 50
270.0
 51
327.528808
  0
LINE
  5
35
  8
TEAM-BODY
 10
450.0
 20
200.0
 30
0.0
 11
450.0
 21
185.0
 31
0.0
  0
ARC
  5
36
  8
TEAM-BODY
 10
400.489459
 20
190.0
 30
0.0
 40
10.0
 50
90.0
 51
147.528808
  0
LINE
  5
37
  8
TEAM-DET1
 10
450.0
 20
185.0
 30
0.0
 11
384.321039
 21
185.0
 31
0.0
  0
LINE
  5
38
  8
TEAM-BODY
 10
400.489459
 20
200.0
 30
0.0
 11
450.0
 21
200.0
 31
0.0
  0
LINE
  5
39
  8
TEAM-BODY
 10
-391.37001
 20
195.292377
 30
0.0
 11
-357.936393
 21
154.707623
 31
0.0
  0
ARC
  5
3A
  8
TEAM-BODY
 10
-349.451657
 20
160.0
 30
0.0
 40
10.0
 50
211.953967
 51
270.0
  0
ARC
  5
3B
  8
TEAM-BODY
 10
-399.854746
 20
190.0
 30
0.0
 40
10.0
 50
31.953967
 51
90.0
  0
LINE
  5
3C
  8
TEAM-BODY
 10
-450.0
 20
200.0
 30
0.0
 11
-450.0
 21
185.0
 31
0.0
  0
LINE
  5
3D
  8
TEAM-DET1
 10
-450.0
 20
185.0
 30
0.0
 11
-382.891176
 21
185.0
 31
0.0
  0
LINE
  5
3E
  8
TEAM-BODY
 10
-450.0
 20
200.0
 30
0.0
 11
-399.854746
 21
200.0
 31
0.0
  0
TEXT
  5
3F
  8
TEAM-TXT
 10
-336.486884
 20
160.798148
 30
0.0
 40
30.0
  1
team 141165
 41
0.8
 51
15.0
  7
TEAM
  0
LINE
  5
42
  8
TEAM-DET1
 10
215.0
 20
146.122863
 30
0.0
 11
215.0
 21
135.0
 31
0.0
  0
LINE
  5
43
  8
TEAM-AXE
 10
260.0
 20
159.619397
 30
0.0
 11
260.0
 21
123.806188
 31
0.0
  0
CIRCLE
  5
46
  8
TEAM-INSP
 10
0.0
 20
0.0
 30
0.0
 40
7.1
  0
LINE
  5
48
  8
TEAM-BODY
 10
-349.451657
 20
150.0
 30
0.0
 11
349.510541
 21
145.0
 31
0.0
  0
LINE
  5
49
  8
TEAM-DET1
 10
-402.108709
 20
200.0
 30
0.0
 11
402.386304
 21
200.0
 31
0.0
  0
LINE
  5
4A
  8
TEAM-DET1
 10
215.0
 20
135.0
 30
0.0
 11
305.0
 21
135.0
 31
0.0
  0
DIMENSION
  5
4B
  8
TEAM-MAS
  2
*D0
 10
305.0
 20
89.384189
 30
0.0
 11
260.0
 21
48.384189
 31
0.0
 12
-4000.0
 22
-220000.0
 32
0.0
 13
215.0
 23
135.0
 33
0.0
 14
305.0
 24
135.0
 34
0.0
  0
ENDSEC
  0
EOF
