  0
SECTION
  2
HEADER
  9
$ACADVER
  1
AC1009
  9
$INSBASE
 10
0.0
 20
0.0
 30
0.0
  9
$EXTMIN
 10
-500.022918
 20
-634.521325
 30
0.0
  9
$EXTMAX
 10
651.671189
 20
570.385627
 30
0.0
  9
$LIMMIN
 10
-500.022918
 20
-634.521325
  9
$LIMMAX
 10
651.671189
 20
570.385627
  9
$ORTHOMODE
 70
     1
  9
$REGENMODE
 70
     1
  9
$FILLMODE
 70
     1
  9
$QTEXTMODE
 70
     0
  9
$MIRRTEXT
 70
     0
  9
$DRAGMODE
 70
     2
  9
$LTSCALE
 40
25.0
  9
$OSMODE
 70
     0
  9
$ATTMODE
 70
     1
  9
$TEXTSIZE
 40
200.0
  9
$TRACEWID
 40
1.0
  9
$TEXTSTYLE
  7
STANDARD
  9
$CLAYER
  8
TEAM-MAS
  9
$CELTYPE
  6
BYLAYER
  9
$CECOLOR
 62
   256
  9
$DIMSCALE
 40
0.0
  9
$DIMASZ
 40
20.0
  9
$DIMEXO
 40
10.0
  9
$DIMDLI
 40
1.0
  9
$DIMRND
 40
0.0
  9
$DIMDLE
 40
0.0
  9
$DIMEXE
 40
1.0
  9
$DIMTP
 40
0.0
  9
$DIMTM
 40
0.0
  9
$DIMTXT
 40
35.0
  9
$DIMCEN
 40
1.0
  9
$DIMTSZ
 40
0.0
  9
$DIMTOL
 70
     0
  9
$DIMLIM
 70
     0
  9
$DIMTIH
 70
     0
  9
$DIMTOH
 70
     0
  9
$DIMSE1
 70
     0
  9
$DIMSE2
 70
     0
  9
$DIMTAD
 70
     0
  9
$DIMZIN
 70
     0
  9
$DIMBLK
  1

  9
$DIMASO
 70
     1
  9
$DIMSHO
 70
     0
  9
$DIMPOST
  1

  9
$DIMAPOST
  1

  9
$DIMALT
 70
     0
  9
$DIMALTD
 70
     2
  9
$DIMALTF
 40
25.4
  9
$DIMLFAC
 40
1.0
  9
$DIMTOFL
 70
     0
  9
$DIMTVP
 40
0.0
  9
$DIMTIX
 70
     0
  9
$DIMSOXD
 70
     0
  9
$DIMSAH
 70
     0
  9
$DIMBLK1
  1

  9
$DIMBLK2
  1

  9
$DIMSTYLE
  2
TEAM
  9
$DIMCLRD
 70
     9
  9
$DIMCLRE
 70
     9
  9
$DIMCLRT
 70
    11
  9
$DIMTFAC
 40
1.0
  9
$DIMGAP
 40
15.0
  9
$LUNITS
 70
     2
  9
$LUPREC
 70
     1
  9
$SKETCHINC
 40
1.0
  9
$FILLETRAD
 40
50.0
  9
$AUNITS
 70
     0
  9
$AUPREC
 70
     0
  9
$MENU
  1
ROPLANS
  9
$ELEVATION
 40
0.0
  9
$PELEVATION
 40
0.0
  9
$THICKNESS
 40
0.0
  9
$LIMCHECK
 70
     0
  9
$BLIPMODE
 70
     1
  9
$CHAMFERA
 40
0.0
  9
$CHAMFERB
 40
0.0
  9
$SKPOLY
 70
     0
  9
$TDCREATE
 40
2450392.957851
  9
$TDUPDATE
 40
2455493.972203
  9
$TDINDWG
 40
1.964307
  9
$TDUSRTIMER
 40
1.964307
  9
$USRTIMER
 70
     1
  9
$ANGBASE
 50
0.0
  9
$ANGDIR
 70
     0
  9
$PDMODE
 70
     0
  9
$PDSIZE
 40
0.0
  9
$PLINEWID
 40
0.0
  9
$COORDS
 70
     2
  9
$SPLFRAME
 70
     0
  9
$SPLINETYPE
 70
     6
  9
$SPLINESEGS
 70
     8
  9
$ATTDIA
 70
     0
  9
$ATTREQ
 70
     0
  9
$HANDLING
 70
     1
  9
$HANDSEED
  5
11E
  9
$SURFTAB1
 70
    24
  9
$SURFTAB2
 70
    24
  9
$SURFTYPE
 70
     6
  9
$SURFU
 70
     6
  9
$SURFV
 70
     6
  9
$UCSNAME
  2

  9
$UCSORG
 10
0.0
 20
0.0
 30
0.0
  9
$UCSXDIR
 10
1.0
 20
0.0
 30
0.0
  9
$UCSYDIR
 10
0.0
 20
1.0
 30
0.0
  9
$PUCSNAME
  2

  9
$PUCSORG
 10
0.0
 20
0.0
 30
0.0
  9
$PUCSXDIR
 10
1.0
 20
0.0
 30
0.0
  9
$PUCSYDIR
 10
0.0
 20
1.0
 30
0.0
  9
$USERI1
 70
     0
  9
$USERI2
 70
     0
  9
$USERI3
 70
     0
  9
$USERI4
 70
     0
  9
$USERI5
 70
     0
  9
$USERR1
 40
0.0
  9
$USERR2
 40
0.0
  9
$USERR3
 40
0.0
  9
$USERR4
 40
0.0
  9
$USERR5
 40
0.0
  9
$WORLDVIEW
 70
     1
  9
$SHADEDGE
 70
     0
  9
$SHADEDIF
 70
    70
  9
$TILEMODE
 70
     1
  9
$MAXACTVP
 70
    16
  9
$PLIMCHECK
 70
     0
  9
$PEXTMIN
 10
-0.805942
 20
0.005011
 30
0.0
  9
$PEXTMAX
 10
20.250094
 20
11.356329
 30
0.0
  9
$PLIMMIN
 10
0.0
 20
0.0
  9
$PLIMMAX
 10
12.0
 20
9.0
  9
$UNITMODE
 70
     0
  9
$VISRETAIN
 70
     0
  9
$PLINEGEN
 70
     0
  9
$PSLTSCALE
 70
     0
  0
ENDSEC
  0
SECTION
  2
TABLES
  0
TABLE
  2
VPORT
 70
     2
  0
VPORT
  2
*ACTIVE
 70
     0
 10
0.0
 20
0.0
 11
1.0
 21
1.0
 12
75.824136
 22
-32.067849
 13
0.0
 23
0.0
 14
1.0
 24
1.0
 15
50.0
 25
50.0
 16
0.0
 26
0.0
 36
1.0
 17
0.0
 27
0.0
 37
0.0
 40
1212.306586
 41
1.865779
 42
50.0
 43
0.0
 44
0.0
 50
0.0
 51
0.0
 71
     0
 72
   100
 73
     1
 74
     1
 75
     0
 76
     0
 77
     0
 78
     0
  0
ENDTAB
  0
TABLE
  2
LTYPE
 70
     2
  0
LTYPE
  2
CONTINUOUS
 70
     0
  3
Solid Line
 72
    65
 73
     0
 40
0.0
  0
LTYPE
  2
31
 70
     0
  3

 72
    65
 73
     4
 40
2.1
 49
1.5
 49
-0.3
 49
0.0
 49
-0.3
  0
ENDTAB
  0
TABLE
  2
LAYER
 70
     8
  0
LAYER
  2
0
 70
     0
 62
     7
  6
CONTINUOUS
  0
LAYER
  2
DEFPOINTS
 70
     0
 62
     7
  6
CONTINUOUS
  0
LAYER
  2
TEAM-BODY
 70
     0
 62
     2
  6
CONTINUOUS
  0
LAYER
  2
TEAM-AXE
 70
     0
 62
    10
  6
31
  0
LAYER
  2
TEAM-MAS
 70
     0
 62
     9
  6
CONTINUOUS
  0
LAYER
  2
TEAM-TXT
 70
     0
 62
    11
  6
CONTINUOUS
  0
LAYER
  2
TEAM-DET1
 70
     0
 62
     4
  6
CONTINUOUS
  0
LAYER
  2
TEAM-INSP
 70
     0
 62
     5
  6
CONTINUOUS
  0
ENDTAB
  0
TABLE
  2
STYLE
 70
     2
  0
STYLE
  2
STANDARD
 70
     0
 40
0.0
 41
1.0
 50
0.0
 71
     0
 42
200.0
  3
txt
  4

  0
STYLE
  2
TEAM
 70
     0
 40
0.0
 41
0.8
 50
15.0
 71
     0
 42
7.0
  3
ROMANS.shx
  4

  0
ENDTAB
  0
TABLE
  2
VIEW
 70
     0
  0
ENDTAB
  0
TABLE
  2
UCS
 70
     0
  0
ENDTAB
  0
TABLE
  2
APPID
 70
     1
  0
APPID
  2
ACAD
 70
     0
  0
ENDTAB
  0
TABLE
  2
DIMSTYLE
 70
     1
  0
DIMSTYLE
  2
TEAM
 70
     0
  3

  4

  5

  6

  7

 40
0.0
 41
20.0
 42
10.0
 43
1.0
 44
1.0
 45
0.0
 46
0.0
 47
0.0
 48
0.0
140
35.0
141
1.0
142
0.0
143
25.4
144
1.0
145
0.0
146
1.0
147
15.0
 71
     0
 72
     0
 73
     0
 74
     0
 75
     0
 76
     0
 77
     0
 78
     0
170
     0
171
     2
172
     0
173
     0
174
     0
175
     0
176
     9
177
     9
178
    11
  0
ENDTAB
  0
ENDSEC
  0
SECTION
  2
BLOCKS
  0
BLOCK
  8
0
  2
$MODEL_SPACE
 70
     0
 10
0.0
 20
0.0
 30
0.0
  3
$MODEL_SPACE
  1

  0
ENDBLK
  5
117
  8
0
  0
BLOCK
 67
     1
  8
0
  2
$PAPER_SPACE
 70
     0
 10
0.0
 20
0.0
 30
0.0
  3
$PAPER_SPACE
  1

  0
ENDBLK
  5
115
 67
     1
  8
0
  0
BLOCK
  8
0
  2
*D0
 70
     1
 10
0.0
 20
0.0
 30
0.0
  3
*D0
  1

  0
LINE
  5
6D
  8
0
  6
BYBLOCK
 62
     9
 10
8500.0
 20
223940.0
 30
0.0
 11
8500.0
 21
223380.267695
 31
0.0
  0
LINE
  5
6E
  8
0
  6
BYBLOCK
 62
     9
 10
7500.0
 20
223490.0
 30
0.0
 11
7500.0
 21
223380.267695
 31
0.0
  0
LINE
  5
6F
  8
0
  6
BYBLOCK
 62
     9
 10
8480.0
 20
223381.267695
 30
0.0
 11
8055.26378
 21
223381.267695
 31
0.0
  0
LINE
  5
70
  8
0
  6
BYBLOCK
 62
     9
 10
7520.0
 20
223381.267695
 30
0.0
 11
7944.73622
 21
223381.267695
 31
0.0
  0
SOLID
  5
71
  8
0
  6
BYBLOCK
 62
     9
 10
8480.0
 20
223384.601028
 30
0.0
 11
8480.0
 21
223377.934361
 31
0.0
 12
8500.0
 22
223381.267695
 32
0.0
 13
8500.0
 23
223381.267695
 33
0.0
  0
SOLID
  5
72
  8
0
  6
BYBLOCK
 62
     9
 10
7520.0
 20
223384.601028
 30
0.0
 11
7520.0
 21
223377.934361
 31
0.0
 12
7500.0
 22
223381.267695
 32
0.0
 13
7500.0
 23
223381.267695
 33
0.0
  0
TEXT
  5
73
  8
0
  6
BYBLOCK
 62
    11
 10
7954.48622
 20
223363.767695
 30
0.0
 40
35.0
  1
1000
  0
POINT
  5
74
  8
DEFPOINTS
  6
BYBLOCK
 62
     0
 10
8500.0
 20
223950.0
 30
0.0
  0
POINT
  5
75
  8
DEFPOINTS
  6
BYBLOCK
 62
     0
 10
7500.0
 20
223500.0
 30
0.0
  0
POINT
  5
76
  8
DEFPOINTS
  6
BYBLOCK
 62
     0
 10
7500.0
 20
223381.267695
 30
0.0
  0
ENDBLK
  5
78
  8
0
  0
BLOCK
  8
0
  2
*D1
 70
     1
 10
0.0
 20
0.0
 30
0.0
  3
*D1
  1

  0
LINE
  5
5C
  8
0
  6
BYBLOCK
 62
     9
 10
8390.56237
 20
224310.0
 30
0.0
 11
8569.981893
 21
224310.0
 31
0.0
  0
LINE
  5
5D
  8
0
  6
BYBLOCK
 62
     9
 10
8510.0
 20
224500.0
 30
0.0
 11
8569.981893
 21
224500.0
 31
0.0
  0
LINE
  5
5E
  8
0
  6
BYBLOCK
 62
     9
 10
8568.981893
 20
224330.0
 30
0.0
 11
8568.981893
 21
224361.92507
 31
0.0
  0
LINE
  5
5F
  8
0
  6
BYBLOCK
 62
     9
 10
8568.981893
 20
224480.0
 30
0.0
 11
8568.981893
 21
224448.07493
 31
0.0
  0
SOLID
  5
60
  8
0
  6
BYBLOCK
 62
     9
 10
8565.64856
 20
224330.0
 30
0.0
 11
8572.315226
 21
224330.0
 31
0.0
 12
8568.981893
 22
224310.0
 32
0.0
 13
8568.981893
 23
224310.0
 33
0.0
  0
SOLID
  5
61
  8
0
  6
BYBLOCK
 62
     9
 10
8565.64856
 20
224480.0
 30
0.0
 11
8572.315226
 21
224480.0
 31
0.0
 12
8568.981893
 22
224500.0
 32
0.0
 13
8568.981893
 23
224500.0
 33
0.0
  0
TEXT
  5
62
  8
0
  6
BYBLOCK
 62
    11
 10
8586.481893
 20
224371.67507
 30
0.0
 40
35.0
  1
190
 50
90.0
  0
POINT
  5
63
  8
DEFPOINTS
  6
BYBLOCK
 62
     0
 10
8380.56237
 20
224310.0
 30
0.0
  0
POINT
  5
64
  8
DEFPOINTS
  6
BYBLOCK
 62
     0
 10
8500.0
 20
224500.0
 30
0.0
  0
POINT
  5
65
  8
DEFPOINTS
  6
BYBLOCK
 62
     0
 10
8568.981893
 20
224500.0
 30
0.0
  0
ENDBLK
  5
67
  8
0
  0
BLOCK
  8
0
  2
*D2
 70
     1
 10
0.0
 20
0.0
 30
0.0
  3
*D2
  1

  0
LINE
  5
4E
  8
0
  6
BYBLOCK
 62
     9
 10
8310.0
 20
224385.0
 30
0.0
 11
8310.0
 21
224555.530547
 31
0.0
  0
LINE
  5
4F
  8
0
  6
BYBLOCK
 62
     9
 10
8500.0
 20
224510.0
 30
0.0
 11
8500.0
 21
224555.530547
 31
0.0
  0
LINE
  5
50
  8
0
  6
BYBLOCK
 62
     9
 10
8330.0
 20
224554.530547
 30
0.0
 11
8361.92507
 21
224554.530547
 31
0.0
  0
LINE
  5
51
  8
0
  6
BYBLOCK
 62
     9
 10
8480.0
 20
224554.530547
 30
0.0
 11
8448.07493
 21
224554.530547
 31
0.0
  0
SOLID
  5
52
  8
0
  6
BYBLOCK
 62
     9
 10
8330.0
 20
224557.86388
 30
0.0
 11
8330.0
 21
224551.197214
 31
0.0
 12
8310.0
 22
224554.530547
 32
0.0
 13
8310.0
 23
224554.530547
 33
0.0
  0
SOLID
  5
53
  8
0
  6
BYBLOCK
 62
     9
 10
8480.0
 20
224557.86388
 30
0.0
 11
8480.0
 21
224551.197214
 31
0.0
 12
8500.0
 22
224554.530547
 32
0.0
 13
8500.0
 23
224554.530547
 33
0.0
  0
TEXT
  5
54
  8
0
  6
BYBLOCK
 62
    11
 10
8371.67507
 20
224537.030547
 30
0.0
 40
35.0
  1
190
  0
POINT
  5
55
  8
DEFPOINTS
  6
BYBLOCK
 62
     0
 10
8310.0
 20
224375.0
 30
0.0
  0
POINT
  5
56
  8
DEFPOINTS
  6
BYBLOCK
 62
     0
 10
8500.0
 20
224500.0
 30
0.0
  0
POINT
  5
57
  8
DEFPOINTS
  6
BYBLOCK
 62
     0
 10
8500.0
 20
224554.530547
 30
0.0
  0
ENDBLK
  5
59
  8
0
  0
BLOCK
  8
0
  2
*D3
 70
     1
 10
0.0
 20
0.0
 30
0.0
  3
*D3
  1

  0
LINE
  5
3C
  8
0
  6
BYBLOCK
 62
     9
 10
8510.0
 20
224500.0
 30
0.0
 11
8636.833852
 21
224500.0
 31
0.0
  0
LINE
  5
3D
  8
0
  6
BYBLOCK
 62
     9
 10
8060.0
 20
223500.0
 30
0.0
 11
8636.833852
 21
223500.0
 31
0.0
  0
LINE
  5
3E
  8
0
  6
BYBLOCK
 62
     9
 10
8635.833852
 20
224480.0
 30
0.0
 11
8635.833852
 21
224055.26378
 31
0.0
  0
LINE
  5
3F
  8
0
  6
BYBLOCK
 62
     9
 10
8635.833852
 20
223520.0
 30
0.0
 11
8635.833852
 21
223944.73622
 31
0.0
  0
SOLID
  5
40
  8
0
  6
BYBLOCK
 62
     9
 10
8632.500518
 20
224480.0
 30
0.0
 11
8639.167185
 21
224480.0
 31
0.0
 12
8635.833852
 22
224500.0
 32
0.0
 13
8635.833852
 23
224500.0
 33
0.0
  0
SOLID
  5
41
  8
0
  6
BYBLOCK
 62
     9
 10
8632.500518
 20
223520.0
 30
0.0
 11
8639.167185
 21
223520.0
 31
0.0
 12
8635.833852
 22
223500.0
 32
0.0
 13
8635.833852
 23
223500.0
 33
0.0
  0
TEXT
  5
42
  8
0
  6
BYBLOCK
 62
    11
 10
8653.333852
 20
223954.48622
 30
0.0
 40
35.0
  1
1000
 50
90.0
  0
POINT
  5
43
  8
DEFPOINTS
  6
BYBLOCK
 62
     0
 10
8500.0
 20
224500.0
 30
0.0
  0
POINT
  5
45
  8
DEFPOINTS
  6
BYBLOCK
 62
     0
 10
8050.0
 20
223500.0
 30
0.0
  0
POINT
  5
46
  8
DEFPOINTS
  6
BYBLOCK
 62
     0
 10
8635.833852
 20
223500.0
 30
0.0
  0
ENDBLK
  5
48
  8
0
  0
ENDSEC
  0
SECTION
  2
ENTITIES
  0
LINE
  5
20
  8
TEAM-DET1
 10
445.0
 20
370.0
 30
0.0
 11
445.0
 21
-50.0
 31
0.0
  0
LINE
  5
22
  8
TEAM-BODY
 10
500.0
 20
500.0
 30
0.0
 11
500.0
 21
-50.0
 31
0.0
  0
LINE
  5
24
  8
TEAM-BODY
 10
405.0
 20
370.0
 30
0.0
 11
405.0
 21
-50.0
 31
0.0
  0
LINE
  5
25
  8
TEAM-BODY
 10
-405.0
 20
-370.0
 30
0.0
 11
-405.0
 21
370.0
 31
0.0
  0
ARC
  5
26
  8
TEAM-BODY
 10
-370.0
 20
-370.0
 30
0.0
 40
35.0
 50
180.0
 51
270.0
  0
LINE
  5
27
  8
TEAM-BODY
 10
50.0
 20
-405.0
 30
0.0
 11
-370.0
 21
-405.0
 31
0.0
  0
LINE
  5
28
  8
TEAM-DET1
 10
50.0
 20
-445.0
 30
0.0
 11
-370.0
 21
-445.0
 31
0.0
  0
CIRCLE
  5
29
  8
TEAM-INSP
 10
0.0
 20
0.0
 30
0.0
 40
10.0
  0
LINE
  5
2B
  8
TEAM-DET1
 10
-370.0
 20
445.0
 30
0.0
 11
370.0
 21
445.0
 31
0.0
  0
LINE
  5
2C
  8
TEAM-BODY
 10
-370.0
 20
405.0
 30
0.0
 11
370.0
 21
405.0
 31
0.0
  0
TEXT
  5
2D
  8
TEAM-TXT
 10
-395.666132
 20
341.119996
 30
0.0
 40
30.0
  1
team 141169
 41
0.8
 51
15.0
  7
TEAM
  0
ARC
  5
30
  8
TEAM-BODY
 10
-370.0
 20
370.0
 30
0.0
 40
35.0
 50
90.0
 51
180.0
  0
LINE
  5
31
  8
TEAM-AXE
 10
310.0
 20
310.0
 30
0.0
 11
380.56237
 21
310.0
 31
0.0
  0
CIRCLE
  5
34
  8
TEAM-DET1
 10
310.0
 20
310.0
 30
0.0
 40
45.0
  0
CIRCLE
  5
35
  8
TEAM-BODY
 10
310.0
 20
310.0
 30
0.0
 40
35.0
  0
LINE
  5
36
  8
TEAM-AXE
 10
310.0
 20
310.0
 30
0.0
 11
310.0
 21
375.0
 31
0.0
  0
LINE
  5
37
  8
TEAM-AXE
 10
310.0
 20
310.0
 30
0.0
 11
245.0
 21
310.0
 31
0.0
  0
LINE
  5
38
  8
TEAM-AXE
 10
310.0
 20
310.0
 30
0.0
 11
310.0
 21
245.0
 31
0.0
  0
ARC
  5
39
  8
TEAM-BODY
 10
370.0
 20
370.0
 30
0.0
 40
35.0
 50
0.0
 51
90.0
  0
DIMENSION
  5
3A
  8
TEAM-MAS
  2
*D3
 10
635.833852
 20
-500.0
 30
0.0
 11
635.833852
 21
0.0
 31
0.0
 12
-8000.0
 22
-224000.0
 32
0.0
 13
500.0
 23
500.0
 33
0.0
 14
50.0
 24
-500.0
 34
0.0
 50
90.0
  0
ARC
  5
49
  8
TEAM-BODY
 10
50.0
 20
-50.0
 30
0.0
 40
355.0
 50
270.0
 51
0.0
  0
ARC
  5
4A
  8
TEAM-DET1
 10
50.0
 20
-50.0
 30
0.0
 40
395.0
 50
270.0
 51
0.0
  0
ARC
  5
4B
  8
TEAM-BODY
 10
50.0
 20
-50.0
 30
0.0
 40
450.0
 50
270.0
 51
0.0
  0
DIMENSION
  5
4C
  8
TEAM-MAS
  2
*D2
 10
500.0
 20
554.530547
 30
0.0
 11
405.0
 21
554.530547
 31
0.0
 12
-8000.0
 22
-224000.0
 32
0.0
 13
310.0
 23
375.0
 33
0.0
 14
500.0
 24
500.0
 34
0.0
  0
DIMENSION
  5
5A
  8
TEAM-MAS
  2
*D1
 10
568.981893
 20
500.0
 30
0.0
 11
568.981893
 21
405.0
 31
0.0
 12
-8000.0
 22
-224000.0
 32
0.0
 13
380.56237
 23
310.0
 33
0.0
 14
500.0
 24
500.0
 34
0.0
 50
90.0
  0
ARC
  5
68
  8
TEAM-DET1
 10
370.0
 20
370.0
 30
0.0
 40
75.0
 50
0.0
 51
90.0
  0
LINE
  5
69
  8
TEAM-DET1
 10
-445.0
 20
-370.0
 30
0.0
 11
-445.0
 21
370.0
 31
0.0
  0
LINE
  5
6A
  8
TEAM-BODY
 10
-500.0
 20
-500.0
 30
0.0
 11
-500.0
 21
500.0
 31
0.0
  0
DIMENSION
  5
6B
  8
TEAM-MAS
  2
*D0
 10
-500.0
 20
-618.732305
 30
0.0
 11
0.0
 21
-618.732305
 31
0.0
 12
-8000.0
 22
-224000.0
 32
0.0
 13
500.0
 23
-50.0
 33
0.0
 14
-500.0
 24
-500.0
 34
0.0
  0
LINE
  5
79
  8
TEAM-BODY
 10
50.0
 20
-500.0
 30
0.0
 11
-500.0
 21
-500.0
 31
0.0
  0
ARC
  5
7A
  8
TEAM-DET1
 10
-370.0
 20
-370.0
 30
0.0
 40
75.0
 50
180.0
 51
270.0
  0
LINE
  5
7B
  8
TEAM-BODY
 10
-500.0
 20
500.0
 30
0.0
 11
500.0
 21
500.0
 31
0.0
  0
ARC
  5
7C
  8
TEAM-DET1
 10
-370.0
 20
370.0
 30
0.0
 40
75.0
 50
90.0
 51
180.0
  0
ENDSEC
  0
EOF
