  0
SECTION
  2
HEADER
  9
$ACADVER
  1
AC1009
  9
$INSBASE
 10
0.0
 20
0.0
 30
0.0
  9
$EXTMIN
 10
-450.085619
 20
-644.452799
 30
0.0
  9
$EXTMAX
 10
689.789276
 20
400.018441
 30
0.0
  9
$LIMMIN
 10
-450.085619
 20
-644.452799
  9
$LIMMAX
 10
689.789276
 20
400.018441
  9
$ORTHOMODE
 70
     1
  9
$REGENMODE
 70
     1
  9
$FILLMODE
 70
     1
  9
$QTEXTMODE
 70
     0
  9
$MIRRTEXT
 70
     0
  9
$DRAGMODE
 70
     2
  9
$LTSCALE
 40
25.0
  9
$OSMODE
 70
     0
  9
$ATTMODE
 70
     1
  9
$TEXTSIZE
 40
200.0
  9
$TRACEWID
 40
1.0
  9
$TEXTSTYLE
  7
STANDARD
  9
$CLAYER
  8
TEAM-MAS
  9
$CELTYPE
  6
BYLAYER
  9
$CECOLOR
 62
   256
  9
$DIMSCALE
 40
0.0
  9
$DIMASZ
 40
20.0
  9
$DIMEXO
 40
10.0
  9
$DIMDLI
 40
1.0
  9
$DIMRND
 40
0.0
  9
$DIMDLE
 40
0.0
  9
$DIMEXE
 40
1.0
  9
$DIMTP
 40
0.0
  9
$DIMTM
 40
0.0
  9
$DIMTXT
 40
35.0
  9
$DIMCEN
 40
1.0
  9
$DIMTSZ
 40
0.0
  9
$DIMTOL
 70
     0
  9
$DIMLIM
 70
     0
  9
$DIMTIH
 70
     0
  9
$DIMTOH
 70
     0
  9
$DIMSE1
 70
     0
  9
$DIMSE2
 70
     0
  9
$DIMTAD
 70
     0
  9
$DIMZIN
 70
     0
  9
$DIMBLK
  1

  9
$DIMASO
 70
     1
  9
$DIMSHO
 70
     0
  9
$DIMPOST
  1

  9
$DIMAPOST
  1

  9
$DIMALT
 70
     0
  9
$DIMALTD
 70
     2
  9
$DIMALTF
 40
25.4
  9
$DIMLFAC
 40
1.0
  9
$DIMTOFL
 70
     0
  9
$DIMTVP
 40
0.0
  9
$DIMTIX
 70
     0
  9
$DIMSOXD
 70
     0
  9
$DIMSAH
 70
     0
  9
$DIMBLK1
  1

  9
$DIMBLK2
  1

  9
$DIMSTYLE
  2
TEAM
  9
$DIMCLRD
 70
     9
  9
$DIMCLRE
 70
     9
  9
$DIMCLRT
 70
    11
  9
$DIMTFAC
 40
1.0
  9
$DIMGAP
 40
15.0
  9
$LUNITS
 70
     2
  9
$LUPREC
 70
     1
  9
$SKETCHINC
 40
1.0
  9
$FILLETRAD
 40
50.0
  9
$AUNITS
 70
     0
  9
$AUPREC
 70
     0
  9
$MENU
  1
ROPLANS
  9
$ELEVATION
 40
0.0
  9
$PELEVATION
 40
0.0
  9
$THICKNESS
 40
0.0
  9
$LIMCHECK
 70
     0
  9
$BLIPMODE
 70
     1
  9
$CHAMFERA
 40
0.0
  9
$CHAMFERB
 40
0.0
  9
$SKPOLY
 70
     0
  9
$TDCREATE
 40
2450392.957851
  9
$TDUPDATE
 40
2455493.97462
  9
$TDINDWG
 40
1.964495
  9
$TDUSRTIMER
 40
1.964495
  9
$USRTIMER
 70
     1
  9
$ANGBASE
 50
0.0
  9
$ANGDIR
 70
     0
  9
$PDMODE
 70
     0
  9
$PDSIZE
 40
0.0
  9
$PLINEWID
 40
0.0
  9
$COORDS
 70
     2
  9
$SPLFRAME
 70
     0
  9
$SPLINETYPE
 70
     6
  9
$SPLINESEGS
 70
     8
  9
$ATTDIA
 70
     0
  9
$ATTREQ
 70
     0
  9
$HANDLING
 70
     1
  9
$HANDSEED
  5
18D
  9
$SURFTAB1
 70
    24
  9
$SURFTAB2
 70
    24
  9
$SURFTYPE
 70
     6
  9
$SURFU
 70
     6
  9
$SURFV
 70
     6
  9
$UCSNAME
  2

  9
$UCSORG
 10
0.0
 20
0.0
 30
0.0
  9
$UCSXDIR
 10
1.0
 20
0.0
 30
0.0
  9
$UCSYDIR
 10
0.0
 20
1.0
 30
0.0
  9
$PUCSNAME
  2

  9
$PUCSORG
 10
0.0
 20
0.0
 30
0.0
  9
$PUCSXDIR
 10
1.0
 20
0.0
 30
0.0
  9
$PUCSYDIR
 10
0.0
 20
1.0
 30
0.0
  9
$USERI1
 70
     0
  9
$USERI2
 70
     0
  9
$USERI3
 70
     0
  9
$USERI4
 70
     0
  9
$USERI5
 70
     0
  9
$USERR1
 40
0.0
  9
$USERR2
 40
0.0
  9
$USERR3
 40
0.0
  9
$USERR4
 40
0.0
  9
$USERR5
 40
0.0
  9
$WORLDVIEW
 70
     1
  9
$SHADEDGE
 70
     0
  9
$SHADEDIF
 70
    70
  9
$TILEMODE
 70
     1
  9
$MAXACTVP
 70
    16
  9
$PLIMCHECK
 70
     0
  9
$PEXTMIN
 10
-0.805942
 20
0.005011
 30
0.0
  9
$PEXTMAX
 10
20.250094
 20
11.356329
 30
0.0
  9
$PLIMMIN
 10
0.0
 20
0.0
  9
$PLIMMAX
 10
12.0
 20
9.0
  9
$UNITMODE
 70
     0
  9
$VISRETAIN
 70
     0
  9
$PLINEGEN
 70
     0
  9
$PSLTSCALE
 70
     0
  0
ENDSEC
  0
SECTION
  2
TABLES
  0
TABLE
  2
VPORT
 70
     2
  0
VPORT
  2
*ACTIVE
 70
     0
 10
0.0
 20
0.0
 11
1.0
 21
1.0
 12
119.851829
 22
-122.217179
 13
0.0
 23
0.0
 14
1.0
 24
1.0
 15
50.0
 25
50.0
 16
0.0
 26
0.0
 36
1.0
 17
0.0
 27
0.0
 37
0.0
 40
1050.885598
 41
1.865779
 42
50.0
 43
0.0
 44
0.0
 50
0.0
 51
0.0
 71
     0
 72
   100
 73
     1
 74
     1
 75
     0
 76
     0
 77
     0
 78
     0
  0
ENDTAB
  0
TABLE
  2
LTYPE
 70
     2
  0
LTYPE
  2
CONTINUOUS
 70
     0
  3
Solid Line
 72
    65
 73
     0
 40
0.0
  0
LTYPE
  2
31
 70
     0
  3

 72
    65
 73
     4
 40
2.1
 49
1.5
 49
-0.3
 49
0.0
 49
-0.3
  0
ENDTAB
  0
TABLE
  2
LAYER
 70
     8
  0
LAYER
  2
0
 70
     0
 62
     7
  6
CONTINUOUS
  0
LAYER
  2
DEFPOINTS
 70
     0
 62
     7
  6
CONTINUOUS
  0
LAYER
  2
TEAM-BODY
 70
     0
 62
     2
  6
CONTINUOUS
  0
LAYER
  2
TEAM-AXE
 70
     0
 62
    10
  6
31
  0
LAYER
  2
TEAM-MAS
 70
     0
 62
     9
  6
CONTINUOUS
  0
LAYER
  2
TEAM-TXT
 70
     0
 62
    11
  6
CONTINUOUS
  0
LAYER
  2
TEAM-DET1
 70
     0
 62
     4
  6
CONTINUOUS
  0
LAYER
  2
TEAM-INSP
 70
     0
 62
     5
  6
CONTINUOUS
  0
ENDTAB
  0
TABLE
  2
STYLE
 70
     2
  0
STYLE
  2
STANDARD
 70
     0
 40
0.0
 41
1.0
 50
0.0
 71
     0
 42
200.0
  3
txt
  4

  0
STYLE
  2
TEAM
 70
     0
 40
0.0
 41
0.8
 50
15.0
 71
     0
 42
7.0
  3
ROMANS.shx
  4

  0
ENDTAB
  0
TABLE
  2
VIEW
 70
     0
  0
ENDTAB
  0
TABLE
  2
UCS
 70
     0
  0
ENDTAB
  0
TABLE
  2
APPID
 70
     1
  0
APPID
  2
ACAD
 70
     0
  0
ENDTAB
  0
TABLE
  2
DIMSTYLE
 70
     1
  0
DIMSTYLE
  2
TEAM
 70
     0
  3

  4

  5

  6

  7

 40
0.0
 41
20.0
 42
10.0
 43
1.0
 44
1.0
 45
0.0
 46
0.0
 47
0.0
 48
0.0
140
35.0
141
1.0
142
0.0
143
25.4
144
1.0
145
0.0
146
1.0
147
15.0
 71
     0
 72
     0
 73
     0
 74
     0
 75
     0
 76
     0
 77
     0
 78
     0
170
     0
171
     2
172
     0
173
     0
174
     0
175
     0
176
     9
177
     9
178
    11
  0
ENDTAB
  0
ENDSEC
  0
SECTION
  2
BLOCKS
  0
BLOCK
  8
0
  2
$MODEL_SPACE
 70
     0
 10
0.0
 20
0.0
 30
0.0
  3
$MODEL_SPACE
  1

  0
ENDBLK
  5
174
  8
0
  0
BLOCK
 67
     1
  8
0
  2
$PAPER_SPACE
 70
     0
 10
0.0
 20
0.0
 30
0.0
  3
$PAPER_SPACE
  1

  0
ENDBLK
  5
172
 67
     1
  8
0
  0
BLOCK
  8
0
  2
*D0
 70
     1
 10
0.0
 20
0.0
 30
0.0
  3
*D0
  1

  0
LINE
  5
62
  8
0
  6
BYBLOCK
 62
     9
 10
460.0
 20
327600.0
 30
0.0
 11
566.0
 21
327600.0
 31
0.0
  0
LINE
  5
63
  8
0
  6
BYBLOCK
 62
     9
 10
325.0
 20
327800.0
 30
0.0
 11
566.0
 21
327800.0
 31
0.0
  0
LINE
  5
64
  8
0
  6
BYBLOCK
 62
     9
 10
565.0
 20
327620.0
 30
0.0
 11
565.0
 21
327653.041831
 31
0.0
  0
LINE
  5
65
  8
0
  6
BYBLOCK
 62
     9
 10
565.0
 20
327780.0
 30
0.0
 11
565.0
 21
327746.958169
 31
0.0
  0
SOLID
  5
66
  8
0
  6
BYBLOCK
 62
     9
 10
561.666667
 20
327620.0
 30
0.0
 11
568.333333
 21
327620.0
 31
0.0
 12
565.0
 22
327600.0
 32
0.0
 13
565.0
 23
327600.0
 33
0.0
  0
SOLID
  5
67
  8
0
  6
BYBLOCK
 62
     9
 10
561.666667
 20
327780.0
 30
0.0
 11
568.333333
 21
327780.0
 31
0.0
 12
565.0
 22
327800.0
 32
0.0
 13
565.0
 23
327800.0
 33
0.0
  0
TEXT
  5
68
  8
0
  6
BYBLOCK
 62
    11
 10
582.5
 20
327663.68061
 30
0.0
 40
35.0
  1
200
 50
90.0
  0
POINT
  5
69
  8
DEFPOINTS
  6
BYBLOCK
 62
     0
 10
450.0
 20
327600.0
 30
0.0
  0
POINT
  5
6A
  8
DEFPOINTS
  6
BYBLOCK
 62
     0
 10
315.0
 20
327800.0
 30
0.0
  0
POINT
  5
6B
  8
DEFPOINTS
  6
BYBLOCK
 62
     0
 10
565.0
 20
327800.0
 30
0.0
  0
ENDBLK
  5
6D
  8
0
  0
BLOCK
  8
0
  2
*D1
 70
     1
 10
0.0
 20
0.0
 30
0.0
  3
*D1
  1

  0
LINE
  5
22
  8
0
  6
BYBLOCK
 62
     9
 10
460.0
 20
327600.0
 30
0.0
 11
674.97
 21
327600.0
 31
0.0
  0
LINE
  5
23
  8
0
  6
BYBLOCK
 62
     9
 10
460.0
 20
328400.0
 30
0.0
 11
674.97
 21
328400.0
 31
0.0
  0
LINE
  5
24
  8
0
  6
BYBLOCK
 62
     9
 10
673.97
 20
327620.0
 30
0.0
 11
673.97
 21
327953.48622
 31
0.0
  0
LINE
  5
25
  8
0
  6
BYBLOCK
 62
     9
 10
673.97
 20
328380.0
 30
0.0
 11
673.97
 21
328046.51378
 31
0.0
  0
SOLID
  5
26
  8
0
  6
BYBLOCK
 62
     9
 10
670.636667
 20
327620.0
 30
0.0
 11
677.303333
 21
327620.0
 31
0.0
 12
673.97
 22
327600.0
 32
0.0
 13
673.97
 23
327600.0
 33
0.0
  0
SOLID
  5
27
  8
0
  6
BYBLOCK
 62
     9
 10
670.636667
 20
328380.0
 30
0.0
 11
677.303333
 21
328380.0
 31
0.0
 12
673.97
 22
328400.0
 32
0.0
 13
673.97
 23
328400.0
 33
0.0
  0
TEXT
  5
28
  8
0
  6
BYBLOCK
 62
    11
 10
691.47
 20
327963.23622
 30
0.0
 40
35.0
  1
800
 50
90.0
  0
POINT
  5
29
  8
DEFPOINTS
  6
BYBLOCK
 62
     0
 10
450.0
 20
327600.0
 30
0.0
  0
POINT
  5
2B
  8
DEFPOINTS
  6
BYBLOCK
 62
     0
 10
450.0
 20
328400.0
 30
0.0
  0
POINT
  5
2C
  8
DEFPOINTS
  6
BYBLOCK
 62
     0
 10
673.97
 20
328400.0
 30
0.0
  0
ENDBLK
  5
2E
  8
0
  0
BLOCK
  8
0
  2
*D2
 70
     1
 10
0.0
 20
0.0
 30
0.0
  3
*D2
  1

  0
LINE
  5
54
  8
0
  6
BYBLOCK
 62
     9
 10
250.0
 20
327725.0
 30
0.0
 11
250.0
 21
327489.0
 31
0.0
  0
LINE
  5
55
  8
0
  6
BYBLOCK
 62
     9
 10
450.0
 20
327590.0
 30
0.0
 11
450.0
 21
327489.0
 31
0.0
  0
LINE
  5
56
  8
0
  6
BYBLOCK
 62
     9
 10
270.0
 20
327490.0
 30
0.0
 11
303.041831
 21
327490.0
 31
0.0
  0
LINE
  5
57
  8
0
  6
BYBLOCK
 62
     9
 10
430.0
 20
327490.0
 30
0.0
 11
396.958169
 21
327490.0
 31
0.0
  0
SOLID
  5
58
  8
0
  6
BYBLOCK
 62
     9
 10
270.0
 20
327493.333333
 30
0.0
 11
270.0
 21
327486.666667
 31
0.0
 12
250.0
 22
327490.0
 32
0.0
 13
250.0
 23
327490.0
 33
0.0
  0
SOLID
  5
59
  8
0
  6
BYBLOCK
 62
     9
 10
430.0
 20
327493.333333
 30
0.0
 11
430.0
 21
327486.666667
 31
0.0
 12
450.0
 22
327490.0
 32
0.0
 13
450.0
 23
327490.0
 33
0.0
  0
TEXT
  5
5A
  8
0
  6
BYBLOCK
 62
    11
 10
313.68061
 20
327472.5
 30
0.0
 40
35.0
  1
200
  0
POINT
  5
5B
  8
DEFPOINTS
  6
BYBLOCK
 62
     0
 10
250.0
 20
327735.0
 30
0.0
  0
POINT
  5
5C
  8
DEFPOINTS
  6
BYBLOCK
 62
     0
 10
450.0
 20
327600.0
 30
0.0
  0
POINT
  5
5D
  8
DEFPOINTS
  6
BYBLOCK
 62
     0
 10
450.0
 20
327490.0
 30
0.0
  0
ENDBLK
  5
5F
  8
0
  0
BLOCK
  8
0
  2
*D3
 70
     1
 10
0.0
 20
0.0
 30
0.0
  3
*D3
  1

  0
LINE
  5
46
  8
0
  6
BYBLOCK
 62
     9
 10
-450.0
 20
327590.0
 30
0.0
 11
-450.0
 21
327372.045699
 31
0.0
  0
LINE
  5
47
  8
0
  6
BYBLOCK
 62
     9
 10
450.0
 20
327590.0
 30
0.0
 11
450.0
 21
327372.045699
 31
0.0
  0
LINE
  5
48
  8
0
  6
BYBLOCK
 62
     9
 10
-430.0
 20
327373.045699
 30
0.0
 11
-47.238653
 21
327373.045699
 31
0.0
  0
LINE
  5
49
  8
0
  6
BYBLOCK
 62
     9
 10
430.0
 20
327373.045699
 30
0.0
 11
47.238653
 21
327373.045699
 31
0.0
  0
SOLID
  5
4A
  8
0
  6
BYBLOCK
 62
     9
 10
-430.0
 20
327376.379032
 30
0.0
 11
-430.0
 21
327369.712365
 31
0.0
 12
-450.0
 22
327373.045699
 32
0.0
 13
-450.0
 23
327373.045699
 33
0.0
  0
SOLID
  5
4B
  8
0
  6
BYBLOCK
 62
     9
 10
430.0
 20
327376.379032
 30
0.0
 11
430.0
 21
327369.712365
 31
0.0
 12
450.0
 22
327373.045699
 32
0.0
 13
450.0
 23
327373.045699
 33
0.0
  0
TEXT
  5
4C
  8
0
  6
BYBLOCK
 62
    11
 10
-36.161207
 20
327355.545699
 30
0.0
 40
35.0
  1
900
  0
POINT
  5
4D
  8
DEFPOINTS
  6
BYBLOCK
 62
     0
 10
-450.0
 20
327600.0
 30
0.0
  0
POINT
  5
4E
  8
DEFPOINTS
  6
BYBLOCK
 62
     0
 10
450.0
 20
327600.0
 30
0.0
  0
POINT
  5
4F
  8
DEFPOINTS
  6
BYBLOCK
 62
     0
 10
450.0
 20
327373.045699
 30
0.0
  0
ENDBLK
  5
51
  8
0
  0
ENDSEC
  0
SECTION
  2
ENTITIES
  0
DIMENSION
  5
20
  8
TEAM-MAS
  2
*D1
 10
673.97
 20
400.0
 30
0.0
 11
673.97
 21
0.0
 31
0.0
 12
0.0
 22
-328000.0
 32
0.0
 13
450.0
 23
-400.0
 33
0.0
 14
450.0
 24
400.0
 34
0.0
 50
90.0
  0
LINE
  5
2F
  8
TEAM-BODY
 10
450.0
 20
-400.0
 30
0.0
 11
450.0
 21
400.0
 31
0.0
  0
CIRCLE
  5
31
  8
TEAM-BODY
 10
250.0
 20
-200.0
 30
0.0
 40
35.0
  0
LINE
  5
32
  8
TEAM-AXE
 10
250.0
 20
-200.0
 30
0.0
 11
250.0
 21
-135.0
 31
0.0
  0
LINE
  5
35
  8
TEAM-AXE
 10
250.0
 20
-200.0
 30
0.0
 11
250.0
 21
-265.0
 31
0.0
  0
LINE
  5
36
  8
TEAM-AXE
 10
250.0
 20
-200.0
 30
0.0
 11
185.0
 21
-200.0
 31
0.0
  0
LINE
  5
37
  8
TEAM-AXE
 10
250.0
 20
-200.0
 30
0.0
 11
315.0
 21
-200.0
 31
0.0
  0
CIRCLE
  5
38
  8
TEAM-DET1
 10
250.0
 20
-200.0
 30
0.0
 40
45.0
  0
CIRCLE
  5
3A
  8
TEAM-INSP
 10
0.0
 20
0.0
 30
0.0
 40
7.1
  0
LINE
  5
3C
  8
TEAM-BODY
 10
-450.0
 20
400.0
 30
0.0
 11
-450.0
 21
-400.0
 31
0.0
  0
LINE
  5
3D
  8
TEAM-BODY
 10
-450.0
 20
-400.0
 30
0.0
 11
450.0
 21
-400.0
 31
0.0
  0
LINE
  5
3E
  8
TEAM-BODY
 10
450.0
 20
400.0
 30
0.0
 11
-450.0
 21
400.0
 31
0.0
  0
POLYLINE
  5
3F
  8
TEAM-BODY
 66
     1
 10
0.0
 20
0.0
 30
0.0
 70
     1
  0
VERTEX
  5
17A
  8
TEAM-BODY
 10
-340.0
 20
-315.0
 30
0.0
  0
VERTEX
  5
17B
  8
TEAM-BODY
 10
340.0
 20
-315.0
 30
0.0
 42
0.414214
  0
VERTEX
  5
17C
  8
TEAM-BODY
 10
365.0
 20
-290.0
 30
0.0
  0
VERTEX
  5
17D
  8
TEAM-BODY
 10
365.0
 20
290.0
 30
0.0
 42
0.414214
  0
VERTEX
  5
17E
  8
TEAM-BODY
 10
340.0
 20
315.0
 30
0.0
  0
VERTEX
  5
17F
  8
TEAM-BODY
 10
-340.0
 20
315.0
 30
0.0
 42
0.414214
  0
VERTEX
  5
180
  8
TEAM-BODY
 10
-365.0
 20
290.0
 30
0.0
  0
VERTEX
  5
181
  8
TEAM-BODY
 10
-365.0
 20
-290.0
 30
0.0
 42
0.414214
  0
SEQEND
  5
182
  8
TEAM-BODY
  0
POLYLINE
  5
40
  8
TEAM-DET1
 66
     1
 10
0.0
 20
0.0
 30
0.0
 70
     1
  0
VERTEX
  5
183
  8
TEAM-DET1
 10
-340.0
 20
-335.0
 30
0.0
  0
VERTEX
  5
184
  8
TEAM-DET1
 10
340.0
 20
-335.0
 30
0.0
 42
0.414214
  0
VERTEX
  5
185
  8
TEAM-DET1
 10
385.0
 20
-290.0
 30
0.0
  0
VERTEX
  5
186
  8
TEAM-DET1
 10
385.0
 20
290.0
 30
0.0
 42
0.414214
  0
VERTEX
  5
187
  8
TEAM-DET1
 10
340.0
 20
335.0
 30
0.0
  0
VERTEX
  5
188
  8
TEAM-DET1
 10
-340.0
 20
335.0
 30
0.0
 42
0.414214
  0
VERTEX
  5
189
  8
TEAM-DET1
 10
-385.0
 20
290.0
 30
0.0
  0
VERTEX
  5
18A
  8
TEAM-DET1
 10
-385.0
 20
-290.0
 30
0.0
 42
0.414214
  0
SEQEND
  5
18B
  8
TEAM-DET1
  0
TEXT
  5
41
  8
TEAM-TXT
 10
-347.983158
 20
268.94467
 30
0.0
 40
30.0
  1
team 141298
 41
0.8
 51
15.0
  7
TEAM
  0
DIMENSION
  5
44
  8
TEAM-MAS
  2
*D3
 10
450.0
 20
-626.954301
 30
0.0
 11
0.0
 21
-626.954301
 31
0.0
 12
0.0
 22
-328000.0
 32
0.0
 13
-450.0
 23
-400.0
 33
0.0
 14
450.0
 24
-400.0
 34
0.0
  0
DIMENSION
  5
52
  8
TEAM-MAS
  2
*D2
 10
450.0
 20
-510.0
 30
0.0
 11
350.0
 21
-510.0
 31
0.0
 12
0.0
 22
-328000.0
 32
0.0
 13
250.0
 23
-265.0
 33
0.0
 14
450.0
 24
-400.0
 34
0.0
  0
DIMENSION
  5
60
  8
TEAM-MAS
  2
*D0
 10
565.0
 20
-200.0
 30
0.0
 11
565.0
 21
-300.0
 31
0.0
 12
0.0
 22
-328000.0
 32
0.0
 13
450.0
 23
-400.0
 33
0.0
 14
315.0
 24
-200.0
 34
0.0
 50
90.0
  0
ENDSEC
  0
EOF
