  0
SECTION
  2
HEADER
  9
$ACADVER
  1
AC1009
  9
$INSBASE
 10
0.0
 20
0.0
 30
0.0
  9
$EXTMIN
 10
-450.016104
 20
-10.004913
 30
0.0
  9
$EXTMAX
 10
609.054828
 20
312.216449
 30
0.0
  9
$LIMMIN
 10
-450.016104
 20
-10.004913
  9
$LIMMAX
 10
609.054828
 20
312.216449
  9
$ORTHOMODE
 70
     1
  9
$REGENMODE
 70
     1
  9
$FILLMODE
 70
     1
  9
$QTEXTMODE
 70
     0
  9
$MIRRTEXT
 70
     0
  9
$DRAGMODE
 70
     2
  9
$LTSCALE
 40
25.0
  9
$OSMODE
 70
     0
  9
$ATTMODE
 70
     1
  9
$TEXTSIZE
 40
200.0
  9
$TRACEWID
 40
1.0
  9
$TEXTSTYLE
  7
STANDARD
  9
$CLAYER
  8
TEAM-MAS
  9
$CELTYPE
  6
BYLAYER
  9
$CECOLOR
 62
   256
  9
$DIMSCALE
 40
0.0
  9
$DIMASZ
 40
20.0
  9
$DIMEXO
 40
10.0
  9
$DIMDLI
 40
1.0
  9
$DIMRND
 40
0.0
  9
$DIMDLE
 40
0.0
  9
$DIMEXE
 40
1.0
  9
$DIMTP
 40
0.0
  9
$DIMTM
 40
0.0
  9
$DIMTXT
 40
35.0
  9
$DIMCEN
 40
1.0
  9
$DIMTSZ
 40
0.0
  9
$DIMTOL
 70
     0
  9
$DIMLIM
 70
     0
  9
$DIMTIH
 70
     0
  9
$DIMTOH
 70
     0
  9
$DIMSE1
 70
     0
  9
$DIMSE2
 70
     0
  9
$DIMTAD
 70
     0
  9
$DIMZIN
 70
     0
  9
$DIMBLK
  1

  9
$DIMASO
 70
     1
  9
$DIMSHO
 70
     0
  9
$DIMPOST
  1

  9
$DIMAPOST
  1

  9
$DIMALT
 70
     0
  9
$DIMALTD
 70
     2
  9
$DIMALTF
 40
25.4
  9
$DIMLFAC
 40
1.0
  9
$DIMTOFL
 70
     0
  9
$DIMTVP
 40
0.0
  9
$DIMTIX
 70
     0
  9
$DIMSOXD
 70
     0
  9
$DIMSAH
 70
     0
  9
$DIMBLK1
  1

  9
$DIMBLK2
  1

  9
$DIMSTYLE
  2
TEAM
  9
$DIMCLRD
 70
     9
  9
$DIMCLRE
 70
     9
  9
$DIMCLRT
 70
    11
  9
$DIMTFAC
 40
1.0
  9
$DIMGAP
 40
15.0
  9
$LUNITS
 70
     2
  9
$LUPREC
 70
     1
  9
$SKETCHINC
 40
1.0
  9
$FILLETRAD
 40
50.0
  9
$AUNITS
 70
     0
  9
$AUPREC
 70
     0
  9
$MENU
  1
ROPLANS
  9
$ELEVATION
 40
0.0
  9
$PELEVATION
 40
0.0
  9
$THICKNESS
 40
0.0
  9
$LIMCHECK
 70
     0
  9
$BLIPMODE
 70
     1
  9
$CHAMFERA
 40
0.0
  9
$CHAMFERB
 40
0.0
  9
$SKPOLY
 70
     0
  9
$TDCREATE
 40
2450392.957851
  9
$TDUPDATE
 40
2455493.97462
  9
$TDINDWG
 40
1.964495
  9
$TDUSRTIMER
 40
1.964495
  9
$USRTIMER
 70
     1
  9
$ANGBASE
 50
0.0
  9
$ANGDIR
 70
     0
  9
$PDMODE
 70
     0
  9
$PDSIZE
 40
0.0
  9
$PLINEWID
 40
0.0
  9
$COORDS
 70
     2
  9
$SPLFRAME
 70
     0
  9
$SPLINETYPE
 70
     6
  9
$SPLINESEGS
 70
     8
  9
$ATTDIA
 70
     0
  9
$ATTREQ
 70
     0
  9
$HANDLING
 70
     1
  9
$HANDSEED
  5
104
  9
$SURFTAB1
 70
    24
  9
$SURFTAB2
 70
    24
  9
$SURFTYPE
 70
     6
  9
$SURFU
 70
     6
  9
$SURFV
 70
     6
  9
$UCSNAME
  2

  9
$UCSORG
 10
0.0
 20
0.0
 30
0.0
  9
$UCSXDIR
 10
1.0
 20
0.0
 30
0.0
  9
$UCSYDIR
 10
0.0
 20
1.0
 30
0.0
  9
$PUCSNAME
  2

  9
$PUCSORG
 10
0.0
 20
0.0
 30
0.0
  9
$PUCSXDIR
 10
1.0
 20
0.0
 30
0.0
  9
$PUCSYDIR
 10
0.0
 20
1.0
 30
0.0
  9
$USERI1
 70
     0
  9
$USERI2
 70
     0
  9
$USERI3
 70
     0
  9
$USERI4
 70
     0
  9
$USERI5
 70
     0
  9
$USERR1
 40
0.0
  9
$USERR2
 40
0.0
  9
$USERR3
 40
0.0
  9
$USERR4
 40
0.0
  9
$USERR5
 40
0.0
  9
$WORLDVIEW
 70
     1
  9
$SHADEDGE
 70
     0
  9
$SHADEDIF
 70
    70
  9
$TILEMODE
 70
     1
  9
$MAXACTVP
 70
    16
  9
$PLIMCHECK
 70
     0
  9
$PEXTMIN
 10
-0.805942
 20
0.005011
 30
0.0
  9
$PEXTMAX
 10
20.250094
 20
11.356329
 30
0.0
  9
$PLIMMIN
 10
0.0
 20
0.0
  9
$PLIMMAX
 10
12.0
 20
9.0
  9
$UNITMODE
 70
     0
  9
$VISRETAIN
 70
     0
  9
$PLINEGEN
 70
     0
  9
$PSLTSCALE
 70
     0
  0
ENDSEC
  0
SECTION
  2
TABLES
  0
TABLE
  2
VPORT
 70
     2
  0
VPORT
  2
*ACTIVE
 70
     0
 10
0.0
 20
0.0
 11
1.0
 21
1.0
 12
79.519362
 22
151.105768
 13
0.0
 23
0.0
 14
1.0
 24
1.0
 15
50.0
 25
50.0
 16
0.0
 26
0.0
 36
1.0
 17
0.0
 27
0.0
 37
0.0
 40
569.497815
 41
1.865779
 42
50.0
 43
0.0
 44
0.0
 50
0.0
 51
0.0
 71
     0
 72
   100
 73
     1
 74
     1
 75
     0
 76
     0
 77
     0
 78
     0
  0
ENDTAB
  0
TABLE
  2
LTYPE
 70
     2
  0
LTYPE
  2
CONTINUOUS
 70
     0
  3
Solid Line
 72
    65
 73
     0
 40
0.0
  0
LTYPE
  2
31
 70
     0
  3

 72
    65
 73
     4
 40
2.1
 49
1.5
 49
-0.3
 49
0.0
 49
-0.3
  0
ENDTAB
  0
TABLE
  2
LAYER
 70
     8
  0
LAYER
  2
0
 70
     0
 62
     7
  6
CONTINUOUS
  0
LAYER
  2
DEFPOINTS
 70
     0
 62
     7
  6
CONTINUOUS
  0
LAYER
  2
TEAM-BODY
 70
     0
 62
     2
  6
CONTINUOUS
  0
LAYER
  2
TEAM-AXE
 70
     0
 62
    10
  6
31
  0
LAYER
  2
TEAM-MAS
 70
     0
 62
     9
  6
CONTINUOUS
  0
LAYER
  2
TEAM-TXT
 70
     0
 62
    11
  6
CONTINUOUS
  0
LAYER
  2
TEAM-DET1
 70
     0
 62
     4
  6
CONTINUOUS
  0
LAYER
  2
TEAM-INSP
 70
     0
 62
     5
  6
CONTINUOUS
  0
ENDTAB
  0
TABLE
  2
STYLE
 70
     2
  0
STYLE
  2
STANDARD
 70
     0
 40
0.0
 41
1.0
 50
0.0
 71
     0
 42
200.0
  3
txt
  4

  0
STYLE
  2
TEAM
 70
     0
 40
0.0
 41
0.8
 50
15.0
 71
     0
 42
7.0
  3
ROMANS.shx
  4

  0
ENDTAB
  0
TABLE
  2
VIEW
 70
     0
  0
ENDTAB
  0
TABLE
  2
UCS
 70
     0
  0
ENDTAB
  0
TABLE
  2
APPID
 70
     1
  0
APPID
  2
ACAD
 70
     0
  0
ENDTAB
  0
TABLE
  2
DIMSTYLE
 70
     1
  0
DIMSTYLE
  2
TEAM
 70
     0
  3

  4

  5

  6

  7

 40
0.0
 41
20.0
 42
10.0
 43
1.0
 44
1.0
 45
0.0
 46
0.0
 47
0.0
 48
0.0
140
35.0
141
1.0
142
0.0
143
25.4
144
1.0
145
0.0
146
1.0
147
15.0
 71
     0
 72
     0
 73
     0
 74
     0
 75
     0
 76
     0
 77
     0
 78
     0
170
     0
171
     2
172
     0
173
     0
174
     0
175
     0
176
     9
177
     9
178
    11
  0
ENDTAB
  0
ENDSEC
  0
SECTION
  2
BLOCKS
  0
BLOCK
  8
0
  2
$MODEL_SPACE
 70
     0
 10
0.0
 20
0.0
 30
0.0
  3
$MODEL_SPACE
  1

  0
ENDBLK
  5
FD
  8
0
  0
BLOCK
 67
     1
  8
0
  2
$PAPER_SPACE
 70
     0
 10
0.0
 20
0.0
 30
0.0
  3
$PAPER_SPACE
  1

  0
ENDBLK
  5
FB
 67
     1
  8
0
  0
BLOCK
  8
0
  2
*D0
 70
     1
 10
0.0
 20
0.0
 30
0.0
  3
*D0
  1

  0
LINE
  5
59
  8
0
  6
BYBLOCK
 62
     9
 10
8315.0
 20
348175.0
 30
0.0
 11
8551.832891
 21
348175.0
 31
0.0
  0
LINE
  5
5A
  8
0
  6
BYBLOCK
 62
     9
 10
8460.0
 20
348200.0
 30
0.0
 11
8551.832891
 21
348200.0
 31
0.0
  0
LINE
  5
5B
  8
0
  6
BYBLOCK
 62
     9
 10
8550.832891
 20
348155.0
 30
0.0
 11
8550.832891
 21
348135.0
 31
0.0
  0
LINE
  5
5C
  8
0
  6
BYBLOCK
 62
     9
 10
8550.832891
 20
348220.0
 30
0.0
 11
8550.832891
 21
348240.0
 31
0.0
  0
TEXT
  5
5D
  8
0
  6
BYBLOCK
 62
    11
 10
8609.336335
 20
348162.719516
 30
0.0
 40
35.0
  1
25
 50
90.0
  0
LINE
  5
5E
  8
0
  6
BYBLOCK
 62
     9
 10
8550.832891
 20
348175.0
 30
0.0
 11
8550.832891
 21
348200.0
 31
0.0
  0
SOLID
  5
5F
  8
0
  6
BYBLOCK
 62
     9
 10
8547.499557
 20
348155.0
 30
0.0
 11
8554.166224
 21
348155.0
 31
0.0
 12
8550.832891
 22
348175.0
 32
0.0
 13
8550.832891
 23
348175.0
 33
0.0
  0
SOLID
  5
60
  8
0
  6
BYBLOCK
 62
     9
 10
8547.499557
 20
348220.0
 30
0.0
 11
8554.166224
 21
348220.0
 31
0.0
 12
8550.832891
 22
348200.0
 32
0.0
 13
8550.832891
 23
348200.0
 33
0.0
  0
POINT
  5
61
  8
DEFPOINTS
  6
BYBLOCK
 62
     0
 10
8305.0
 20
348175.0
 30
0.0
  0
POINT
  5
62
  8
DEFPOINTS
  6
BYBLOCK
 62
     0
 10
8450.0
 20
348200.0
 30
0.0
  0
POINT
  5
63
  8
DEFPOINTS
  6
BYBLOCK
 62
     0
 10
8550.832891
 20
348200.0
 30
0.0
  0
ENDBLK
  5
65
  8
0
  0
BLOCK
  8
0
  2
*D1
 70
     1
 10
0.0
 20
0.0
 30
0.0
  3
*D1
  1

  0
LINE
  5
46
  8
0
  6
BYBLOCK
 62
     9
 10
7550.0
 20
348210.0
 30
0.0
 11
7550.0
 21
348297.430835
 31
0.0
  0
LINE
  5
47
  8
0
  6
BYBLOCK
 62
     9
 10
8450.0
 20
348210.0
 30
0.0
 11
8450.0
 21
348297.430835
 31
0.0
  0
LINE
  5
48
  8
0
  6
BYBLOCK
 62
     9
 10
7570.0
 20
348296.430835
 30
0.0
 11
7952.761347
 21
348296.430835
 31
0.0
  0
LINE
  5
49
  8
0
  6
BYBLOCK
 62
     9
 10
8430.0
 20
348296.430835
 30
0.0
 11
8047.238653
 21
348296.430835
 31
0.0
  0
SOLID
  5
4A
  8
0
  6
BYBLOCK
 62
     9
 10
7570.0
 20
348299.764168
 30
0.0
 11
7570.0
 21
348293.097501
 31
0.0
 12
7550.0
 22
348296.430835
 32
0.0
 13
7550.0
 23
348296.430835
 33
0.0
  0
SOLID
  5
4B
  8
0
  6
BYBLOCK
 62
     9
 10
8430.0
 20
348299.764168
 30
0.0
 11
8430.0
 21
348293.097501
 31
0.0
 12
8450.0
 22
348296.430835
 32
0.0
 13
8450.0
 23
348296.430835
 33
0.0
  0
TEXT
  5
4C
  8
0
  6
BYBLOCK
 62
    11
 10
7963.838793
 20
348278.930835
 30
0.0
 40
35.0
  1
900
  0
POINT
  5
4D
  8
DEFPOINTS
  6
BYBLOCK
 62
     0
 10
7550.0
 20
348200.0
 30
0.0
  0
POINT
  5
4E
  8
DEFPOINTS
  6
BYBLOCK
 62
     0
 10
8450.0
 20
348200.0
 30
0.0
  0
POINT
  5
4F
  8
DEFPOINTS
  6
BYBLOCK
 62
     0
 10
8450.0
 20
348296.430835
 30
0.0
  0
ENDBLK
  5
51
  8
0
  0
BLOCK
  8
0
  2
*D2
 70
     1
 10
0.0
 20
0.0
 30
0.0
  3
*D2
  1

  0
LINE
  5
29
  8
0
  6
BYBLOCK
 62
     9
 10
8215.0
 20
348165.0
 30
0.0
 11
8215.0
 21
348128.384189
 31
0.0
  0
LINE
  5
2A
  8
0
  6
BYBLOCK
 62
     9
 10
8305.0
 20
348165.0
 30
0.0
 11
8305.0
 21
348128.384189
 31
0.0
  0
LINE
  5
2B
  8
0
  6
BYBLOCK
 62
     9
 10
8235.0
 20
348129.384189
 30
0.0
 11
8285.0
 21
348129.384189
 31
0.0
  0
TEXT
  5
2C
  8
0
  6
BYBLOCK
 62
    11
 10
8236.088793
 20
348070.884189
 30
0.0
 40
35.0
  1
90
  0
SOLID
  5
2D
  8
0
  6
BYBLOCK
 62
     9
 10
8235.0
 20
348132.717523
 30
0.0
 11
8235.0
 21
348126.050856
 31
0.0
 12
8215.0
 22
348129.384189
 32
0.0
 13
8215.0
 23
348129.384189
 33
0.0
  0
SOLID
  5
2E
  8
0
  6
BYBLOCK
 62
     9
 10
8285.0
 20
348132.717523
 30
0.0
 11
8285.0
 21
348126.050856
 31
0.0
 12
8305.0
 22
348129.384189
 32
0.0
 13
8305.0
 23
348129.384189
 33
0.0
  0
POINT
  5
2F
  8
DEFPOINTS
  6
BYBLOCK
 62
     0
 10
8215.0
 20
348175.0
 30
0.0
  0
POINT
  5
31
  8
DEFPOINTS
  6
BYBLOCK
 62
     0
 10
8305.0
 20
348175.0
 30
0.0
  0
POINT
  5
32
  8
DEFPOINTS
  6
BYBLOCK
 62
     0
 10
8305.0
 20
348129.384189
 30
0.0
  0
ENDBLK
  5
34
  8
0
  0
ENDSEC
  0
SECTION
  2
ENTITIES
  0
LINE
  5
20
  8
TEAM-DET1
 10
450.0
 20
185.0
 30
0.0
 11
367.54976
 21
185.0
 31
0.0
  0
LINE
  5
22
  8
TEAM-BODY
 10
400.489459
 20
200.0
 30
0.0
 11
450.0
 21
200.0
 31
0.0
  0
CIRCLE
  5
24
  8
TEAM-INSP
 10
0.0
 20
0.0
 30
0.0
 40
10.0
  0
ARC
  5
26
  8
TEAM-BODY
 10
400.489459
 20
190.0
 30
0.0
 40
10.0
 50
90.0
 51
147.528808
  0
DIMENSION
  5
27
  8
TEAM-MAS
  2
*D2
 10
305.0
 20
129.384189
 30
0.0
 11
260.0
 21
88.384189
 31
0.0
 12
-8000.0
 22
-348000.0
 32
0.0
 13
215.0
 23
175.0
 33
0.0
 14
305.0
 24
175.0
 34
0.0
  0
LINE
  5
35
  8
TEAM-DET1
 10
215.0
 20
175.0
 30
0.0
 11
305.0
 21
175.0
 31
0.0
  0
LINE
  5
36
  8
TEAM-AXE
 10
260.0
 20
189.619397
 30
0.0
 11
260.0
 21
163.806188
 31
0.0
  0
LINE
  5
39
  8
TEAM-DET1
 10
215.0
 20
181.122863
 30
0.0
 11
215.0
 21
175.0
 31
0.0
  0
ARC
  5
3A
  8
TEAM-BODY
 10
349.912915
 20
212.644102
 30
0.0
 40
32.646582
 50
269.293802
 51
300.9001
  0
LINE
  5
3B
  8
TEAM-DET1
 10
305.0
 20
180.371564
 30
0.0
 11
305.0
 21
175.0
 31
0.0
  0
LINE
  5
3C
  8
TEAM-BODY
 10
392.052844
 20
195.368755
 30
0.0
 11
366.678331
 21
184.631245
 31
0.0
  0
LINE
  5
3D
  8
TEAM-BODY
 10
450.0
 20
200.0
 30
0.0
 11
450.0
 21
185.0
 31
0.0
  0
LINE
  5
3E
  8
TEAM-BODY
 10
-391.37001
 20
195.292377
 30
0.0
 11
-368.773067
 21
186.99023
 31
0.0
  0
ARC
  5
3F
  8
TEAM-BODY
 10
-351.234481
 20
240.117049
 30
0.0
 40
55.946947
 50
251.73056
 51
271.826116
  0
ARC
  5
40
  8
TEAM-BODY
 10
-399.854746
 20
190.0
 30
0.0
 40
10.0
 50
31.953967
 51
90.0
  0
LINE
  5
41
  8
TEAM-BODY
 10
-450.0
 20
200.0
 30
0.0
 11
-450.0
 21
185.0
 31
0.0
  0
LINE
  5
42
  8
TEAM-DET1
 10
-450.0
 20
185.0
 30
0.0
 11
-369.397251
 21
187.282608
 31
0.0
  0
LINE
  5
43
  8
TEAM-BODY
 10
-450.0
 20
200.0
 30
0.0
 11
-399.854746
 21
200.0
 31
0.0
  0
DIMENSION
  5
44
  8
TEAM-MAS
  2
*D1
 10
450.0
 20
296.430835
 30
0.0
 11
0.0
 21
296.430835
 31
0.0
 12
-8000.0
 22
-348000.0
 32
0.0
 13
-450.0
 23
200.0
 33
0.0
 14
450.0
 24
200.0
 34
0.0
1001
ACAD
1000
DSTYLE
1002
{
1070
    78
1070
     0
1070
    40
1040
1.0
1002
}
  0
LINE
  5
52
  8
TEAM-BODY
 10
-349.451657
 20
184.198515
 30
0.0
 11
349.510541
 21
180.0
 31
0.0
  0
LINE
  5
53
  8
TEAM-DET1
 10
-402.108709
 20
200.0
 30
0.0
 11
402.386304
 21
200.0
 31
0.0
  0
TEXT
  5
54
  8
TEAM-TXT
 10
-336.486884
 20
213.445439
 30
0.0
 40
30.0
  1
team 141320
 41
0.8
 51
15.0
  7
TEAM
  0
DIMENSION
  5
57
  8
TEAM-MAS
  2
*D0
 10
550.832891
 20
200.0
 30
0.0
 11
591.836335
 21
187.5
 31
0.0
 12
-8000.0
 22
-348000.0
 32
0.0
 13
305.0
 23
175.0
 33
0.0
 14
450.0
 24
200.0
 34
0.0
 50
90.0
  0
ENDSEC
  0
EOF
