  0
SECTION
  2
HEADER
  9
$ACADVER
  1
AC1009
  9
$INSBASE
 10
0.0
 20
0.0
 30
0.0
  9
$EXTMIN
 10
-500.017632
 20
-10.004913
 30
0.0
  9
$EXTMAX
 10
659.101919
 20
312.199531
 30
0.0
  9
$LIMMIN
 10
-500.017632
 20
-10.004913
  9
$LIMMAX
 10
659.101919
 20
312.199531
  9
$ORTHOMODE
 70
     1
  9
$REGENMODE
 70
     1
  9
$FILLMODE
 70
     1
  9
$QTEXTMODE
 70
     0
  9
$MIRRTEXT
 70
     0
  9
$DRAGMODE
 70
     2
  9
$LTSCALE
 40
25.0
  9
$OSMODE
 70
     0
  9
$ATTMODE
 70
     1
  9
$TEXTSIZE
 40
200.0
  9
$TRACEWID
 40
1.0
  9
$TEXTSTYLE
  7
STANDARD
  9
$CLAYER
  8
TEAM-MAS
  9
$CELTYPE
  6
BYLAYER
  9
$CECOLOR
 62
   256
  9
$DIMSCALE
 40
0.0
  9
$DIMASZ
 40
20.0
  9
$DIMEXO
 40
10.0
  9
$DIMDLI
 40
1.0
  9
$DIMRND
 40
0.0
  9
$DIMDLE
 40
0.0
  9
$DIMEXE
 40
1.0
  9
$DIMTP
 40
0.0
  9
$DIMTM
 40
0.0
  9
$DIMTXT
 40
35.0
  9
$DIMCEN
 40
1.0
  9
$DIMTSZ
 40
0.0
  9
$DIMTOL
 70
     0
  9
$DIMLIM
 70
     0
  9
$DIMTIH
 70
     0
  9
$DIMTOH
 70
     0
  9
$DIMSE1
 70
     0
  9
$DIMSE2
 70
     0
  9
$DIMTAD
 70
     0
  9
$DIMZIN
 70
     0
  9
$DIMBLK
  1

  9
$DIMASO
 70
     1
  9
$DIMSHO
 70
     0
  9
$DIMPOST
  1

  9
$DIMAPOST
  1

  9
$DIMALT
 70
     0
  9
$DIMALTD
 70
     2
  9
$DIMALTF
 40
25.4
  9
$DIMLFAC
 40
1.0
  9
$DIMTOFL
 70
     0
  9
$DIMTVP
 40
0.0
  9
$DIMTIX
 70
     0
  9
$DIMSOXD
 70
     0
  9
$DIMSAH
 70
     0
  9
$DIMBLK1
  1

  9
$DIMBLK2
  1

  9
$DIMSTYLE
  2
TEAM
  9
$DIMCLRD
 70
     9
  9
$DIMCLRE
 70
     9
  9
$DIMCLRT
 70
    11
  9
$DIMTFAC
 40
1.0
  9
$DIMGAP
 40
15.0
  9
$LUNITS
 70
     2
  9
$LUPREC
 70
     1
  9
$SKETCHINC
 40
1.0
  9
$FILLETRAD
 40
50.0
  9
$AUNITS
 70
     0
  9
$AUPREC
 70
     0
  9
$MENU
  1
ROPLANS
  9
$ELEVATION
 40
0.0
  9
$PELEVATION
 40
0.0
  9
$THICKNESS
 40
0.0
  9
$LIMCHECK
 70
     0
  9
$BLIPMODE
 70
     1
  9
$CHAMFERA
 40
0.0
  9
$CHAMFERB
 40
0.0
  9
$SKPOLY
 70
     0
  9
$TDCREATE
 40
2450392.957851
  9
$TDUPDATE
 40
2455493.97462
  9
$TDINDWG
 40
1.964495
  9
$TDUSRTIMER
 40
1.964495
  9
$USRTIMER
 70
     1
  9
$ANGBASE
 50
0.0
  9
$ANGDIR
 70
     0
  9
$PDMODE
 70
     0
  9
$PDSIZE
 40
0.0
  9
$PLINEWID
 40
0.0
  9
$COORDS
 70
     2
  9
$SPLFRAME
 70
     0
  9
$SPLINETYPE
 70
     6
  9
$SPLINESEGS
 70
     8
  9
$ATTDIA
 70
     0
  9
$ATTREQ
 70
     0
  9
$HANDLING
 70
     1
  9
$HANDSEED
  5
104
  9
$SURFTAB1
 70
    24
  9
$SURFTAB2
 70
    24
  9
$SURFTYPE
 70
     6
  9
$SURFU
 70
     6
  9
$SURFV
 70
     6
  9
$UCSNAME
  2

  9
$UCSORG
 10
0.0
 20
0.0
 30
0.0
  9
$UCSXDIR
 10
1.0
 20
0.0
 30
0.0
  9
$UCSYDIR
 10
0.0
 20
1.0
 30
0.0
  9
$PUCSNAME
  2

  9
$PUCSORG
 10
0.0
 20
0.0
 30
0.0
  9
$PUCSXDIR
 10
1.0
 20
0.0
 30
0.0
  9
$PUCSYDIR
 10
0.0
 20
1.0
 30
0.0
  9
$USERI1
 70
     0
  9
$USERI2
 70
     0
  9
$USERI3
 70
     0
  9
$USERI4
 70
     0
  9
$USERI5
 70
     0
  9
$USERR1
 40
0.0
  9
$USERR2
 40
0.0
  9
$USERR3
 40
0.0
  9
$USERR4
 40
0.0
  9
$USERR5
 40
0.0
  9
$WORLDVIEW
 70
     1
  9
$SHADEDGE
 70
     0
  9
$SHADEDIF
 70
    70
  9
$TILEMODE
 70
     1
  9
$MAXACTVP
 70
    16
  9
$PLIMCHECK
 70
     0
  9
$PEXTMIN
 10
-0.805942
 20
0.005011
 30
0.0
  9
$PEXTMAX
 10
20.250094
 20
11.356329
 30
0.0
  9
$PLIMMIN
 10
0.0
 20
0.0
  9
$PLIMMAX
 10
12.0
 20
9.0
  9
$UNITMODE
 70
     0
  9
$VISRETAIN
 70
     0
  9
$PLINEGEN
 70
     0
  9
$PSLTSCALE
 70
     0
  0
ENDSEC
  0
SECTION
  2
TABLES
  0
TABLE
  2
VPORT
 70
     2
  0
VPORT
  2
*ACTIVE
 70
     0
 10
0.0
 20
0.0
 11
1.0
 21
1.0
 12
79.542143
 22
151.097309
 13
0.0
 23
0.0
 14
1.0
 24
1.0
 15
50.0
 25
50.0
 16
0.0
 26
0.0
 36
1.0
 17
0.0
 27
0.0
 37
0.0
 40
623.297299
 41
1.865779
 42
50.0
 43
0.0
 44
0.0
 50
0.0
 51
0.0
 71
     0
 72
   100
 73
     1
 74
     1
 75
     0
 76
     0
 77
     0
 78
     0
  0
ENDTAB
  0
TABLE
  2
LTYPE
 70
     2
  0
LTYPE
  2
CONTINUOUS
 70
     0
  3
Solid Line
 72
    65
 73
     0
 40
0.0
  0
LTYPE
  2
31
 70
     0
  3

 72
    65
 73
     4
 40
2.1
 49
1.5
 49
-0.3
 49
0.0
 49
-0.3
  0
ENDTAB
  0
TABLE
  2
LAYER
 70
     8
  0
LAYER
  2
0
 70
     0
 62
     7
  6
CONTINUOUS
  0
LAYER
  2
DEFPOINTS
 70
     0
 62
     7
  6
CONTINUOUS
  0
LAYER
  2
TEAM-BODY
 70
     0
 62
     2
  6
CONTINUOUS
  0
LAYER
  2
TEAM-AXE
 70
     0
 62
    10
  6
31
  0
LAYER
  2
TEAM-MAS
 70
     0
 62
     9
  6
CONTINUOUS
  0
LAYER
  2
TEAM-TXT
 70
     0
 62
    11
  6
CONTINUOUS
  0
LAYER
  2
TEAM-DET1
 70
     0
 62
     4
  6
CONTINUOUS
  0
LAYER
  2
TEAM-INSP
 70
     0
 62
     5
  6
CONTINUOUS
  0
ENDTAB
  0
TABLE
  2
STYLE
 70
     2
  0
STYLE
  2
STANDARD
 70
     0
 40
0.0
 41
1.0
 50
0.0
 71
     0
 42
200.0
  3
txt
  4

  0
STYLE
  2
TEAM
 70
     0
 40
0.0
 41
0.8
 50
15.0
 71
     0
 42
7.0
  3
ROMANS.shx
  4

  0
ENDTAB
  0
TABLE
  2
VIEW
 70
     0
  0
ENDTAB
  0
TABLE
  2
UCS
 70
     0
  0
ENDTAB
  0
TABLE
  2
APPID
 70
     1
  0
APPID
  2
ACAD
 70
     0
  0
ENDTAB
  0
TABLE
  2
DIMSTYLE
 70
     1
  0
DIMSTYLE
  2
TEAM
 70
     0
  3

  4

  5

  6

  7

 40
0.0
 41
20.0
 42
10.0
 43
1.0
 44
1.0
 45
0.0
 46
0.0
 47
0.0
 48
0.0
140
35.0
141
1.0
142
0.0
143
25.4
144
1.0
145
0.0
146
1.0
147
15.0
 71
     0
 72
     0
 73
     0
 74
     0
 75
     0
 76
     0
 77
     0
 78
     0
170
     0
171
     2
172
     0
173
     0
174
     0
175
     0
176
     9
177
     9
178
    11
  0
ENDTAB
  0
ENDSEC
  0
SECTION
  2
BLOCKS
  0
BLOCK
  8
0
  2
$MODEL_SPACE
 70
     0
 10
0.0
 20
0.0
 30
0.0
  3
$MODEL_SPACE
  1

  0
ENDBLK
  5
FD
  8
0
  0
BLOCK
 67
     1
  8
0
  2
$PAPER_SPACE
 70
     0
 10
0.0
 20
0.0
 30
0.0
  3
$PAPER_SPACE
  1

  0
ENDBLK
  5
FB
 67
     1
  8
0
  0
BLOCK
  8
0
  2
*D0
 70
     1
 10
0.0
 20
0.0
 30
0.0
  3
*D0
  1

  0
LINE
  5
59
  8
0
  6
BYBLOCK
 62
     9
 10
12365.0
 20
356135.0
 30
0.0
 11
12601.832891
 21
356135.0
 31
0.0
  0
LINE
  5
5A
  8
0
  6
BYBLOCK
 62
     9
 10
12510.0
 20
356200.0
 30
0.0
 11
12601.832891
 21
356200.0
 31
0.0
  0
LINE
  5
5B
  8
0
  6
BYBLOCK
 62
     9
 10
12600.832891
 20
356115.0
 30
0.0
 11
12600.832891
 21
356095.0
 31
0.0
  0
LINE
  5
5C
  8
0
  6
BYBLOCK
 62
     9
 10
12600.832891
 20
356220.0
 30
0.0
 11
12600.832891
 21
356240.0
 31
0.0
  0
TEXT
  5
5D
  8
0
  6
BYBLOCK
 62
    11
 10
12659.332891
 20
356143.32237
 30
0.0
 40
35.0
  1
65
 50
90.0
  0
LINE
  5
5E
  8
0
  6
BYBLOCK
 62
     9
 10
12600.832891
 20
356135.0
 30
0.0
 11
12600.832891
 21
356200.0
 31
0.0
  0
SOLID
  5
5F
  8
0
  6
BYBLOCK
 62
     9
 10
12597.499557
 20
356115.0
 30
0.0
 11
12604.166224
 21
356115.0
 31
0.0
 12
12600.832891
 22
356135.0
 32
0.0
 13
12600.832891
 23
356135.0
 33
0.0
  0
SOLID
  5
60
  8
0
  6
BYBLOCK
 62
     9
 10
12597.499557
 20
356220.0
 30
0.0
 11
12604.166224
 21
356220.0
 31
0.0
 12
12600.832891
 22
356200.0
 32
0.0
 13
12600.832891
 23
356200.0
 33
0.0
  0
POINT
  5
61
  8
DEFPOINTS
  6
BYBLOCK
 62
     0
 10
12355.0
 20
356135.0
 30
0.0
  0
POINT
  5
62
  8
DEFPOINTS
  6
BYBLOCK
 62
     0
 10
12500.0
 20
356200.0
 30
0.0
  0
POINT
  5
63
  8
DEFPOINTS
  6
BYBLOCK
 62
     0
 10
12600.832891
 20
356200.0
 30
0.0
  0
ENDBLK
  5
65
  8
0
  0
BLOCK
  8
0
  2
*D1
 70
     1
 10
0.0
 20
0.0
 30
0.0
  3
*D1
  1

  0
LINE
  5
46
  8
0
  6
BYBLOCK
 62
     9
 10
11500.0
 20
356210.0
 30
0.0
 11
11500.0
 21
356297.430835
 31
0.0
  0
LINE
  5
47
  8
0
  6
BYBLOCK
 62
     9
 10
12500.0
 20
356210.0
 30
0.0
 11
12500.0
 21
356297.430835
 31
0.0
  0
LINE
  5
48
  8
0
  6
BYBLOCK
 62
     9
 10
11520.0
 20
356296.430835
 30
0.0
 11
11944.73622
 21
356296.430835
 31
0.0
  0
LINE
  5
49
  8
0
  6
BYBLOCK
 62
     9
 10
12480.0
 20
356296.430835
 30
0.0
 11
12055.26378
 21
356296.430835
 31
0.0
  0
SOLID
  5
4A
  8
0
  6
BYBLOCK
 62
     9
 10
11520.0
 20
356299.764168
 30
0.0
 11
11520.0
 21
356293.097501
 31
0.0
 12
11500.0
 22
356296.430835
 32
0.0
 13
11500.0
 23
356296.430835
 33
0.0
  0
SOLID
  5
4B
  8
0
  6
BYBLOCK
 62
     9
 10
12480.0
 20
356299.764168
 30
0.0
 11
12480.0
 21
356293.097501
 31
0.0
 12
12500.0
 22
356296.430835
 32
0.0
 13
12500.0
 23
356296.430835
 33
0.0
  0
TEXT
  5
4C
  8
0
  6
BYBLOCK
 62
    11
 10
11954.48622
 20
356278.930835
 30
0.0
 40
35.0
  1
1000
  0
POINT
  5
4D
  8
DEFPOINTS
  6
BYBLOCK
 62
     0
 10
11500.0
 20
356200.0
 30
0.0
  0
POINT
  5
4E
  8
DEFPOINTS
  6
BYBLOCK
 62
     0
 10
12500.0
 20
356200.0
 30
0.0
  0
POINT
  5
4F
  8
DEFPOINTS
  6
BYBLOCK
 62
     0
 10
12500.0
 20
356296.430835
 30
0.0
  0
ENDBLK
  5
51
  8
0
  0
BLOCK
  8
0
  2
*D2
 70
     1
 10
0.0
 20
0.0
 30
0.0
  3
*D2
  1

  0
LINE
  5
2C
  8
0
  6
BYBLOCK
 62
     9
 10
12265.0
 20
356125.0
 30
0.0
 11
12265.0
 21
356088.384189
 31
0.0
  0
LINE
  5
2D
  8
0
  6
BYBLOCK
 62
     9
 10
12355.0
 20
356125.0
 30
0.0
 11
12355.0
 21
356088.384189
 31
0.0
  0
LINE
  5
2E
  8
0
  6
BYBLOCK
 62
     9
 10
12285.0
 20
356089.384189
 30
0.0
 11
12335.0
 21
356089.384189
 31
0.0
  0
TEXT
  5
2F
  8
0
  6
BYBLOCK
 62
    11
 10
12286.088793
 20
356030.884189
 30
0.0
 40
35.0
  1
90
  0
SOLID
  5
30
  8
0
  6
BYBLOCK
 62
     9
 10
12285.0
 20
356092.717523
 30
0.0
 11
12285.0
 21
356086.050856
 31
0.0
 12
12265.0
 22
356089.384189
 32
0.0
 13
12265.0
 23
356089.384189
 33
0.0
  0
SOLID
  5
31
  8
0
  6
BYBLOCK
 62
     9
 10
12335.0
 20
356092.717523
 30
0.0
 11
12335.0
 21
356086.050856
 31
0.0
 12
12355.0
 22
356089.384189
 32
0.0
 13
12355.0
 23
356089.384189
 33
0.0
  0
POINT
  5
32
  8
DEFPOINTS
  6
BYBLOCK
 62
     0
 10
12265.0
 20
356135.0
 30
0.0
  0
POINT
  5
34
  8
DEFPOINTS
  6
BYBLOCK
 62
     0
 10
12355.0
 20
356135.0
 30
0.0
  0
POINT
  5
35
  8
DEFPOINTS
  6
BYBLOCK
 62
     0
 10
12355.0
 20
356089.384189
 30
0.0
  0
ENDBLK
  5
37
  8
0
  0
ENDSEC
  0
SECTION
  2
ENTITIES
  0
LINE
  5
20
  8
TEAM-BODY
 10
442.052844
 20
195.368755
 30
0.0
 11
407.947156
 21
149.631245
 31
0.0
  0
CIRCLE
  5
22
  8
TEAM-INSP
 10
0.0
 20
0.0
 30
0.0
 40
10.0
  0
LINE
  5
24
  8
TEAM-AXE
 10
310.0
 20
179.619397
 30
0.0
 11
310.0
 21
123.806188
 31
0.0
  0
LINE
  5
27
  8
TEAM-DET1
 10
355.0
 20
145.371564
 30
0.0
 11
355.0
 21
135.0
 31
0.0
  0
LINE
  5
29
  8
TEAM-DET1
 10
265.0
 20
146.122863
 30
0.0
 11
265.0
 21
135.0
 31
0.0
  0
DIMENSION
  5
2A
  8
TEAM-MAS
  2
*D2
 10
355.0
 20
89.384189
 30
0.0
 11
310.0
 21
48.384189
 31
0.0
 12
-12000.0
 22
-356000.0
 32
0.0
 13
265.0
 23
135.0
 33
0.0
 14
355.0
 24
135.0
 34
0.0
  0
LINE
  5
38
  8
TEAM-DET1
 10
265.0
 20
135.0
 30
0.0
 11
355.0
 21
135.0
 31
0.0
  0
ARC
  5
39
  8
TEAM-BODY
 10
399.510541
 20
155.0
 30
0.0
 40
10.0
 50
270.0
 51
327.528808
  0
LINE
  5
3A
  8
TEAM-DET1
 10
500.0
 20
175.0
 30
0.0
 11
426.864208
 21
175.0
 31
0.0
  0
LINE
  5
3B
  8
TEAM-BODY
 10
450.489459
 20
200.0
 30
0.0
 11
500.0
 21
200.0
 31
0.0
  0
ARC
  5
3C
  8
TEAM-BODY
 10
450.489459
 20
190.0
 30
0.0
 40
10.0
 50
90.0
 51
147.528808
  0
LINE
  5
3D
  8
TEAM-BODY
 10
500.0
 20
200.0
 30
0.0
 11
500.0
 21
175.0
 31
0.0
  0
LINE
  5
3E
  8
TEAM-BODY
 10
-500.0
 20
200.0
 30
0.0
 11
-449.854746
 21
200.0
 31
0.0
  0
LINE
  5
3F
  8
TEAM-DET1
 10
-500.0
 20
175.0
 30
0.0
 11
-429.341545
 21
175.0
 31
0.0
  0
LINE
  5
40
  8
TEAM-BODY
 10
-500.0
 20
200.0
 30
0.0
 11
-500.0
 21
175.0
 31
0.0
  0
ARC
  5
41
  8
TEAM-BODY
 10
-449.854746
 20
190.0
 30
0.0
 40
10.0
 50
31.953967
 51
90.0
  0
ARC
  5
42
  8
TEAM-BODY
 10
-319.662693
 20
276.188828
 30
0.0
 40
149.298021
 50
222.821952
 51
237.694908
  0
LINE
  5
43
  8
TEAM-BODY
 10
-441.37001
 20
195.292377
 30
0.0
 11
-429.168236
 21
174.707623
 31
0.0
  0
DIMENSION
  5
44
  8
TEAM-MAS
  2
*D1
 10
500.0
 20
296.430835
 30
0.0
 11
0.0
 21
296.430835
 31
0.0
 12
-12000.0
 22
-356000.0
 32
0.0
 13
-500.0
 23
200.0
 33
0.0
 14
500.0
 24
200.0
 34
0.0
1001
ACAD
1000
DSTYLE
1002
{
1070
    78
1070
     0
1070
    40
1040
1.0
1002
}
  0
LINE
  5
52
  8
TEAM-DET1
 10
-452.108709
 20
200.0
 30
0.0
 11
452.386304
 21
200.0
 31
0.0
  0
LINE
  5
53
  8
TEAM-BODY
 10
-399.451657
 20
150.0
 30
0.0
 11
399.510541
 21
145.0
 31
0.0
  0
TEXT
  5
54
  8
TEAM-TXT
 10
-386.486884
 20
214.742365
 30
0.0
 40
30.0
  1
team 141323
 41
0.8
 51
15.0
  7
TEAM
  0
DIMENSION
  5
57
  8
TEAM-MAS
  2
*D0
 10
600.832891
 20
200.0
 30
0.0
 11
641.832891
 21
167.5
 31
0.0
 12
-12000.0
 22
-356000.0
 32
0.0
 13
355.0
 23
135.0
 33
0.0
 14
500.0
 24
200.0
 34
0.0
 50
90.0
  0
ENDSEC
  0
EOF
