  0
SECTION
  2
HEADER
  9
$ACADVER
  1
AC1009
  9
$INSBASE
 10
0.0
 20
0.0
 30
0.0
  9
$EXTMIN
 10
-526.614862
 20
-563.97897
 30
-0.020403
  9
$EXTMAX
 10
563.976625
 20
515.880248
 30
0.005444
  9
$LIMMIN
 10
-526.614862
 20
-563.97897
  9
$LIMMAX
 10
563.976625
 20
515.880248
  9
$ORTHOMODE
 70
     1
  9
$REGENMODE
 70
     1
  9
$FILLMODE
 70
     1
  9
$QTEXTMODE
 70
     0
  9
$MIRRTEXT
 70
     0
  9
$DRAGMODE
 70
     2
  9
$LTSCALE
 40
50.0
  9
$OSMODE
 70
     7
  9
$ATTMODE
 70
     1
  9
$TEXTSIZE
 40
200.0
  9
$TRACEWID
 40
1.0
  9
$TEXTSTYLE
  7
STANDARD
  9
$CLAYER
  8
TEAM-MAS
  9
$CELTYPE
  6
BYLAYER
  9
$CECOLOR
 62
   256
  9
$DIMSCALE
 40
1.0
  9
$DIMASZ
 40
20.0
  9
$DIMEXO
 40
10.0
  9
$DIMDLI
 40
1.0
  9
$DIMRND
 40
0.0
  9
$DIMDLE
 40
0.0
  9
$DIMEXE
 40
1.0
  9
$DIMTP
 40
0.0
  9
$DIMTM
 40
0.0
  9
$DIMTXT
 40
35.0
  9
$DIMCEN
 40
1.0
  9
$DIMTSZ
 40
0.0
  9
$DIMTOL
 70
     0
  9
$DIMLIM
 70
     0
  9
$DIMTIH
 70
     0
  9
$DIMTOH
 70
     0
  9
$DIMSE1
 70
     0
  9
$DIMSE2
 70
     0
  9
$DIMTAD
 70
     0
  9
$DIMZIN
 70
     0
  9
$DIMBLK
  1

  9
$DIMASO
 70
     1
  9
$DIMSHO
 70
     0
  9
$DIMPOST
  1

  9
$DIMAPOST
  1

  9
$DIMALT
 70
     0
  9
$DIMALTD
 70
     2
  9
$DIMALTF
 40
25.4
  9
$DIMLFAC
 40
1.0
  9
$DIMTOFL
 70
     0
  9
$DIMTVP
 40
0.0
  9
$DIMTIX
 70
     0
  9
$DIMSOXD
 70
     0
  9
$DIMSAH
 70
     0
  9
$DIMBLK1
  1

  9
$DIMBLK2
  1

  9
$DIMSTYLE
  2
TEAM
  9
$DIMCLRD
 70
     9
  9
$DIMCLRE
 70
     9
  9
$DIMCLRT
 70
    11
  9
$DIMTFAC
 40
1.0
  9
$DIMGAP
 40
15.0
  9
$LUNITS
 70
     2
  9
$LUPREC
 70
     1
  9
$SKETCHINC
 40
1.0
  9
$FILLETRAD
 40
10.0
  9
$AUNITS
 70
     0
  9
$AUPREC
 70
     0
  9
$MENU
  1
ROPLANS
  9
$ELEVATION
 40
0.0
  9
$PELEVATION
 40
0.0
  9
$THICKNESS
 40
0.0
  9
$LIMCHECK
 70
     0
  9
$BLIPMODE
 70
     1
  9
$CHAMFERA
 40
0.0
  9
$CHAMFERB
 40
0.0
  9
$SKPOLY
 70
     0
  9
$TDCREATE
 40
2450392.957851
  9
$TDUPDATE
 40
2455878.981777
  9
$TDINDWG
 40
2.881792
  9
$TDUSRTIMER
 40
2.881792
  9
$USRTIMER
 70
     1
  9
$ANGBASE
 50
0.0
  9
$ANGDIR
 70
     0
  9
$PDMODE
 70
     0
  9
$PDSIZE
 40
0.0
  9
$PLINEWID
 40
0.0
  9
$COORDS
 70
     2
  9
$SPLFRAME
 70
     0
  9
$SPLINETYPE
 70
     6
  9
$SPLINESEGS
 70
     8
  9
$ATTDIA
 70
     0
  9
$ATTREQ
 70
     0
  9
$HANDLING
 70
     1
  9
$HANDSEED
  5
285
  9
$SURFTAB1
 70
    48
  9
$SURFTAB2
 70
    48
  9
$SURFTYPE
 70
     6
  9
$SURFU
 70
     6
  9
$SURFV
 70
     6
  9
$UCSNAME
  2

  9
$UCSORG
 10
0.0
 20
0.0
 30
0.0
  9
$UCSXDIR
 10
1.0
 20
0.0
 30
0.0
  9
$UCSYDIR
 10
0.0
 20
1.0
 30
0.0
  9
$PUCSNAME
  2

  9
$PUCSORG
 10
0.0
 20
0.0
 30
0.0
  9
$PUCSXDIR
 10
1.0
 20
0.0
 30
0.0
  9
$PUCSYDIR
 10
0.0
 20
1.0
 30
0.0
  9
$USERI1
 70
     0
  9
$USERI2
 70
     0
  9
$USERI3
 70
     0
  9
$USERI4
 70
     0
  9
$USERI5
 70
     0
  9
$USERR1
 40
0.0
  9
$USERR2
 40
0.0
  9
$USERR3
 40
0.0
  9
$USERR4
 40
0.0
  9
$USERR5
 40
0.0
  9
$WORLDVIEW
 70
     1
  9
$SHADEDGE
 70
     0
  9
$SHADEDIF
 70
    70
  9
$TILEMODE
 70
     1
  9
$MAXACTVP
 70
    16
  9
$PLIMCHECK
 70
     0
  9
$PEXTMIN
 10
-0.805942
 20
0.005011
 30
0.0
  9
$PEXTMAX
 10
20.250094
 20
11.356329
 30
0.0
  9
$PLIMMIN
 10
0.0
 20
0.0
  9
$PLIMMAX
 10
12.0
 20
9.0
  9
$UNITMODE
 70
     0
  9
$VISRETAIN
 70
     0
  9
$PLINEGEN
 70
     0
  9
$PSLTSCALE
 70
     0
  0
ENDSEC
  0
SECTION
  2
TABLES
  0
TABLE
  2
VPORT
 70
     2
  0
VPORT
  2
*ACTIVE
 70
     0
 10
0.0
 20
0.0
 11
1.0
 21
1.0
 12
18.680882
 22
-24.049361
 13
0.0
 23
0.0
 14
1.0
 24
1.0
 15
50.0
 25
50.0
 16
0.0
 26
0.0
 36
1.0
 17
0.0
 27
0.0
 37
0.0
 40
1086.629496
 41
1.903766
 42
50.0
 43
0.0
 44
0.0
 50
0.0
 51
0.0
 71
     0
 72
   100
 73
     1
 74
     1
 75
     0
 76
     0
 77
     0
 78
     0
  0
ENDTAB
  0
TABLE
  2
LTYPE
 70
     2
  0
LTYPE
  2
CONTINUOUS
 70
     0
  3
Solid Line
 72
    65
 73
     0
 40
0.0
  0
LTYPE
  2
31
 70
     0
  3

 72
    65
 73
     4
 40
2.1
 49
1.5
 49
-0.3
 49
0.0
 49
-0.3
  0
ENDTAB
  0
TABLE
  2
LAYER
 70
     8
  0
LAYER
  2
0
 70
     0
 62
     7
  6
CONTINUOUS
  0
LAYER
  2
DEFPOINTS
 70
     0
 62
     7
  6
CONTINUOUS
  0
LAYER
  2
TEAM-BODY
 70
     0
 62
     2
  6
CONTINUOUS
  0
LAYER
  2
TEAM-AXE
 70
     0
 62
    10
  6
31
  0
LAYER
  2
TEAM-MAS
 70
     0
 62
     9
  6
CONTINUOUS
  0
LAYER
  2
TEAM-TXT
 70
     0
 62
    11
  6
CONTINUOUS
  0
LAYER
  2
TEAM-DET1
 70
     0
 62
     4
  6
CONTINUOUS
  0
LAYER
  2
TEAM-INSP
 70
     0
 62
     5
  6
CONTINUOUS
  0
ENDTAB
  0
TABLE
  2
STYLE
 70
     2
  0
STYLE
  2
STANDARD
 70
     0
 40
0.0
 41
1.0
 50
0.0
 71
     0
 42
200.0
  3
txt
  4

  0
STYLE
  2
TEAM
 70
     0
 40
0.0
 41
0.8
 50
15.0
 71
     0
 42
7.0
  3
ROMANS.shx
  4

  0
ENDTAB
  0
TABLE
  2
VIEW
 70
     0
  0
ENDTAB
  0
TABLE
  2
UCS
 70
     0
  0
ENDTAB
  0
TABLE
  2
APPID
 70
     1
  0
APPID
  2
ACAD
 70
     0
  0
ENDTAB
  0
TABLE
  2
DIMSTYLE
 70
     1
  0
DIMSTYLE
  2
TEAM
 70
     0
  3

  4

  5

  6

  7

 40
1.0
 41
20.0
 42
10.0
 43
1.0
 44
1.0
 45
0.0
 46
0.0
 47
0.0
 48
0.0
140
35.0
141
1.0
142
0.0
143
25.4
144
1.0
145
0.0
146
1.0
147
15.0
 71
     0
 72
     0
 73
     0
 74
     0
 75
     0
 76
     0
 77
     0
 78
     0
170
     0
171
     2
172
     0
173
     0
174
     0
175
     0
176
     9
177
     9
178
    11
  0
ENDTAB
  0
ENDSEC
  0
SECTION
  2
BLOCKS
  0
BLOCK
  8
0
  2
$MODEL_SPACE
 70
     0
 10
0.0
 20
0.0
 30
0.0
  3
$MODEL_SPACE
  1

  0
ENDBLK
  5
25A
  8
0
  0
BLOCK
 67
     1
  8
0
  2
$PAPER_SPACE
 70
     0
 10
0.0
 20
0.0
 30
0.0
  3
$PAPER_SPACE
  1

  0
ENDBLK
  5
258
 67
     1
  8
0
  0
BLOCK
  8
0
  2
*D0
 70
     1
 10
0.0
 20
0.0
 30
0.0
  3
*D0
  1

  0
LINE
  5
5E
  8
0
  6
BYBLOCK
 62
     9
 10
3910.0
 20
3550.0
 30
0.0
 11
4513.845771
 21
3550.0
 31
0.0
  0
LINE
  5
5F
  8
0
  6
BYBLOCK
 62
     9
 10
4445.0
 20
4450.0
 30
0.0
 11
4513.845771
 21
4450.0
 31
0.0
  0
LINE
  5
60
  8
0
  6
BYBLOCK
 62
     9
 10
4512.845771
 20
3570.0
 30
0.0
 11
4512.845771
 21
3944.166667
 31
0.0
  0
LINE
  5
61
  8
0
  6
BYBLOCK
 62
     9
 10
4512.845771
 20
4430.0
 30
0.0
 11
4512.845771
 21
4055.833333
 31
0.0
  0
SOLID
  5
62
  8
0
  6
BYBLOCK
 62
     9
 10
4509.512438
 20
3570.0
 30
0.0
 11
4516.179105
 21
3570.0
 31
0.0
 12
4512.845771
 22
3550.0
 32
0.0
 13
4512.845771
 23
3550.0
 33
0.0
  0
SOLID
  5
63
  8
0
  6
BYBLOCK
 62
     9
 10
4509.512438
 20
4430.0
 30
0.0
 11
4516.179105
 21
4430.0
 31
0.0
 12
4512.845771
 22
4450.0
 32
0.0
 13
4512.845771
 23
4450.0
 33
0.0
  0
TEXT
  5
64
  8
0
  6
BYBLOCK
 62
    11
 10
4530.345771
 20
3959.166667
 30
0.0
 40
35.0
  1
900
 50
90.0
  0
POINT
  5
65
  8
DEFPOINTS
  6
BYBLOCK
 62
     0
 10
3900.0
 20
3550.0
 30
0.0
  0
POINT
  5
66
  8
DEFPOINTS
  6
BYBLOCK
 62
     0
 10
4435.0
 20
4450.0
 30
0.0
  0
POINT
  5
67
  8
DEFPOINTS
  6
BYBLOCK
 62
     0
 10
4512.845771
 20
4450.0
 30
0.0
  0
ENDBLK
  5
69
  8
0
  0
BLOCK
  8
0
  2
*D1
 70
     1
 10
0.0
 20
0.0
 30
0.0
  3
*D1
  1

  0
LINE
  5
41
  8
0
  6
BYBLOCK
 62
     9
 10
3760.0
 20
4230.0
 30
0.0
 11
3489.945715
 21
4230.0
 31
0.0
  0
LINE
  5
42
  8
0
  6
BYBLOCK
 62
     9
 10
3555.0
 20
4450.0
 30
0.0
 11
3489.945715
 21
4450.0
 31
0.0
  0
LINE
  5
43
  8
0
  6
BYBLOCK
 62
     9
 10
3490.945715
 20
4250.0
 30
0.0
 11
3490.945715
 21
4281.25
 31
0.0
  0
LINE
  5
44
  8
0
  6
BYBLOCK
 62
     9
 10
3490.945715
 20
4430.0
 30
0.0
 11
3490.945715
 21
4398.75
 31
0.0
  0
SOLID
  5
45
  8
0
  6
BYBLOCK
 62
     9
 10
3487.612381
 20
4250.0
 30
0.0
 11
3494.279048
 21
4250.0
 31
0.0
 12
3490.945715
 22
4230.0
 32
0.0
 13
3490.945715
 23
4230.0
 33
0.0
  0
SOLID
  5
46
  8
0
  6
BYBLOCK
 62
     9
 10
3487.612381
 20
4430.0
 30
0.0
 11
3494.279048
 21
4430.0
 31
0.0
 12
3490.945715
 22
4450.0
 32
0.0
 13
3490.945715
 23
4450.0
 33
0.0
  0
TEXT
  5
47
  8
0
  6
BYBLOCK
 62
    11
 10
3508.445715
 20
4296.25
 30
0.0
 40
35.0
  1
220
 50
90.0
  0
POINT
  5
48
  8
DEFPOINTS
  6
BYBLOCK
 62
     0
 10
3770.0
 20
4230.0
 30
0.0
  0
POINT
  5
49
  8
DEFPOINTS
  6
BYBLOCK
 62
     0
 10
3565.0
 20
4450.0
 30
0.0
  0
POINT
  5
4A
  8
DEFPOINTS
  6
BYBLOCK
 62
     0
 10
3490.945715
 20
4450.0
 30
0.0
  0
ENDBLK
  5
4C
  8
0
  0
BLOCK
  8
0
  2
*D2
 70
     1
 10
0.0
 20
0.0
 30
0.0
  3
*D2
  1

  0
LINE
  5
4F
  8
0
  6
BYBLOCK
 62
     9
 10
3770.0
 20
4240.0
 30
0.0
 11
3770.0
 21
4499.331087
 31
0.0
  0
LINE
  5
50
  8
0
  6
BYBLOCK
 62
     9
 10
3550.0
 20
4445.0
 30
0.0
 11
3550.0
 21
4499.331087
 31
0.0
  0
LINE
  5
51
  8
0
  6
BYBLOCK
 62
     9
 10
3750.0
 20
4498.331087
 30
0.0
 11
3718.75
 21
4498.331087
 31
0.0
  0
LINE
  5
52
  8
0
  6
BYBLOCK
 62
     9
 10
3570.0
 20
4498.331087
 30
0.0
 11
3601.25
 21
4498.331087
 31
0.0
  0
SOLID
  5
53
  8
0
  6
BYBLOCK
 62
     9
 10
3750.0
 20
4501.664421
 30
0.0
 11
3750.0
 21
4494.997754
 31
0.0
 12
3770.0
 22
4498.331087
 32
0.0
 13
3770.0
 23
4498.331087
 33
0.0
  0
SOLID
  5
54
  8
0
  6
BYBLOCK
 62
     9
 10
3570.0
 20
4501.664421
 30
0.0
 11
3570.0
 21
4494.997754
 31
0.0
 12
3550.0
 22
4498.331087
 32
0.0
 13
3550.0
 23
4498.331087
 33
0.0
  0
TEXT
  5
55
  8
0
  6
BYBLOCK
 62
    11
 10
3616.25
 20
4480.831087
 30
0.0
 40
35.0
  1
220
  0
POINT
  5
56
  8
DEFPOINTS
  6
BYBLOCK
 62
     0
 10
3770.0
 20
4230.0
 30
0.0
  0
POINT
  5
57
  8
DEFPOINTS
  6
BYBLOCK
 62
     0
 10
3550.0
 20
4435.0
 30
0.0
  0
POINT
  5
58
  8
DEFPOINTS
  6
BYBLOCK
 62
     0
 10
3550.0
 20
4498.331087
 30
0.0
  0
ENDBLK
  5
5A
  8
0
  0
BLOCK
  8
0
  2
*D3
 70
     1
 10
0.0
 20
0.0
 30
0.0
  3
*D3
  1

  0
LINE
  5
22
  8
0
  6
BYBLOCK
 62
     9
 10
3550.0
 20
3555.0
 30
0.0
 11
3550.0
 21
3491.366396
 31
0.0
  0
LINE
  5
23
  8
0
  6
BYBLOCK
 62
     9
 10
4450.0
 20
4040.0
 30
0.0
 11
4450.0
 21
3491.366396
 31
0.0
  0
LINE
  5
24
  8
0
  6
BYBLOCK
 62
     9
 10
3570.0
 20
3492.366396
 30
0.0
 11
3944.166667
 21
3492.366396
 31
0.0
  0
LINE
  5
25
  8
0
  6
BYBLOCK
 62
     9
 10
4430.0
 20
3492.366396
 30
0.0
 11
4055.833333
 21
3492.366396
 31
0.0
  0
SOLID
  5
26
  8
0
  6
BYBLOCK
 62
     9
 10
3570.0
 20
3495.699729
 30
0.0
 11
3570.0
 21
3489.033063
 31
0.0
 12
3550.0
 22
3492.366396
 32
0.0
 13
3550.0
 23
3492.366396
 33
0.0
  0
SOLID
  5
27
  8
0
  6
BYBLOCK
 62
     9
 10
4430.0
 20
3495.699729
 30
0.0
 11
4430.0
 21
3489.033063
 31
0.0
 12
4450.0
 22
3492.366396
 32
0.0
 13
4450.0
 23
3492.366396
 33
0.0
  0
TEXT
  5
28
  8
0
  6
BYBLOCK
 62
    11
 10
3959.166667
 20
3474.866396
 30
0.0
 40
35.0
  1
900
  0
POINT
  5
29
  8
DEFPOINTS
  6
BYBLOCK
 62
     0
 10
3550.0
 20
3565.0
 30
0.0
  0
POINT
  5
2B
  8
DEFPOINTS
  6
BYBLOCK
 62
     0
 10
4450.0
 20
4050.0
 30
0.0
  0
POINT
  5
2C
  8
DEFPOINTS
  6
BYBLOCK
 62
     0
 10
4450.0
 20
3492.366396
 30
0.0
  0
ENDBLK
  5
2E
  8
0
  0
ENDSEC
  0
SECTION
  2
ENTITIES
  0
DIMENSION
  5
20
  8
TEAM-MAS
  2
*D3
 10
450.0
 20
-507.633604
 30
0.0
 11
0.0
 21
-507.633604
 31
0.0
 12
-4000.0
 22
-4000.0
 32
0.0
 13
-450.0
 23
-435.0
 33
0.0
 14
450.0
 24
50.0
 34
0.0
  0
POLYLINE
  5
2F
  8
TEAM-BODY
 66
     1
 10
0.0
 20
0.0
 30
0.0
  0
VERTEX
  5
260
  8
TEAM-BODY
 10
-450.0
 20
-435.0
 30
0.0
 42
0.414214
  0
VERTEX
  5
261
  8
TEAM-BODY
 10
-435.0
 20
-450.0
 30
0.0
  0
VERTEX
  5
262
  8
TEAM-BODY
 10
-100.0
 20
-450.0
 30
0.0
 42
0.414214
  0
VERTEX
  5
263
  8
TEAM-BODY
 10
450.0
 20
100.0
 30
0.0
  0
VERTEX
  5
264
  8
TEAM-BODY
 10
450.0
 20
435.0
 30
0.0
  0
SEQEND
  5
265
  8
TEAM-BODY
  0
POLYLINE
  5
31
  8
TEAM-BODY
 66
     1
 10
0.0
 20
0.0
 30
0.0
  0
VERTEX
  5
266
  8
TEAM-BODY
 10
-390.0
 20
-340.0
 30
0.0
 42
0.414214
  0
VERTEX
  5
267
  8
TEAM-BODY
 10
-340.0
 20
-390.0
 30
0.0
  0
VERTEX
  5
268
  8
TEAM-BODY
 10
-100.0
 20
-390.0
 30
0.0
 42
0.41844
  0
VERTEX
  5
269
  8
TEAM-BODY
 10
390.0
 20
100.0
 30
0.0
  0
VERTEX
  5
26A
  8
TEAM-BODY
 10
390.0
 20
340.0
 30
0.0
  0
SEQEND
  5
26B
  8
TEAM-BODY
  0
POLYLINE
  5
32
  8
TEAM-DET1
 66
     1
 10
0.0
 20
0.0
 30
0.0
  0
VERTEX
  5
26C
  8
TEAM-DET1
 10
-370.0
 20
-340.0
 30
0.0
 42
0.414214
  0
VERTEX
  5
26D
  8
TEAM-DET1
 10
-340.0
 20
-370.0
 30
0.0
  0
VERTEX
  5
26E
  8
TEAM-DET1
 10
-100.0
 20
-370.0
 30
0.0
 42
0.41862
  0
VERTEX
  5
26F
  8
TEAM-DET1
 10
370.0
 20
100.0
 30
0.0
  0
VERTEX
  5
270
  8
TEAM-DET1
 10
370.0
 20
340.0
 30
0.0
  0
SEQEND
  5
271
  8
TEAM-DET1
  0
CIRCLE
  5
34
  8
TEAM-BODY
 10
-230.0
 20
230.0
 30
0.0
 40
45.0
  0
CIRCLE
  5
35
  8
TEAM-DET1
 10
-230.0
 20
230.0
 30
0.0
 40
55.0
  0
LINE
  5
36
  8
TEAM-AXE
 10
-285.0
 20
230.0
 30
0.0
 11
-175.0
 21
230.0
 31
0.0
  0
TEXT
  5
39
  8
TEAM-TXT
 10
-274.0577
 20
-278.278742
 30
0.0
 40
30.0
  1
team 147280
 41
0.8
 51
15.0
  7
TEAM
  0
POLYLINE
  5
3C
  8
TEAM-BODY
 66
     1
 10
0.0
 20
0.0
 30
0.0
  0
VERTEX
  5
272
  8
TEAM-BODY
 10
450.0
 20
435.0
 30
0.0
 42
0.414214
  0
VERTEX
  5
273
  8
TEAM-BODY
 10
435.0
 20
450.0
 30
0.0
  0
VERTEX
  5
274
  8
TEAM-BODY
 10
-435.0
 20
450.0
 30
0.0
 42
0.414214
  0
VERTEX
  5
275
  8
TEAM-BODY
 10
-450.0
 20
435.0
 30
0.0
  0
VERTEX
  5
276
  8
TEAM-BODY
 10
-450.0
 20
-435.0
 30
0.0
  0
SEQEND
  5
277
  8
TEAM-BODY
  0
POLYLINE
  5
3D
  8
TEAM-BODY
 66
     1
 10
0.0
 20
0.0
 30
0.0
  0
VERTEX
  5
278
  8
TEAM-BODY
 10
390.0
 20
340.0
 30
0.0
 42
0.414214
  0
VERTEX
  5
279
  8
TEAM-BODY
 10
340.0
 20
390.0
 30
0.0
  0
VERTEX
  5
27A
  8
TEAM-BODY
 10
-340.0
 20
390.0
 30
0.0
 42
0.414214
  0
VERTEX
  5
27B
  8
TEAM-BODY
 10
-390.0
 20
340.0
 30
0.0
  0
VERTEX
  5
27C
  8
TEAM-BODY
 10
-390.0
 20
-340.0
 30
0.0
  0
SEQEND
  5
27D
  8
TEAM-BODY
  0
POLYLINE
  5
3E
  8
TEAM-DET1
 66
     1
 10
0.0
 20
0.0
 30
0.0
  0
VERTEX
  5
27E
  8
TEAM-DET1
 10
370.0
 20
340.0
 30
0.0
 42
0.414214
  0
VERTEX
  5
27F
  8
TEAM-DET1
 10
340.0
 20
370.0
 30
0.0
  0
VERTEX
  5
280
  8
TEAM-DET1
 10
-340.0
 20
370.0
 30
0.0
 42
0.414214
  0
VERTEX
  5
281
  8
TEAM-DET1
 10
-370.0
 20
340.0
 30
0.0
  0
VERTEX
  5
282
  8
TEAM-DET1
 10
-370.0
 20
-340.0
 30
0.0
  0
SEQEND
  5
283
  8
TEAM-DET1
  0
DIMENSION
  5
3F
  8
TEAM-MAS
  2
*D1
 10
-509.054285
 20
450.0
 30
0.0
 11
-509.054285
 21
340.0
 31
0.0
 12
-4000.0
 22
-4000.0
 32
0.0
 13
-230.0
 23
230.0
 33
0.0
 14
-435.0
 24
450.0
 34
0.0
 50
90.0
  0
DIMENSION
  5
4D
  8
TEAM-MAS
  2
*D2
 10
-450.0
 20
498.331087
 30
0.0
 11
-340.0
 21
498.331087
 31
0.0
 12
-4000.0
 22
-4000.0
 32
0.0
 13
-230.0
 23
230.0
 33
0.0
 14
-450.0
 24
435.0
 34
0.0
  0
LINE
  5
5B
  8
TEAM-AXE
 10
-230.0
 20
285.0
 30
0.0
 11
-230.0
 21
175.0
 31
0.0
  0
DIMENSION
  5
5C
  8
TEAM-MAS
  2
*D0
 10
512.845771
 20
450.0
 30
0.0
 11
512.845771
 21
0.0
 31
0.0
 12
-4000.0
 22
-4000.0
 32
0.0
 13
-100.0
 23
-450.0
 33
0.0
 14
435.0
 24
450.0
 34
0.0
 50
90.0
  0
CIRCLE
  5
6A
  8
TEAM-INSP
 10
0.0
 20
0.0
 30
0.0
 40
10.0
  0
ENDSEC
  0
EOF
