  0
SECTION
  2
HEADER
  9
$ACADVER
  1
AC1009
  9
$INSBASE
 10
0.0
 20
0.0
 30
0.0
  9
$EXTMIN
 10
-540.103835
 20
-7.114002
 30
0.0
  9
$EXTMAX
 10
536.439595
 20
298.881139
 30
0.0
  9
$LIMMIN
 10
-540.103835
 20
-7.114002
  9
$LIMMAX
 10
536.439595
 20
298.881139
  9
$ORTHOMODE
 70
     1
  9
$REGENMODE
 70
     1
  9
$FILLMODE
 70
     1
  9
$QTEXTMODE
 70
     0
  9
$MIRRTEXT
 70
     0
  9
$DRAGMODE
 70
     2
  9
$LTSCALE
 40
50.0
  9
$OSMODE
 70
     7
  9
$ATTMODE
 70
     1
  9
$TEXTSIZE
 40
200.0
  9
$TRACEWID
 40
1.0
  9
$TEXTSTYLE
  7
STANDARD
  9
$CLAYER
  8
TEAM-MAS
  9
$CELTYPE
  6
BYLAYER
  9
$CECOLOR
 62
   256
  9
$DIMSCALE
 40
1.0
  9
$DIMASZ
 40
20.0
  9
$DIMEXO
 40
10.0
  9
$DIMDLI
 40
1.0
  9
$DIMRND
 40
0.0
  9
$DIMDLE
 40
0.0
  9
$DIMEXE
 40
1.0
  9
$DIMTP
 40
0.0
  9
$DIMTM
 40
0.0
  9
$DIMTXT
 40
35.0
  9
$DIMCEN
 40
1.0
  9
$DIMTSZ
 40
0.0
  9
$DIMTOL
 70
     0
  9
$DIMLIM
 70
     0
  9
$DIMTIH
 70
     0
  9
$DIMTOH
 70
     0
  9
$DIMSE1
 70
     0
  9
$DIMSE2
 70
     0
  9
$DIMTAD
 70
     0
  9
$DIMZIN
 70
     0
  9
$DIMBLK
  1

  9
$DIMASO
 70
     1
  9
$DIMSHO
 70
     0
  9
$DIMPOST
  1

  9
$DIMAPOST
  1

  9
$DIMALT
 70
     0
  9
$DIMALTD
 70
     2
  9
$DIMALTF
 40
25.4
  9
$DIMLFAC
 40
1.0
  9
$DIMTOFL
 70
     0
  9
$DIMTVP
 40
0.0
  9
$DIMTIX
 70
     0
  9
$DIMSOXD
 70
     0
  9
$DIMSAH
 70
     0
  9
$DIMBLK1
  1

  9
$DIMBLK2
  1

  9
$DIMSTYLE
  2
TEAM
  9
$DIMCLRD
 70
     9
  9
$DIMCLRE
 70
     9
  9
$DIMCLRT
 70
    11
  9
$DIMTFAC
 40
1.0
  9
$DIMGAP
 40
15.0
  9
$LUNITS
 70
     2
  9
$LUPREC
 70
     1
  9
$SKETCHINC
 40
1.0
  9
$FILLETRAD
 40
10.0
  9
$AUNITS
 70
     0
  9
$AUPREC
 70
     0
  9
$MENU
  1
ROPLANS
  9
$ELEVATION
 40
0.0
  9
$PELEVATION
 40
0.0
  9
$THICKNESS
 40
0.0
  9
$LIMCHECK
 70
     0
  9
$BLIPMODE
 70
     1
  9
$CHAMFERA
 40
0.0
  9
$CHAMFERB
 40
0.0
  9
$SKPOLY
 70
     0
  9
$TDCREATE
 40
2450392.957851
  9
$TDUPDATE
 40
2455878.981777
  9
$TDINDWG
 40
2.881792
  9
$TDUSRTIMER
 40
2.881792
  9
$USRTIMER
 70
     1
  9
$ANGBASE
 50
0.0
  9
$ANGDIR
 70
     0
  9
$PDMODE
 70
     0
  9
$PDSIZE
 40
0.0
  9
$PLINEWID
 40
0.0
  9
$COORDS
 70
     2
  9
$SPLFRAME
 70
     0
  9
$SPLINETYPE
 70
     6
  9
$SPLINESEGS
 70
     8
  9
$ATTDIA
 70
     0
  9
$ATTREQ
 70
     0
  9
$HANDLING
 70
     1
  9
$HANDSEED
  5
152
  9
$SURFTAB1
 70
    48
  9
$SURFTAB2
 70
    48
  9
$SURFTYPE
 70
     6
  9
$SURFU
 70
     6
  9
$SURFV
 70
     6
  9
$UCSNAME
  2

  9
$UCSORG
 10
0.0
 20
0.0
 30
0.0
  9
$UCSXDIR
 10
1.0
 20
0.0
 30
0.0
  9
$UCSYDIR
 10
0.0
 20
1.0
 30
0.0
  9
$PUCSNAME
  2

  9
$PUCSORG
 10
0.0
 20
0.0
 30
0.0
  9
$PUCSXDIR
 10
1.0
 20
0.0
 30
0.0
  9
$PUCSYDIR
 10
0.0
 20
1.0
 30
0.0
  9
$USERI1
 70
     0
  9
$USERI2
 70
     0
  9
$USERI3
 70
     0
  9
$USERI4
 70
     0
  9
$USERI5
 70
     0
  9
$USERR1
 40
0.0
  9
$USERR2
 40
0.0
  9
$USERR3
 40
0.0
  9
$USERR4
 40
0.0
  9
$USERR5
 40
0.0
  9
$WORLDVIEW
 70
     1
  9
$SHADEDGE
 70
     0
  9
$SHADEDIF
 70
    70
  9
$TILEMODE
 70
     1
  9
$MAXACTVP
 70
    16
  9
$PLIMCHECK
 70
     0
  9
$PEXTMIN
 10
-0.805942
 20
0.005011
 30
0.0
  9
$PEXTMAX
 10
20.250094
 20
11.356329
 30
0.0
  9
$PLIMMIN
 10
0.0
 20
0.0
  9
$PLIMMAX
 10
12.0
 20
9.0
  9
$UNITMODE
 70
     0
  9
$VISRETAIN
 70
     0
  9
$PLINEGEN
 70
     0
  9
$PSLTSCALE
 70
     0
  0
ENDSEC
  0
SECTION
  2
TABLES
  0
TABLE
  2
VPORT
 70
     2
  0
VPORT
  2
*ACTIVE
 70
     0
 10
0.0
 20
0.0
 11
1.0
 21
1.0
 12
-1.83212
 22
145.883568
 13
0.0
 23
0.0
 14
1.0
 24
1.0
 15
50.0
 25
50.0
 16
0.0
 26
0.0
 36
1.0
 17
0.0
 27
0.0
 37
0.0
 40
567.34333
 41
1.903766
 42
50.0
 43
0.0
 44
0.0
 50
0.0
 51
0.0
 71
     0
 72
   100
 73
     1
 74
     1
 75
     0
 76
     0
 77
     0
 78
     0
  0
ENDTAB
  0
TABLE
  2
LTYPE
 70
     2
  0
LTYPE
  2
CONTINUOUS
 70
     0
  3
Solid Line
 72
    65
 73
     0
 40
0.0
  0
LTYPE
  2
31
 70
     0
  3

 72
    65
 73
     4
 40
2.1
 49
1.5
 49
-0.3
 49
0.0
 49
-0.3
  0
ENDTAB
  0
TABLE
  2
LAYER
 70
     8
  0
LAYER
  2
0
 70
     0
 62
     7
  6
CONTINUOUS
  0
LAYER
  2
DEFPOINTS
 70
     0
 62
     7
  6
CONTINUOUS
  0
LAYER
  2
TEAM-BODY
 70
     0
 62
     2
  6
CONTINUOUS
  0
LAYER
  2
TEAM-AXE
 70
     0
 62
    10
  6
31
  0
LAYER
  2
TEAM-MAS
 70
     0
 62
     9
  6
CONTINUOUS
  0
LAYER
  2
TEAM-TXT
 70
     0
 62
    11
  6
CONTINUOUS
  0
LAYER
  2
TEAM-DET1
 70
     0
 62
     4
  6
CONTINUOUS
  0
LAYER
  2
TEAM-INSP
 70
     0
 62
     5
  6
CONTINUOUS
  0
ENDTAB
  0
TABLE
  2
STYLE
 70
     2
  0
STYLE
  2
STANDARD
 70
     0
 40
0.0
 41
1.0
 50
0.0
 71
     0
 42
200.0
  3
txt
  4

  0
STYLE
  2
TEAM
 70
     0
 40
0.0
 41
0.8
 50
15.0
 71
     0
 42
7.0
  3
ROMANS.shx
  4

  0
ENDTAB
  0
TABLE
  2
VIEW
 70
     0
  0
ENDTAB
  0
TABLE
  2
UCS
 70
     0
  0
ENDTAB
  0
TABLE
  2
APPID
 70
     1
  0
APPID
  2
ACAD
 70
     0
  0
ENDTAB
  0
TABLE
  2
DIMSTYLE
 70
     1
  0
DIMSTYLE
  2
TEAM
 70
     0
  3

  4

  5

  6

  7

 40
1.0
 41
20.0
 42
10.0
 43
1.0
 44
1.0
 45
0.0
 46
0.0
 47
0.0
 48
0.0
140
35.0
141
1.0
142
0.0
143
25.4
144
1.0
145
0.0
146
1.0
147
15.0
 71
     0
 72
     0
 73
     0
 74
     0
 75
     0
 76
     0
 77
     0
 78
     0
170
     0
171
     2
172
     0
173
     0
174
     0
175
     0
176
     9
177
     9
178
    11
  0
ENDTAB
  0
ENDSEC
  0
SECTION
  2
BLOCKS
  0
BLOCK
  8
0
  2
$MODEL_SPACE
 70
     0
 10
0.0
 20
0.0
 30
0.0
  3
$MODEL_SPACE
  1

  0
ENDBLK
  5
14B
  8
0
  0
BLOCK
 67
     1
  8
0
  2
$PAPER_SPACE
 70
     0
 10
0.0
 20
0.0
 30
0.0
  3
$PAPER_SPACE
  1

  0
ENDBLK
  5
149
 67
     1
  8
0
  0
BLOCK
  8
0
  2
*D0
 70
     1
 10
0.0
 20
0.0
 30
0.0
  3
*D0
  1

  0
LINE
  5
40
  8
0
  6
BYBLOCK
 62
     9
 10
7559.0
 20
4200.0
 30
0.0
 11
7517.445428
 21
4200.0
 31
0.0
  0
LINE
  5
41
  8
0
  6
BYBLOCK
 62
     9
 10
7710.0
 20
4175.0
 30
0.0
 11
7517.445428
 21
4175.0
 31
0.0
  0
LINE
  5
42
  8
0
  6
BYBLOCK
 62
     9
 10
7518.445428
 20
4220.0
 30
0.0
 11
7518.445428
 21
4240.0
 31
0.0
  0
LINE
  5
43
  8
0
  6
BYBLOCK
 62
     9
 10
7518.445428
 20
4155.0
 30
0.0
 11
7518.445428
 21
4135.0
 31
0.0
  0
TEXT
  5
44
  8
0
  6
BYBLOCK
 62
    11
 10
7494.945428
 20
4158.333333
 30
0.0
 40
35.0
  1
25
 50
90.0
  0
LINE
  5
45
  8
0
  6
BYBLOCK
 62
     9
 10
7518.445428
 20
4200.0
 30
0.0
 11
7518.445428
 21
4175.0
 31
0.0
  0
SOLID
  5
46
  8
0
  6
BYBLOCK
 62
     9
 10
7515.112094
 20
4220.0
 30
0.0
 11
7521.778761
 21
4220.0
 31
0.0
 12
7518.445428
 22
4200.0
 32
0.0
 13
7518.445428
 23
4200.0
 33
0.0
  0
SOLID
  5
47
  8
0
  6
BYBLOCK
 62
     9
 10
7515.112094
 20
4155.0
 30
0.0
 11
7521.778761
 21
4155.0
 31
0.0
 12
7518.445428
 22
4175.0
 32
0.0
 13
7518.445428
 23
4175.0
 33
0.0
  0
POINT
  5
48
  8
DEFPOINTS
  6
BYBLOCK
 62
     0
 10
7569.0
 20
4200.0
 30
0.0
  0
POINT
  5
49
  8
DEFPOINTS
  6
BYBLOCK
 62
     0
 10
7720.0
 20
4175.0
 30
0.0
  0
POINT
  5
4A
  8
DEFPOINTS
  6
BYBLOCK
 62
     0
 10
7518.445428
 20
4175.0
 30
0.0
  0
ENDBLK
  5
4C
  8
0
  0
BLOCK
  8
0
  2
*D1
 70
     1
 10
0.0
 20
0.0
 30
0.0
  3
*D1
  1

  0
LINE
  5
32
  8
0
  6
BYBLOCK
 62
     9
 10
7815.0
 20
4155.0
 30
0.0
 11
7815.0
 21
4118.636744
 31
0.0
  0
LINE
  5
33
  8
0
  6
BYBLOCK
 62
     9
 10
7725.0
 20
4155.0
 30
0.0
 11
7725.0
 21
4118.636744
 31
0.0
  0
LINE
  5
34
  8
0
  6
BYBLOCK
 62
     9
 10
7835.0
 20
4119.636744
 30
0.0
 11
7855.0
 21
4119.636744
 31
0.0
  0
LINE
  5
35
  8
0
  6
BYBLOCK
 62
     9
 10
7705.0
 20
4119.636744
 30
0.0
 11
7685.0
 21
4119.636744
 31
0.0
  0
SOLID
  5
36
  8
0
  6
BYBLOCK
 62
     9
 10
7835.0
 20
4122.970078
 30
0.0
 11
7835.0
 21
4116.303411
 31
0.0
 12
7815.0
 22
4119.636744
 32
0.0
 13
7815.0
 23
4119.636744
 33
0.0
  0
SOLID
  5
37
  8
0
  6
BYBLOCK
 62
     9
 10
7705.0
 20
4122.970078
 30
0.0
 11
7705.0
 21
4116.303411
 31
0.0
 12
7725.0
 22
4119.636744
 32
0.0
 13
7725.0
 23
4119.636744
 33
0.0
  0
TEXT
  5
38
  8
0
  6
BYBLOCK
 62
    11
 10
7743.75
 20
4102.136744
 30
0.0
 40
35.0
  1
90
  0
POINT
  5
39
  8
DEFPOINTS
  6
BYBLOCK
 62
     0
 10
7815.0
 20
4165.0
 30
0.0
  0
POINT
  5
3A
  8
DEFPOINTS
  6
BYBLOCK
 62
     0
 10
7725.0
 20
4165.0
 30
0.0
  0
POINT
  5
3B
  8
DEFPOINTS
  6
BYBLOCK
 62
     0
 10
7725.0
 20
4119.636744
 30
0.0
  0
ENDBLK
  5
3D
  8
0
  0
BLOCK
  8
0
  2
*D2
 70
     1
 10
0.0
 20
0.0
 30
0.0
  3
*D2
  1

  0
LINE
  5
22
  8
0
  6
BYBLOCK
 62
     9
 10
8452.0
 20
4200.0
 30
0.0
 11
8478.890312
 21
4200.0
 31
0.0
  0
LINE
  5
23
  8
0
  6
BYBLOCK
 62
     9
 10
8452.0
 20
4170.0
 30
0.0
 11
8478.890312
 21
4170.0
 31
0.0
  0
LINE
  5
24
  8
0
  6
BYBLOCK
 62
     9
 10
8477.890312
 20
4220.0
 30
0.0
 11
8477.890312
 21
4240.0
 31
0.0
  0
LINE
  5
25
  8
0
  6
BYBLOCK
 62
     9
 10
8477.890312
 20
4150.0
 30
0.0
 11
8477.890312
 21
4130.0
 31
0.0
  0
TEXT
  5
26
  8
0
  6
BYBLOCK
 62
    11
 10
8536.390312
 20
4158.75
 30
0.0
 40
35.0
  1
30
 50
90.0
  0
LINE
  5
27
  8
0
  6
BYBLOCK
 62
     9
 10
8477.890312
 20
4200.0
 30
0.0
 11
8477.890312
 21
4170.0
 31
0.0
  0
SOLID
  5
28
  8
0
  6
BYBLOCK
 62
     9
 10
8474.556979
 20
4220.0
 30
0.0
 11
8481.223645
 21
4220.0
 31
0.0
 12
8477.890312
 22
4200.0
 32
0.0
 13
8477.890312
 23
4200.0
 33
0.0
  0
SOLID
  5
29
  8
0
  6
BYBLOCK
 62
     9
 10
8474.556979
 20
4150.0
 30
0.0
 11
8481.223645
 21
4150.0
 31
0.0
 12
8477.890312
 22
4170.0
 32
0.0
 13
8477.890312
 23
4170.0
 33
0.0
  0
POINT
  5
2A
  8
DEFPOINTS
  6
BYBLOCK
 62
     0
 10
8442.0
 20
4200.0
 30
0.0
  0
POINT
  5
2C
  8
DEFPOINTS
  6
BYBLOCK
 62
     0
 10
8442.0
 20
4170.0
 30
0.0
  0
POINT
  5
2D
  8
DEFPOINTS
  6
BYBLOCK
 62
     0
 10
8477.890312
 20
4170.0
 30
0.0
  0
ENDBLK
  5
2F
  8
0
  0
BLOCK
  8
0
  2
*D3
 70
     1
 10
0.0
 20
0.0
 30
0.0
  3
*D3
  1

  0
LINE
  5
4F
  8
0
  6
BYBLOCK
 62
     9
 10
7550.0
 20
4205.0
 30
0.0
 11
7550.0
 21
4282.367131
 31
0.0
  0
LINE
  5
50
  8
0
  6
BYBLOCK
 62
     9
 10
8450.0
 20
4205.0
 30
0.0
 11
8450.0
 21
4282.367131
 31
0.0
  0
LINE
  5
51
  8
0
  6
BYBLOCK
 62
     9
 10
7570.0
 20
4281.367131
 30
0.0
 11
7944.166667
 21
4281.367131
 31
0.0
  0
LINE
  5
52
  8
0
  6
BYBLOCK
 62
     9
 10
8430.0
 20
4281.367131
 30
0.0
 11
8055.833333
 21
4281.367131
 31
0.0
  0
SOLID
  5
53
  8
0
  6
BYBLOCK
 62
     9
 10
7570.0
 20
4284.700464
 30
0.0
 11
7570.0
 21
4278.033797
 31
0.0
 12
7550.0
 22
4281.367131
 32
0.0
 13
7550.0
 23
4281.367131
 33
0.0
  0
SOLID
  5
54
  8
0
  6
BYBLOCK
 62
     9
 10
8430.0
 20
4284.700464
 30
0.0
 11
8430.0
 21
4278.033797
 31
0.0
 12
8450.0
 22
4281.367131
 32
0.0
 13
8450.0
 23
4281.367131
 33
0.0
  0
TEXT
  5
55
  8
0
  6
BYBLOCK
 62
    11
 10
7959.166667
 20
4263.867131
 30
0.0
 40
35.0
  1
900
  0
POINT
  5
56
  8
DEFPOINTS
  6
BYBLOCK
 62
     0
 10
7550.0
 20
4195.0
 30
0.0
  0
POINT
  5
57
  8
DEFPOINTS
  6
BYBLOCK
 62
     0
 10
8450.0
 20
4195.0
 30
0.0
  0
POINT
  5
58
  8
DEFPOINTS
  6
BYBLOCK
 62
     0
 10
8450.0
 20
4281.367131
 30
0.0
  0
ENDBLK
  5
5A
  8
0
  0
ENDSEC
  0
SECTION
  2
ENTITIES
  0
DIMENSION
  5
20
  8
TEAM-MAS
  2
*D2
 10
477.890312
 20
170.0
 30
0.0
 11
518.890312
 21
185.0
 31
0.0
 12
-8000.0
 22
-4000.0
 32
0.0
 13
442.0
 23
200.0
 33
0.0
 14
442.0
 24
170.0
 34
0.0
 50
90.0
1001
ACAD
1000
DSTYLE
1002
{
1070
    40
1040
1.0
1002
}
  0
DIMENSION
  5
30
  8
TEAM-MAS
  2
*D1
 10
-275.0
 20
119.636744
 30
0.0
 11
-230.0
 21
119.636744
 31
0.0
 12
-8000.0
 22
-4000.0
 32
0.0
 13
-185.0
 23
165.0
 33
0.0
 14
-275.0
 24
165.0
 34
0.0
  0
DIMENSION
  5
3E
  8
TEAM-MAS
  2
*D0
 10
-481.554572
 20
175.0
 30
0.0
 11
-522.554572
 21
187.5
 31
0.0
 12
-8000.0
 22
-4000.0
 32
0.0
 13
-431.0
 23
200.0
 33
0.0
 14
-280.0
 24
175.0
 34
0.0
 50
270.0
  0
DIMENSION
  5
4D
  8
TEAM-MAS
  2
*D3
 10
450.0
 20
281.367131
 30
0.0
 11
0.0
 21
281.367131
 31
0.0
 12
-8000.0
 22
-4000.0
 32
0.0
 13
-450.0
 23
195.0
 33
0.0
 14
450.0
 24
195.0
 34
0.0
1001
ACAD
1000
DSTYLE
1002
{
1070
    40
1040
1.0
1002
}
  0
CIRCLE
  5
5B
  8
TEAM-INSP
 10
0.0
 20
0.0
 30
0.0
 40
7.1
  0
ARC
  5
5D
  8
TEAM-BODY
 10
445.0
 20
195.0
 30
0.0
 40
5.0
 50
0.0
 51
90.0
  0
LINE
  5
5F
  8
TEAM-BODY
 10
450.0
 20
175.0
 30
0.0
 11
450.0
 21
195.0
 31
0.0
  0
ARC
  5
60
  8
TEAM-BODY
 10
445.0
 20
175.0
 30
0.0
 40
5.0
 50
270.0
 51
0.0
  0
ARC
  5
61
  8
TEAM-BODY
 10
373.31652
 20
189.98739
 30
0.0
 40
5.0
 50
270.434051
 51
306.869898
  0
LINE
  5
62
  8
TEAM-BODY
 10
376.31652
 20
185.98739
 30
0.0
 11
393.666667
 21
199.0
 31
0.0
  0
LINE
  5
63
  8
TEAM-BODY
 10
445.0
 20
200.0
 30
0.0
 11
396.666667
 21
200.0
 31
0.0
  0
ARC
  5
64
  8
TEAM-BODY
 10
396.666667
 20
195.0
 30
0.0
 40
5.0
 50
90.0
 51
126.869898
  0
LINE
  5
65
  8
TEAM-DET1
 10
396.666667
 20
200.0
 30
0.0
 11
-413.224002
 21
200.0
 31
0.0
  0
ARC
  5
67
  8
TEAM-BODY
 10
-396.666667
 20
195.0
 30
0.0
 40
5.0
 50
53.130102
 51
90.0
  0
LINE
  5
68
  8
TEAM-BODY
 10
-445.0
 20
200.0
 30
0.0
 11
-396.666667
 21
200.0
 31
0.0
  0
ARC
  5
69
  8
TEAM-BODY
 10
-445.0
 20
175.0
 30
0.0
 40
5.0
 50
180.0
 51
270.0
  0
LINE
  5
6A
  8
TEAM-BODY
 10
-450.0
 20
175.0
 30
0.0
 11
-450.0
 21
195.0
 31
0.0
  0
ARC
  5
6B
  8
TEAM-BODY
 10
-445.0
 20
195.0
 30
0.0
 40
5.0
 50
90.0
 51
180.0
  0
LINE
  5
6C
  8
TEAM-DET1
 10
-185.0
 20
165.0
 30
0.0
 11
-275.0
 21
165.0
 31
0.0
  0
LINE
  5
6D
  8
TEAM-AXE
 10
-230.0
 20
194.619397
 30
0.0
 11
-230.0
 21
153.806188
 31
0.0
  0
LINE
  5
70
  8
TEAM-BODY
 10
-368.948439
 20
180.461329
 30
0.0
 11
-393.666667
 21
199.0
 31
0.0
  0
ARC
  5
71
  8
TEAM-BODY
 10
-365.948439
 20
184.461329
 30
0.0
 40
5.0
 50
233.130102
 51
264.37272
  0
ARC
  5
72
  8
TEAM-BODY
 10
-280.160028
 20
1007.040017
 30
0.0
 40
832.040032
 50
264.047994
 51
270.01102
  0
LINE
  5
73
  8
TEAM-DET1
 10
-280.0
 20
175.0
 30
0.0
 11
-275.0
 21
165.0
 31
0.0
  0
LINE
  5
74
  8
TEAM-BODY
 10
-180.0
 20
175.0
 30
0.0
 11
-280.0
 21
175.0
 31
0.0
  0
LINE
  5
75
  8
TEAM-DET1
 10
-180.0
 20
175.0
 30
0.0
 11
-185.0
 21
165.0
 31
0.0
  0
LINE
  5
76
  8
TEAM-BODY
 10
373.354397
 20
184.987533
 30
0.0
 11
-180.0
 21
175.0
 31
0.0
  0
LINE
  5
77
  8
TEAM-DET1
 10
445.0
 20
170.0
 30
0.0
 11
0.0
 21
170.0
 31
0.0
  0
LINE
  5
78
  8
TEAM-DET1
 10
-445.0
 20
170.0
 30
0.0
 11
-277.5
 21
170.0
 31
0.0
  0
LINE
  5
79
  8
TEAM-DET1
 10
-182.5
 20
170.0
 30
0.0
 11
0.0
 21
170.0
 31
0.0
  0
TEXT
  5
7A
  8
TEAM-TXT
 10
112.308872
 20
216.657656
 30
0.0
 40
30.0
  1
team 147280
 41
0.8
 51
15.0
  7
TEAM
  0
ENDSEC
  0
EOF
