  0
SECTION
  2
HEADER
  9
$ACADVER
  1
AC1009
  9
$INSBASE
 10
0.0
 20
0.0
 30
0.0
  9
$EXTMIN
 10
-165.027975
 20
-392.864639
 30
0.0
  9
$EXTMAX
 10
294.113616
 20
10.024546
 30
0.0
  9
$LIMMIN
 10
-165.027975
 20
-392.864639
  9
$LIMMAX
 10
294.113616
 20
10.024546
  9
$ORTHOMODE
 70
     1
  9
$REGENMODE
 70
     1
  9
$FILLMODE
 70
     1
  9
$QTEXTMODE
 70
     0
  9
$MIRRTEXT
 70
     0
  9
$DRAGMODE
 70
     2
  9
$LTSCALE
 40
25.0
  9
$OSMODE
 70
     0
  9
$ATTMODE
 70
     1
  9
$TEXTSIZE
 40
200.0
  9
$TRACEWID
 40
1.0
  9
$TEXTSTYLE
  7
STANDARD
  9
$CLAYER
  8
TEAM-MAS
  9
$CELTYPE
  6
BYLAYER
  9
$CECOLOR
 62
   256
  9
$DIMSCALE
 40
0.0
  9
$DIMASZ
 40
20.0
  9
$DIMEXO
 40
10.0
  9
$DIMDLI
 40
1.0
  9
$DIMRND
 40
0.0
  9
$DIMDLE
 40
0.0
  9
$DIMEXE
 40
1.0
  9
$DIMTP
 40
0.0
  9
$DIMTM
 40
0.0
  9
$DIMTXT
 40
35.0
  9
$DIMCEN
 40
1.0
  9
$DIMTSZ
 40
0.0
  9
$DIMTOL
 70
     0
  9
$DIMLIM
 70
     0
  9
$DIMTIH
 70
     0
  9
$DIMTOH
 70
     0
  9
$DIMSE1
 70
     0
  9
$DIMSE2
 70
     0
  9
$DIMTAD
 70
     0
  9
$DIMZIN
 70
     0
  9
$DIMBLK
  1

  9
$DIMASO
 70
     1
  9
$DIMSHO
 70
     0
  9
$DIMPOST
  1

  9
$DIMAPOST
  1

  9
$DIMALT
 70
     0
  9
$DIMALTD
 70
     2
  9
$DIMALTF
 40
25.4
  9
$DIMLFAC
 40
1.0
  9
$DIMTOFL
 70
     0
  9
$DIMTVP
 40
0.0
  9
$DIMTIX
 70
     0
  9
$DIMSOXD
 70
     0
  9
$DIMSAH
 70
     0
  9
$DIMBLK1
  1

  9
$DIMBLK2
  1

  9
$DIMSTYLE
  2
TEAM
  9
$DIMCLRD
 70
     9
  9
$DIMCLRE
 70
     9
  9
$DIMCLRT
 70
    11
  9
$DIMTFAC
 40
1.0
  9
$DIMGAP
 40
15.0
  9
$LUNITS
 70
     2
  9
$LUPREC
 70
     1
  9
$SKETCHINC
 40
1.0
  9
$FILLETRAD
 40
50.0
  9
$AUNITS
 70
     0
  9
$AUPREC
 70
     0
  9
$MENU
  1
ROPLANS
  9
$ELEVATION
 40
0.0
  9
$PELEVATION
 40
0.0
  9
$THICKNESS
 40
0.0
  9
$LIMCHECK
 70
     0
  9
$BLIPMODE
 70
     1
  9
$CHAMFERA
 40
0.0
  9
$CHAMFERB
 40
0.0
  9
$SKPOLY
 70
     0
  9
$TDCREATE
 40
2450392.957851
  9
$TDUPDATE
 40
2455498.624065
  9
$TDINDWG
 40
1.987034
  9
$TDUSRTIMER
 40
1.987034
  9
$USRTIMER
 70
     1
  9
$ANGBASE
 50
0.0
  9
$ANGDIR
 70
     0
  9
$PDMODE
 70
     0
  9
$PDSIZE
 40
0.0
  9
$PLINEWID
 40
0.0
  9
$COORDS
 70
     2
  9
$SPLFRAME
 70
     0
  9
$SPLINETYPE
 70
     6
  9
$SPLINESEGS
 70
     8
  9
$ATTDIA
 70
     0
  9
$ATTREQ
 70
     0
  9
$HANDLING
 70
     1
  9
$HANDSEED
  5
189
  9
$SURFTAB1
 70
    24
  9
$SURFTAB2
 70
    24
  9
$SURFTYPE
 70
     6
  9
$SURFU
 70
     6
  9
$SURFV
 70
     6
  9
$UCSNAME
  2

  9
$UCSORG
 10
0.0
 20
0.0
 30
0.0
  9
$UCSXDIR
 10
1.0
 20
0.0
 30
0.0
  9
$UCSYDIR
 10
0.0
 20
1.0
 30
0.0
  9
$PUCSNAME
  2

  9
$PUCSORG
 10
0.0
 20
0.0
 30
0.0
  9
$PUCSXDIR
 10
1.0
 20
0.0
 30
0.0
  9
$PUCSYDIR
 10
0.0
 20
1.0
 30
0.0
  9
$USERI1
 70
     0
  9
$USERI2
 70
     0
  9
$USERI3
 70
     0
  9
$USERI4
 70
     0
  9
$USERI5
 70
     0
  9
$USERR1
 40
0.0
  9
$USERR2
 40
0.0
  9
$USERR3
 40
0.0
  9
$USERR4
 40
0.0
  9
$USERR5
 40
0.0
  9
$WORLDVIEW
 70
     1
  9
$SHADEDGE
 70
     0
  9
$SHADEDIF
 70
    70
  9
$TILEMODE
 70
     1
  9
$MAXACTVP
 70
    16
  9
$PLIMCHECK
 70
     0
  9
$PEXTMIN
 10
-0.805942
 20
0.005011
 30
0.0
  9
$PEXTMAX
 10
20.250094
 20
11.356329
 30
0.0
  9
$PLIMMIN
 10
0.0
 20
0.0
  9
$PLIMMAX
 10
12.0
 20
9.0
  9
$UNITMODE
 70
     0
  9
$VISRETAIN
 70
     0
  9
$PLINEGEN
 70
     0
  9
$PSLTSCALE
 70
     0
  0
ENDSEC
  0
SECTION
  2
TABLES
  0
TABLE
  2
VPORT
 70
     2
  0
VPORT
  2
*ACTIVE
 70
     0
 10
0.0
 20
0.0
 11
1.0
 21
1.0
 12
64.54282
 22
-191.420047
 13
0.0
 23
0.0
 14
1.0
 24
1.0
 15
50.0
 25
50.0
 16
0.0
 26
0.0
 36
1.0
 17
0.0
 27
0.0
 37
0.0
 40
405.363428
 41
1.865779
 42
50.0
 43
0.0
 44
0.0
 50
0.0
 51
0.0
 71
     0
 72
   100
 73
     1
 74
     1
 75
     0
 76
     0
 77
     0
 78
     0
  0
ENDTAB
  0
TABLE
  2
LTYPE
 70
     2
  0
LTYPE
  2
CONTINUOUS
 70
     0
  3
Solid Line
 72
    65
 73
     0
 40
0.0
  0
LTYPE
  2
31
 70
     0
  3

 72
    65
 73
     4
 40
2.1
 49
1.5
 49
-0.3
 49
0.0
 49
-0.3
  0
ENDTAB
  0
TABLE
  2
LAYER
 70
     8
  0
LAYER
  2
0
 70
     0
 62
     7
  6
CONTINUOUS
  0
LAYER
  2
DEFPOINTS
 70
     0
 62
     7
  6
CONTINUOUS
  0
LAYER
  2
TEAM-BODY
 70
     0
 62
     2
  6
CONTINUOUS
  0
LAYER
  2
TEAM-AXE
 70
     0
 62
    10
  6
31
  0
LAYER
  2
TEAM-MAS
 70
     0
 62
     9
  6
CONTINUOUS
  0
LAYER
  2
TEAM-TXT
 70
     0
 62
    11
  6
CONTINUOUS
  0
LAYER
  2
TEAM-DET1
 70
     0
 62
     4
  6
CONTINUOUS
  0
LAYER
  2
TEAM-INSP
 70
     0
 62
     5
  6
CONTINUOUS
  0
ENDTAB
  0
TABLE
  2
STYLE
 70
     2
  0
STYLE
  2
STANDARD
 70
     0
 40
0.0
 41
1.0
 50
0.0
 71
     0
 42
200.0
  3
txt
  4

  0
STYLE
  2
TEAM
 70
     0
 40
0.0
 41
0.8
 50
15.0
 71
     0
 42
7.0
  3
ROMANS.shx
  4

  0
ENDTAB
  0
TABLE
  2
VIEW
 70
     0
  0
ENDTAB
  0
TABLE
  2
UCS
 70
     0
  0
ENDTAB
  0
TABLE
  2
APPID
 70
     1
  0
APPID
  2
ACAD
 70
     0
  0
ENDTAB
  0
TABLE
  2
DIMSTYLE
 70
     1
  0
DIMSTYLE
  2
TEAM
 70
     0
  3

  4

  5

  6

  7

 40
0.0
 41
20.0
 42
10.0
 43
1.0
 44
1.0
 45
0.0
 46
0.0
 47
0.0
 48
0.0
140
35.0
141
1.0
142
0.0
143
25.4
144
1.0
145
0.0
146
1.0
147
15.0
 71
     0
 72
     0
 73
     0
 74
     0
 75
     0
 76
     0
 77
     0
 78
     0
170
     0
171
     2
172
     0
173
     0
174
     0
175
     0
176
     9
177
     9
178
    11
  0
ENDTAB
  0
ENDSEC
  0
SECTION
  2
BLOCKS
  0
BLOCK
  8
0
  2
$MODEL_SPACE
 70
     0
 10
0.0
 20
0.0
 30
0.0
  3
$MODEL_SPACE
  1

  0
ENDBLK
  5
15B
  8
0
  0
BLOCK
 67
     1
  8
0
  2
$PAPER_SPACE
 70
     0
 10
0.0
 20
0.0
 30
0.0
  3
$PAPER_SPACE
  1

  0
ENDBLK
  5
159
 67
     1
  8
0
  0
BLOCK
  8
0
  2
*D0
 70
     1
 10
0.0
 20
0.0
 30
0.0
  3
*D0
  1

  0
LINE
  5
31
  8
0
  6
BYBLOCK
 62
     9
 10
4010.0
 20
144000.0
 30
0.0
 11
4277.890291
 21
144000.0
 31
0.0
  0
LINE
  5
32
  8
0
  6
BYBLOCK
 62
     9
 10
4010.0
 20
143670.0
 30
0.0
 11
4277.890291
 21
143670.0
 31
0.0
  0
LINE
  5
33
  8
0
  6
BYBLOCK
 62
     9
 10
4276.890291
 20
143980.0
 30
0.0
 11
4276.890291
 21
143881.51378
 31
0.0
  0
LINE
  5
34
  8
0
  6
BYBLOCK
 62
     9
 10
4276.890291
 20
143690.0
 30
0.0
 11
4276.890291
 21
143788.48622
 31
0.0
  0
SOLID
  5
35
  8
0
  6
BYBLOCK
 62
     9
 10
4273.556958
 20
143980.0
 30
0.0
 11
4280.223625
 21
143980.0
 31
0.0
 12
4276.890291
 22
144000.0
 32
0.0
 13
4276.890291
 23
144000.0
 33
0.0
  0
SOLID
  5
36
  8
0
  6
BYBLOCK
 62
     9
 10
4273.556958
 20
143690.0
 30
0.0
 11
4280.223625
 21
143690.0
 31
0.0
 12
4276.890291
 22
143670.0
 32
0.0
 13
4276.890291
 23
143670.0
 33
0.0
  0
TEXT
  5
37
  8
0
  6
BYBLOCK
 62
    11
 10
4294.390291
 20
143798.23622
 30
0.0
 40
35.0
  1
330
 50
90.0
  0
POINT
  5
38
  8
DEFPOINTS
  6
BYBLOCK
 62
     0
 10
4000.0
 20
144000.0
 30
0.0
  0
POINT
  5
39
  8
DEFPOINTS
  6
BYBLOCK
 62
     0
 10
4000.0
 20
143670.0
 30
0.0
  0
POINT
  5
3A
  8
DEFPOINTS
  6
BYBLOCK
 62
     0
 10
4276.890291
 20
143670.0
 30
0.0
  0
ENDBLK
  5
3C
  8
0
  0
BLOCK
  8
0
  2
*D1
 70
     1
 10
0.0
 20
0.0
 30
0.0
  3
*D1
  1

  0
LINE
  5
22
  8
0
  6
BYBLOCK
 62
     9
 10
4050.0
 20
143835.0
 30
0.0
 11
4228.167116
 21
143835.0
 31
0.0
  0
LINE
  5
23
  8
0
  6
BYBLOCK
 62
     9
 10
4010.0
 20
144000.0
 30
0.0
 11
4228.167116
 21
144000.0
 31
0.0
  0
LINE
  5
24
  8
0
  6
BYBLOCK
 62
     9
 10
4227.167116
 20
143855.0
 30
0.0
 11
4227.167116
 21
143873.775126
 31
0.0
  0
LINE
  5
25
  8
0
  6
BYBLOCK
 62
     9
 10
4227.167116
 20
143980.0
 30
0.0
 11
4227.167116
 21
143961.224874
 31
0.0
  0
SOLID
  5
26
  8
0
  6
BYBLOCK
 62
     9
 10
4223.833782
 20
143855.0
 30
0.0
 11
4230.500449
 21
143855.0
 31
0.0
 12
4227.167116
 22
143835.0
 32
0.0
 13
4227.167116
 23
143835.0
 33
0.0
  0
SOLID
  5
27
  8
0
  6
BYBLOCK
 62
     9
 10
4223.833782
 20
143980.0
 30
0.0
 11
4230.500449
 21
143980.0
 31
0.0
 12
4227.167116
 22
144000.0
 32
0.0
 13
4227.167116
 23
144000.0
 33
0.0
  0
TEXT
  5
28
  8
0
  6
BYBLOCK
 62
    11
 10
4244.667116
 20
143883.525126
 30
0.0
 40
35.0
  1
165
 50
90.0
  0
POINT
  5
29
  8
DEFPOINTS
  6
BYBLOCK
 62
     0
 10
4040.0
 20
143835.0
 30
0.0
  0
POINT
  5
2B
  8
DEFPOINTS
  6
BYBLOCK
 62
     0
 10
4000.0
 20
144000.0
 30
0.0
  0
POINT
  5
2C
  8
DEFPOINTS
  6
BYBLOCK
 62
     0
 10
4227.167116
 20
144000.0
 30
0.0
  0
ENDBLK
  5
2E
  8
0
  0
BLOCK
  8
0
  2
*D2
 70
     1
 10
0.0
 20
0.0
 30
0.0
  3
*D2
  1

  0
LINE
  5
4F
  8
0
  6
BYBLOCK
 62
     9
 10
3835.0
 20
143825.0
 30
0.0
 11
3835.0
 21
143623.363032
 31
0.0
  0
LINE
  5
50
  8
0
  6
BYBLOCK
 62
     9
 10
4165.0
 20
143825.0
 30
0.0
 11
4165.0
 21
143623.363032
 31
0.0
  0
LINE
  5
51
  8
0
  6
BYBLOCK
 62
     9
 10
3855.0
 20
143624.363032
 30
0.0
 11
3953.48622
 21
143624.363032
 31
0.0
  0
LINE
  5
52
  8
0
  6
BYBLOCK
 62
     9
 10
4145.0
 20
143624.363032
 30
0.0
 11
4046.51378
 21
143624.363032
 31
0.0
  0
SOLID
  5
53
  8
0
  6
BYBLOCK
 62
     9
 10
3855.0
 20
143627.696365
 30
0.0
 11
3855.0
 21
143621.029698
 31
0.0
 12
3835.0
 22
143624.363032
 32
0.0
 13
3835.0
 23
143624.363032
 33
0.0
  0
SOLID
  5
54
  8
0
  6
BYBLOCK
 62
     9
 10
4145.0
 20
143627.696365
 30
0.0
 11
4145.0
 21
143621.029698
 31
0.0
 12
4165.0
 22
143624.363032
 32
0.0
 13
4165.0
 23
143624.363032
 33
0.0
  0
TEXT
  5
55
  8
0
  6
BYBLOCK
 62
    11
 10
3963.23622
 20
143606.863032
 30
0.0
 40
35.0
  1
330
  0
POINT
  5
56
  8
DEFPOINTS
  6
BYBLOCK
 62
     0
 10
3835.0
 20
143835.0
 30
0.0
  0
POINT
  5
57
  8
DEFPOINTS
  6
BYBLOCK
 62
     0
 10
4165.0
 20
143835.0
 30
0.0
  0
POINT
  5
58
  8
DEFPOINTS
  6
BYBLOCK
 62
     0
 10
4165.0
 20
143624.363032
 30
0.0
  0
ENDBLK
  5
5A
  8
0
  0
ENDSEC
  0
SECTION
  2
ENTITIES
  0
DIMENSION
  5
20
  8
TEAM-MAS
  2
*D1
 10
227.167116
 20
0.0
 30
0.0
 11
227.167116
 21
-82.5
 31
0.0
 12
-4000.0
 22
-144000.0
 32
0.0
 13
40.0
 23
-165.0
 33
0.0
 14
0.0
 24
0.0
 34
0.0
 50
90.0
1001
ACAD
1000
DSTYLE
1002
{
1070
    40
1040
1.0
1002
}
  0
DIMENSION
  5
2F
  8
TEAM-MAS
  2
*D0
 10
276.890291
 20
-330.0
 30
0.0
 11
276.890291
 21
-165.0
 31
0.0
 12
-4000.0
 22
-144000.0
 32
0.0
 13
0.0
 23
0.0
 33
0.0
 14
0.0
 24
-330.0
 34
0.0
 50
90.0
  0
TEXT
  5
3D
  8
TEAM-TXT
 10
-86.194706
 20
-117.569672
 30
0.0
 40
24.999999
  1
team 211117
 41
0.8
 51
15.0
  7
TEAM
  0
POLYLINE
  5
40
  8
TEAM-DET1
 66
     1
 10
0.0
 20
0.0
 30
0.0
 70
     1
  0
VERTEX
  5
161
  8
TEAM-DET1
 10
14.09578
 20
-32.193847
 30
0.0
  0
VERTEX
  5
162
  8
TEAM-DET1
 10
13.905442
 20
-31.106933
 30
0.0
  0
VERTEX
  5
163
  8
TEAM-DET1
 10
13.340699
 20
-30.052551
 30
0.0
  0
VERTEX
  5
164
  8
TEAM-DET1
 10
12.417817
 20
-29.063293
 30
0.0
  0
VERTEX
  5
165
  8
TEAM-DET1
 10
11.165604
 20
-28.16925
 30
0.0
  0
VERTEX
  5
166
  8
TEAM-DET1
 10
9.622879
 20
-27.397888
 30
0.0
  0
VERTEX
  5
167
  8
TEAM-DET1
 10
7.834717
 20
-26.771789
 30
0.0
  0
VERTEX
  5
168
  8
TEAM-DET1
 10
5.856232
 20
-26.310363
 30
0.0
  0
VERTEX
  5
169
  8
TEAM-DET1
 10
3.747513
 20
-26.027954
 30
0.0
  0
VERTEX
  5
16A
  8
TEAM-DET1
 10
1.57367
 20
-25.9328
 30
0.0
  0
VERTEX
  5
16B
  8
TEAM-DET1
 10
-0.600174
 20
-26.027954
 30
0.0
  0
VERTEX
  5
16C
  8
TEAM-DET1
 10
-2.708892
 20
-26.310363
 30
0.0
  0
VERTEX
  5
16D
  8
TEAM-DET1
 10
-4.687378
 20
-26.771789
 30
0.0
  0
VERTEX
  5
16E
  8
TEAM-DET1
 10
-6.47554
 20
-27.397888
 30
0.0
  0
VERTEX
  5
16F
  8
TEAM-DET1
 10
-8.018264
 20
-28.16925
 30
0.0
  0
VERTEX
  5
170
  8
TEAM-DET1
 10
-9.270477
 20
-29.063293
 30
0.0
  0
VERTEX
  5
171
  8
TEAM-DET1
 10
-10.193359
 20
-30.052551
 30
0.0
  0
VERTEX
  5
172
  8
TEAM-DET1
 10
-10.758102
 20
-31.106933
 30
0.0
  0
VERTEX
  5
173
  8
TEAM-DET1
 10
-10.94844
 20
-32.193847
 30
0.0
  0
VERTEX
  5
174
  8
TEAM-DET1
 10
-10.758102
 20
-33.280761
 30
0.0
  0
VERTEX
  5
175
  8
TEAM-DET1
 10
-10.193359
 20
-34.335143
 30
0.0
  0
VERTEX
  5
176
  8
TEAM-DET1
 10
-9.270477
 20
-35.324401
 30
0.0
  0
VERTEX
  5
177
  8
TEAM-DET1
 10
-8.018264
 20
-36.218444
 30
0.0
  0
VERTEX
  5
178
  8
TEAM-DET1
 10
-6.47554
 20
-36.989807
 30
0.0
  0
VERTEX
  5
179
  8
TEAM-DET1
 10
-4.687378
 20
-37.615905
 30
0.0
  0
VERTEX
  5
17A
  8
TEAM-DET1
 10
-2.708892
 20
-38.077331
 30
0.0
  0
VERTEX
  5
17B
  8
TEAM-DET1
 10
-0.600174
 20
-38.359741
 30
0.0
  0
VERTEX
  5
17C
  8
TEAM-DET1
 10
1.57367
 20
-38.454894
 30
0.0
  0
VERTEX
  5
17D
  8
TEAM-DET1
 10
3.747513
 20
-38.359741
 30
0.0
  0
VERTEX
  5
17E
  8
TEAM-DET1
 10
5.856232
 20
-38.077331
 30
0.0
  0
VERTEX
  5
17F
  8
TEAM-DET1
 10
7.834717
 20
-37.615905
 30
0.0
  0
VERTEX
  5
180
  8
TEAM-DET1
 10
9.622879
 20
-36.989807
 30
0.0
  0
VERTEX
  5
181
  8
TEAM-DET1
 10
11.165604
 20
-36.218444
 30
0.0
  0
VERTEX
  5
182
  8
TEAM-DET1
 10
12.417817
 20
-35.324401
 30
0.0
  0
VERTEX
  5
183
  8
TEAM-DET1
 10
13.340699
 20
-34.335143
 30
0.0
  0
VERTEX
  5
184
  8
TEAM-DET1
 10
13.905442
 20
-33.280761
 30
0.0
  0
VERTEX
  5
185
  8
TEAM-DET1
 10
14.09578
 20
-32.193847
 30
0.0
  0
VERTEX
  5
186
  8
TEAM-DET1
 10
14.09578
 20
-32.193847
 30
0.0
  0
SEQEND
  5
187
  8
TEAM-DET1
  0
LINE
  5
42
  8
TEAM-AXE
 10
-40.0
 20
-165.0
 30
0.0
 11
40.0
 21
-165.0
 31
0.0
  0
LINE
  5
45
  8
TEAM-AXE
 10
0.0
 20
-205.0
 30
0.0
 11
0.0
 21
-125.0
 31
0.0
  0
CIRCLE
  5
46
  8
TEAM-DET1
 10
0.0
 20
-165.0
 30
0.0
 40
30.0
  0
CIRCLE
  5
47
  8
TEAM-BODY
 10
0.0
 20
-165.0
 30
0.0
 40
20.0
  0
CIRCLE
  5
49
  8
TEAM-BODY
 10
0.0
 20
-165.0
 30
0.0
 40
150.0
  0
CIRCLE
  5
4A
  8
TEAM-BODY
 10
0.0
 20
-165.0
 30
0.0
 40
165.0
  0
CIRCLE
  5
4B
  8
TEAM-INSP
 10
0.0
 20
0.0
 30
0.0
 40
10.0
  0
DIMENSION
  5
4D
  8
TEAM-MAS
  2
*D2
 10
165.0
 20
-375.636968
 30
0.0
 11
0.0
 21
-375.636968
 31
0.0
 12
-4000.0
 22
-144000.0
 32
0.0
 13
-165.0
 23
-165.0
 33
0.0
 14
165.0
 24
-165.0
 34
0.0
  0
ENDSEC
  0
EOF
