  0
SECTION
  2
HEADER
  9
$ACADVER
  1
AC1009
  9
$INSBASE
 10
0.0
 20
0.0
 30
0.0
  9
$EXTMIN
 10
-173.685346
 20
-10.057981
 30
0.0
  9
$EXTMAX
 10
453.037774
 20
940.057997
 30
0.0
  9
$LIMMIN
 10
-173.685346
 20
-10.057981
  9
$LIMMAX
 10
453.037774
 20
940.057997
  9
$ORTHOMODE
 70
     1
  9
$REGENMODE
 70
     1
  9
$FILLMODE
 70
     1
  9
$QTEXTMODE
 70
     0
  9
$MIRRTEXT
 70
     0
  9
$DRAGMODE
 70
     2
  9
$LTSCALE
 40
25.0
  9
$OSMODE
 70
     0
  9
$ATTMODE
 70
     1
  9
$TEXTSIZE
 40
200.0
  9
$TRACEWID
 40
1.0
  9
$TEXTSTYLE
  7
STANDARD
  9
$CLAYER
  8
TEAM-MAS
  9
$CELTYPE
  6
BYLAYER
  9
$CECOLOR
 62
   256
  9
$DIMSCALE
 40
0.0
  9
$DIMASZ
 40
20.0
  9
$DIMEXO
 40
10.0
  9
$DIMDLI
 40
1.0
  9
$DIMRND
 40
0.0
  9
$DIMDLE
 40
0.0
  9
$DIMEXE
 40
1.0
  9
$DIMTP
 40
0.0
  9
$DIMTM
 40
0.0
  9
$DIMTXT
 40
35.0
  9
$DIMCEN
 40
1.0
  9
$DIMTSZ
 40
0.0
  9
$DIMTOL
 70
     0
  9
$DIMLIM
 70
     0
  9
$DIMTIH
 70
     0
  9
$DIMTOH
 70
     0
  9
$DIMSE1
 70
     0
  9
$DIMSE2
 70
     0
  9
$DIMTAD
 70
     0
  9
$DIMZIN
 70
     0
  9
$DIMBLK
  1

  9
$DIMASO
 70
     1
  9
$DIMSHO
 70
     0
  9
$DIMPOST
  1

  9
$DIMAPOST
  1

  9
$DIMALT
 70
     0
  9
$DIMALTD
 70
     2
  9
$DIMALTF
 40
25.4
  9
$DIMLFAC
 40
1.0
  9
$DIMTOFL
 70
     0
  9
$DIMTVP
 40
0.0
  9
$DIMTIX
 70
     0
  9
$DIMSOXD
 70
     0
  9
$DIMSAH
 70
     0
  9
$DIMBLK1
  1

  9
$DIMBLK2
  1

  9
$DIMSTYLE
  2
TEAM
  9
$DIMCLRD
 70
     9
  9
$DIMCLRE
 70
     9
  9
$DIMCLRT
 70
    11
  9
$DIMTFAC
 40
1.0
  9
$DIMGAP
 40
15.0
  9
$LUNITS
 70
     2
  9
$LUPREC
 70
     1
  9
$SKETCHINC
 40
1.0
  9
$FILLETRAD
 40
50.0
  9
$AUNITS
 70
     0
  9
$AUPREC
 70
     0
  9
$MENU
  1
ROPLANS
  9
$ELEVATION
 40
0.0
  9
$PELEVATION
 40
0.0
  9
$THICKNESS
 40
0.0
  9
$LIMCHECK
 70
     0
  9
$BLIPMODE
 70
     1
  9
$CHAMFERA
 40
0.0
  9
$CHAMFERB
 40
0.0
  9
$SKPOLY
 70
     0
  9
$TDCREATE
 40
2450392.957851
  9
$TDUPDATE
 40
2455498.624065
  9
$TDINDWG
 40
1.987034
  9
$TDUSRTIMER
 40
1.987034
  9
$USRTIMER
 70
     1
  9
$ANGBASE
 50
0.0
  9
$ANGDIR
 70
     0
  9
$PDMODE
 70
     0
  9
$PDSIZE
 40
0.0
  9
$PLINEWID
 40
0.0
  9
$COORDS
 70
     2
  9
$SPLFRAME
 70
     0
  9
$SPLINETYPE
 70
     6
  9
$SPLINESEGS
 70
     8
  9
$ATTDIA
 70
     0
  9
$ATTREQ
 70
     0
  9
$HANDLING
 70
     1
  9
$HANDSEED
  5
2EF
  9
$SURFTAB1
 70
    24
  9
$SURFTAB2
 70
    24
  9
$SURFTYPE
 70
     6
  9
$SURFU
 70
     6
  9
$SURFV
 70
     6
  9
$UCSNAME
  2

  9
$UCSORG
 10
0.0
 20
0.0
 30
0.0
  9
$UCSXDIR
 10
1.0
 20
0.0
 30
0.0
  9
$UCSYDIR
 10
0.0
 20
1.0
 30
0.0
  9
$PUCSNAME
  2

  9
$PUCSORG
 10
0.0
 20
0.0
 30
0.0
  9
$PUCSXDIR
 10
1.0
 20
0.0
 30
0.0
  9
$PUCSYDIR
 10
0.0
 20
1.0
 30
0.0
  9
$USERI1
 70
     0
  9
$USERI2
 70
     0
  9
$USERI3
 70
     0
  9
$USERI4
 70
     0
  9
$USERI5
 70
     0
  9
$USERR1
 40
0.0
  9
$USERR2
 40
0.0
  9
$USERR3
 40
0.0
  9
$USERR4
 40
0.0
  9
$USERR5
 40
0.0
  9
$WORLDVIEW
 70
     1
  9
$SHADEDGE
 70
     0
  9
$SHADEDIF
 70
    70
  9
$TILEMODE
 70
     1
  9
$MAXACTVP
 70
    16
  9
$PLIMCHECK
 70
     0
  9
$PEXTMIN
 10
-0.805942
 20
0.005011
 30
0.0
  9
$PEXTMAX
 10
20.250094
 20
11.356329
 30
0.0
  9
$PLIMMIN
 10
0.0
 20
0.0
  9
$PLIMMAX
 10
12.0
 20
9.0
  9
$UNITMODE
 70
     0
  9
$VISRETAIN
 70
     0
  9
$PLINEGEN
 70
     0
  9
$PSLTSCALE
 70
     0
  0
ENDSEC
  0
SECTION
  2
TABLES
  0
TABLE
  2
VPORT
 70
     2
  0
VPORT
  2
*ACTIVE
 70
     0
 10
0.0
 20
0.0
 11
1.0
 21
1.0
 12
139.676214
 22
465.000008
 13
0.0
 23
0.0
 14
1.0
 24
1.0
 15
50.0
 25
50.0
 16
0.0
 26
0.0
 36
1.0
 17
0.0
 27
0.0
 37
0.0
 40
955.950876
 41
1.865779
 42
50.0
 43
0.0
 44
0.0
 50
0.0
 51
0.0
 71
     0
 72
   100
 73
     1
 74
     1
 75
     0
 76
     0
 77
     0
 78
     0
  0
ENDTAB
  0
TABLE
  2
LTYPE
 70
     4
  0
LTYPE
  2
CONTINUOUS
 70
     0
  3
Solid Line
 72
    65
 73
     0
 40
0.0
  0
LTYPE
  2
31
 70
     0
  3

 72
    65
 73
     4
 40
2.1
 49
1.5
 49
-0.3
 49
0.0
 49
-0.3
  0
LTYPE
  2
22
 70
     0
  3

 72
    65
 73
     2
 40
1.4
 49
1.2
 49
-0.2
  0
LTYPE
  2
DURCHGEHEND
 70
     0
  3

 72
    65
 73
     0
 40
0.0
  0
ENDTAB
  0
TABLE
  2
LAYER
 70
    11
  0
LAYER
  2
0
 70
     0
 62
     7
  6
CONTINUOUS
  0
LAYER
  2
DEFPOINTS
 70
     0
 62
     7
  6
CONTINUOUS
  0
LAYER
  2
TEAM-AXE
 70
     0
 62
    10
  6
31
  0
LAYER
  2
TEAM-MAS
 70
     0
 62
     9
  6
CONTINUOUS
  0
LAYER
  2
TEAM-TXT
 70
     0
 62
    11
  6
CONTINUOUS
  0
LAYER
  2
TEAM-COLD
 70
     0
 62
     3
  6
CONTINUOUS
  0
LAYER
  2
TEAM-HIDE
 70
     0
 62
     8
  6
22
  0
LAYER
  2
TEAM-KAN
 70
     0
 62
     6
  6
CONTINUOUS
  0
LAYER
  2
TEAM-WARM
 70
     0
 62
     1
  6
CONTINUOUS
  0
LAYER
  2
TEAM-INSP
 70
     0
 62
     5
  6
CONTINUOUS
  0
LAYER
  2
STANDARDEBENE
 70
     0
 62
     7
  6
DURCHGEHEND
  0
ENDTAB
  0
TABLE
  2
STYLE
 70
     2
  0
STYLE
  2
STANDARD
 70
     0
 40
0.0
 41
1.0
 50
0.0
 71
     0
 42
200.0
  3
txt
  4

  0
STYLE
  2
TEAM
 70
     0
 40
0.0
 41
0.8
 50
15.0
 71
     0
 42
7.0
  3
ROMANS.shx
  4

  0
ENDTAB
  0
TABLE
  2
VIEW
 70
     0
  0
ENDTAB
  0
TABLE
  2
UCS
 70
     0
  0
ENDTAB
  0
TABLE
  2
APPID
 70
     1
  0
APPID
  2
ACAD
 70
     0
  0
ENDTAB
  0
TABLE
  2
DIMSTYLE
 70
     1
  0
DIMSTYLE
  2
TEAM
 70
     0
  3

  4

  5

  6

  7

 40
0.0
 41
20.0
 42
10.0
 43
1.0
 44
1.0
 45
0.0
 46
0.0
 47
0.0
 48
0.0
140
35.0
141
1.0
142
0.0
143
25.4
144
1.0
145
0.0
146
1.0
147
15.0
 71
     0
 72
     0
 73
     0
 74
     0
 75
     0
 76
     0
 77
     0
 78
     0
170
     0
171
     2
172
     0
173
     0
174
     0
175
     0
176
     9
177
     9
178
    11
  0
ENDTAB
  0
ENDSEC
  0
SECTION
  2
BLOCKS
  0
BLOCK
  8
0
  2
$MODEL_SPACE
 70
     0
 10
0.0
 20
0.0
 30
0.0
  3
$MODEL_SPACE
  1

  0
ENDBLK
  5
290
  8
0
  0
BLOCK
 67
     1
  8
0
  2
$PAPER_SPACE
 70
     0
 10
0.0
 20
0.0
 30
0.0
  3
$PAPER_SPACE
  1

  0
ENDBLK
  5
28E
 67
     1
  8
0
  0
BLOCK
  8
0
  2
*D0
 70
     1
 10
0.0
 20
0.0
 30
0.0
  3
*D0
  1

  0
LINE
  5
3C
  8
0
  6
BYBLOCK
 62
     9
 10
8156.393669
 20
144900.000007
 30
0.0
 11
8280.957073
 21
144900.000007
 31
0.0
  0
LINE
  5
3D
  8
0
  6
BYBLOCK
 62
     9
 10
8045.0
 20
144730.005283
 30
0.0
 11
8280.957073
 21
144730.005283
 31
0.0
  0
LINE
  5
3E
  8
0
  6
BYBLOCK
 62
     9
 10
8279.957073
 20
144880.000007
 30
0.0
 11
8279.957073
 21
144858.016425
 31
0.0
  0
LINE
  5
3F
  8
0
  6
BYBLOCK
 62
     9
 10
8279.957073
 20
144750.005283
 30
0.0
 11
8279.957073
 21
144771.988866
 31
0.0
  0
SOLID
  5
40
  8
0
  6
BYBLOCK
 62
     9
 10
8276.62374
 20
144880.000007
 30
0.0
 11
8283.290406
 21
144880.000007
 31
0.0
 12
8279.957073
 22
144900.000007
 32
0.0
 13
8279.957073
 23
144900.000007
 33
0.0
  0
SOLID
  5
41
  8
0
  6
BYBLOCK
 62
     9
 10
8276.62374
 20
144750.005283
 30
0.0
 11
8283.290406
 21
144750.005283
 31
0.0
 12
8279.957073
 22
144730.005283
 32
0.0
 13
8279.957073
 23
144730.005283
 33
0.0
  0
TEXT
  5
42
  8
0
  6
BYBLOCK
 62
    11
 10
8297.457073
 20
144781.738866
 30
0.0
 40
35.0
  1
170
 50
90.0
  0
POINT
  5
43
  8
DEFPOINTS
  6
BYBLOCK
 62
     0
 10
8146.393669
 20
144900.000007
 30
0.0
  0
POINT
  5
44
  8
DEFPOINTS
  6
BYBLOCK
 62
     0
 10
8035.0
 20
144730.005283
 30
0.0
  0
POINT
  5
45
  8
DEFPOINTS
  6
BYBLOCK
 62
     0
 10
8279.957073
 20
144730.005283
 30
0.0
  0
ENDBLK
  5
47
  8
0
  0
BLOCK
  8
0
  2
*D1
 70
     1
 10
0.0
 20
0.0
 30
0.0
  3
*D1
  1

  0
LINE
  5
2D
  8
0
  6
BYBLOCK
 62
     9
 10
8076.17968
 20
144755.001604
 30
0.0
 11
8229.631219
 21
144755.001604
 31
0.0
  0
LINE
  5
2E
  8
0
  6
BYBLOCK
 62
     9
 10
8156.393669
 20
144900.000007
 30
0.0
 11
8229.631219
 21
144900.000007
 31
0.0
  0
LINE
  5
2F
  8
0
  6
BYBLOCK
 62
     9
 10
8228.631219
 20
144735.001604
 30
0.0
 11
8228.631219
 21
144715.001604
 31
0.0
  0
LINE
  5
30
  8
0
  6
BYBLOCK
 62
     9
 10
8228.631219
 20
144920.000007
 30
0.0
 11
8228.631219
 21
144940.000007
 31
0.0
  0
SOLID
  5
31
  8
0
  6
BYBLOCK
 62
     9
 10
8225.297886
 20
144735.001604
 30
0.0
 11
8231.964553
 21
144735.001604
 31
0.0
 12
8228.631219
 22
144755.001604
 32
0.0
 13
8228.631219
 23
144755.001604
 33
0.0
  0
SOLID
  5
32
  8
0
  6
BYBLOCK
 62
     9
 10
8225.297886
 20
144920.000007
 30
0.0
 11
8231.964553
 21
144920.000007
 31
0.0
 12
8228.631219
 22
144900.000007
 32
0.0
 13
8228.631219
 23
144900.000007
 33
0.0
  0
TEXT
  5
33
  8
0
  6
BYBLOCK
 62
    11
 10
8246.131219
 20
144791.775932
 30
0.0
 40
35.0
  1
145
 50
90.0
  0
POINT
  5
34
  8
DEFPOINTS
  6
BYBLOCK
 62
     0
 10
8066.17968
 20
144755.001604
 30
0.0
  0
POINT
  5
36
  8
DEFPOINTS
  6
BYBLOCK
 62
     0
 10
8146.393669
 20
144900.000007
 30
0.0
  0
POINT
  5
37
  8
DEFPOINTS
  6
BYBLOCK
 62
     0
 10
8228.631219
 20
144900.000007
 30
0.0
  0
ENDBLK
  5
39
  8
0
  0
BLOCK
  8
0
  2
*D2
 70
     1
 10
0.0
 20
0.0
 30
0.0
  3
*D2
  1

  0
LINE
  5
66
  8
0
  6
BYBLOCK
 62
     9
 10
8156.393669
 20
144900.000007
 30
0.0
 11
8384.164104
 21
144900.000007
 31
0.0
  0
LINE
  5
67
  8
0
  6
BYBLOCK
 62
     9
 10
8040.0
 20
144570.0
 30
0.0
 11
8384.164104
 21
144570.0
 31
0.0
  0
LINE
  5
68
  8
0
  6
BYBLOCK
 62
     9
 10
8383.164104
 20
144880.000007
 30
0.0
 11
8383.164104
 21
144781.513783
 31
0.0
  0
LINE
  5
69
  8
0
  6
BYBLOCK
 62
     9
 10
8383.164104
 20
144590.0
 30
0.0
 11
8383.164104
 21
144688.486224
 31
0.0
  0
SOLID
  5
6A
  8
0
  6
BYBLOCK
 62
     9
 10
8379.83077
 20
144880.000007
 30
0.0
 11
8386.497437
 21
144880.000007
 31
0.0
 12
8383.164104
 22
144900.000007
 32
0.0
 13
8383.164104
 23
144900.000007
 33
0.0
  0
SOLID
  5
6B
  8
0
  6
BYBLOCK
 62
     9
 10
8379.83077
 20
144590.0
 30
0.0
 11
8386.497437
 21
144590.0
 31
0.0
 12
8383.164104
 22
144570.0
 32
0.0
 13
8383.164104
 23
144570.0
 33
0.0
  0
TEXT
  5
6C
  8
0
  6
BYBLOCK
 62
    11
 10
8400.664104
 20
144698.236224
 30
0.0
 40
35.0
  1
330
 50
90.0
  0
POINT
  5
6D
  8
DEFPOINTS
  6
BYBLOCK
 62
     0
 10
8146.393669
 20
144900.000007
 30
0.0
  0
POINT
  5
6E
  8
DEFPOINTS
  6
BYBLOCK
 62
     0
 10
8030.0
 20
144570.0
 30
0.0
  0
POINT
  5
6F
  8
DEFPOINTS
  6
BYBLOCK
 62
     0
 10
8383.164104
 20
144570.0
 30
0.0
  0
ENDBLK
  5
71
  8
0
  0
BLOCK
  8
0
  2
*D3
 70
     1
 10
0.0
 20
0.0
 30
0.0
  3
*D3
  1

  0
LINE
  5
4A
  8
0
  6
BYBLOCK
 62
     9
 10
8105.0
 20
144600.0
 30
0.0
 11
8332.781182
 21
144600.0
 31
0.0
  0
LINE
  5
4B
  8
0
  6
BYBLOCK
 62
     9
 10
8156.393669
 20
144900.000007
 30
0.0
 11
8332.781182
 21
144900.000007
 31
0.0
  0
LINE
  5
4C
  8
0
  6
BYBLOCK
 62
     9
 10
8331.781182
 20
144620.0
 30
0.0
 11
8331.781182
 21
144703.486224
 31
0.0
  0
LINE
  5
4D
  8
0
  6
BYBLOCK
 62
     9
 10
8331.781182
 20
144880.000007
 30
0.0
 11
8331.781182
 21
144796.513783
 31
0.0
  0
SOLID
  5
4E
  8
0
  6
BYBLOCK
 62
     9
 10
8328.447849
 20
144620.0
 30
0.0
 11
8335.114516
 21
144620.0
 31
0.0
 12
8331.781182
 22
144600.0
 32
0.0
 13
8331.781182
 23
144600.0
 33
0.0
  0
SOLID
  5
4F
  8
0
  6
BYBLOCK
 62
     9
 10
8328.447849
 20
144880.000007
 30
0.0
 11
8335.114516
 21
144880.000007
 31
0.0
 12
8331.781182
 22
144900.000007
 32
0.0
 13
8331.781182
 23
144900.000007
 33
0.0
  0
TEXT
  5
50
  8
0
  6
BYBLOCK
 62
    11
 10
8349.281182
 20
144713.236224
 30
0.0
 40
35.0
  1
300
 50
90.0
  0
POINT
  5
51
  8
DEFPOINTS
  6
BYBLOCK
 62
     0
 10
8095.0
 20
144600.0
 30
0.0
  0
POINT
  5
52
  8
DEFPOINTS
  6
BYBLOCK
 62
     0
 10
8146.393669
 20
144900.000007
 30
0.0
  0
POINT
  5
53
  8
DEFPOINTS
  6
BYBLOCK
 62
     0
 10
8331.781182
 20
144900.000007
 30
0.0
  0
ENDBLK
  5
55
  8
0
  0
BLOCK
  8
0
  2
*D4
 70
     1
 10
0.0
 20
0.0
 30
0.0
  3
*D4
  1

  0
LINE
  5
82
  8
0
  6
BYBLOCK
 62
     9
 10
8040.0
 20
144570.0
 30
0.0
 11
8384.164104
 21
144570.0
 31
0.0
  0
LINE
  5
83
  8
0
  6
BYBLOCK
 62
     9
 10
8010.0
 20
144000.0
 30
0.0
 11
8384.164104
 21
144000.0
 31
0.0
  0
LINE
  5
84
  8
0
  6
BYBLOCK
 62
     9
 10
8383.164104
 20
144550.0
 30
0.0
 11
8383.164104
 21
144331.51378
 31
0.0
  0
LINE
  5
85
  8
0
  6
BYBLOCK
 62
     9
 10
8383.164104
 20
144020.0
 30
0.0
 11
8383.164104
 21
144238.48622
 31
0.0
  0
SOLID
  5
86
  8
0
  6
BYBLOCK
 62
     9
 10
8379.83077
 20
144550.0
 30
0.0
 11
8386.497437
 21
144550.0
 31
0.0
 12
8383.164104
 22
144570.0
 32
0.0
 13
8383.164104
 23
144570.0
 33
0.0
  0
SOLID
  5
87
  8
0
  6
BYBLOCK
 62
     9
 10
8379.83077
 20
144020.0
 30
0.0
 11
8386.497437
 21
144020.0
 31
0.0
 12
8383.164104
 22
144000.0
 32
0.0
 13
8383.164104
 23
144000.0
 33
0.0
  0
TEXT
  5
88
  8
0
  6
BYBLOCK
 62
    11
 10
8400.664104
 20
144248.23622
 30
0.0
 40
35.0
  1
570
 50
90.0
  0
POINT
  5
89
  8
DEFPOINTS
  6
BYBLOCK
 62
     0
 10
8030.0
 20
144570.0
 30
0.0
  0
POINT
  5
8A
  8
DEFPOINTS
  6
BYBLOCK
 62
     0
 10
8000.0
 20
144000.0
 30
0.0
  0
POINT
  5
8B
  8
DEFPOINTS
  6
BYBLOCK
 62
     0
 10
8383.164104
 20
144000.0
 30
0.0
  0
ENDBLK
  5
8D
  8
0
  0
BLOCK
  8
0
  2
*D5
 70
     1
 10
0.0
 20
0.0
 30
0.0
  3
*D5
  1

  0
LINE
  5
58
  8
0
  6
BYBLOCK
 62
     9
 10
8156.393669
 20
144900.000007
 30
0.0
 11
8436.558266
 21
144900.000007
 31
0.0
  0
LINE
  5
59
  8
0
  6
BYBLOCK
 62
     9
 10
8010.0
 20
144000.0
 30
0.0
 11
8436.558266
 21
144000.0
 31
0.0
  0
LINE
  5
5A
  8
0
  6
BYBLOCK
 62
     9
 10
8435.558266
 20
144880.000007
 30
0.0
 11
8435.558266
 21
144497.238657
 31
0.0
  0
LINE
  5
5B
  8
0
  6
BYBLOCK
 62
     9
 10
8435.558266
 20
144020.0
 30
0.0
 11
8435.558266
 21
144402.76135
 31
0.0
  0
SOLID
  5
5C
  8
0
  6
BYBLOCK
 62
     9
 10
8432.224933
 20
144880.000007
 30
0.0
 11
8438.8916
 21
144880.000007
 31
0.0
 12
8435.558266
 22
144900.000007
 32
0.0
 13
8435.558266
 23
144900.000007
 33
0.0
  0
SOLID
  5
5D
  8
0
  6
BYBLOCK
 62
     9
 10
8432.224933
 20
144020.0
 30
0.0
 11
8438.8916
 21
144020.0
 31
0.0
 12
8435.558266
 22
144000.0
 32
0.0
 13
8435.558266
 23
144000.0
 33
0.0
  0
TEXT
  5
5E
  8
0
  6
BYBLOCK
 62
    11
 10
8453.058266
 20
144413.838796
 30
0.0
 40
35.0
  1
900
 50
90.0
  0
POINT
  5
5F
  8
DEFPOINTS
  6
BYBLOCK
 62
     0
 10
8146.393669
 20
144900.000007
 30
0.0
  0
POINT
  5
60
  8
DEFPOINTS
  6
BYBLOCK
 62
     0
 10
8000.0
 20
144000.0
 30
0.0
  0
POINT
  5
61
  8
DEFPOINTS
  6
BYBLOCK
 62
     0
 10
8435.558266
 20
144000.0
 30
0.0
  0
ENDBLK
  5
63
  8
0
  0
BLOCK
  8
0
  2
*D6
 70
     1
 10
0.0
 20
0.0
 30
0.0
  3
*D6
  1

  0
LINE
  5
A3
  8
0
  6
BYBLOCK
 62
     9
 10
7925.0
 20
144570.0
 30
0.0
 11
7925.0
 21
144378.793753
 31
0.0
  0
LINE
  5
A4
  8
0
  6
BYBLOCK
 62
     9
 10
8075.0
 20
144570.0
 30
0.0
 11
8075.0
 21
144378.793753
 31
0.0
  0
LINE
  5
A5
  8
0
  6
BYBLOCK
 62
     9
 10
7945.0
 20
144379.793753
 30
0.0
 11
8055.0
 21
144379.793753
 31
0.0
  0
TEXT
  5
A6
  8
0
  6
BYBLOCK
 62
    11
 10
7966.038654
 20
144394.795007
 30
0.0
 40
35.0
  1
150
  0
SOLID
  5
A7
  8
0
  6
BYBLOCK
 62
     9
 10
7945.0
 20
144383.127086
 30
0.0
 11
7945.0
 21
144376.46042
 31
0.0
 12
7925.0
 22
144379.793753
 32
0.0
 13
7925.0
 23
144379.793753
 33
0.0
  0
SOLID
  5
A8
  8
0
  6
BYBLOCK
 62
     9
 10
8055.0
 20
144383.127086
 30
0.0
 11
8055.0
 21
144376.46042
 31
0.0
 12
8075.0
 22
144379.793753
 32
0.0
 13
8075.0
 23
144379.793753
 33
0.0
  0
POINT
  5
A9
  8
DEFPOINTS
  6
BYBLOCK
 62
     0
 10
7925.0
 20
144580.0
 30
0.0
  0
POINT
  5
AA
  8
DEFPOINTS
  6
BYBLOCK
 62
     0
 10
8075.0
 20
144580.0
 30
0.0
  0
POINT
  5
AB
  8
DEFPOINTS
  6
BYBLOCK
 62
     0
 10
8075.0
 20
144379.793753
 30
0.0
  0
ENDBLK
  5
AD
  8
0
  0
BLOCK
  8
0
  2
*D7
 70
     1
 10
0.0
 20
0.0
 30
0.0
  3
*D7
  1

  0
LINE
  5
74
  8
0
  6
BYBLOCK
 62
     9
 10
8105.0
 20
144600.0
 30
0.0
 11
8332.781182
 21
144600.0
 31
0.0
  0
LINE
  5
75
  8
0
  6
BYBLOCK
 62
     9
 10
8010.0
 20
144000.0
 30
0.0
 11
8332.781182
 21
144000.0
 31
0.0
  0
LINE
  5
76
  8
0
  6
BYBLOCK
 62
     9
 10
8331.781182
 20
144580.0
 30
0.0
 11
8331.781182
 21
144347.561024
 31
0.0
  0
LINE
  5
77
  8
0
  6
BYBLOCK
 62
     9
 10
8331.781182
 20
144020.0
 30
0.0
 11
8331.781182
 21
144252.438976
 31
0.0
  0
SOLID
  5
78
  8
0
  6
BYBLOCK
 62
     9
 10
8328.447849
 20
144580.0
 30
0.0
 11
8335.114516
 21
144580.0
 31
0.0
 12
8331.781182
 22
144600.0
 32
0.0
 13
8331.781182
 23
144600.0
 33
0.0
  0
SOLID
  5
79
  8
0
  6
BYBLOCK
 62
     9
 10
8328.447849
 20
144020.0
 30
0.0
 11
8335.114516
 21
144020.0
 31
0.0
 12
8331.781182
 22
144000.0
 32
0.0
 13
8331.781182
 23
144000.0
 33
0.0
  0
TEXT
  5
7A
  8
0
  6
BYBLOCK
 62
    11
 10
8349.281182
 20
144264.283465
 30
0.0
 40
35.0
  1
600
 50
90.0
  0
POINT
  5
7B
  8
DEFPOINTS
  6
BYBLOCK
 62
     0
 10
8095.0
 20
144600.0
 30
0.0
  0
POINT
  5
7C
  8
DEFPOINTS
  6
BYBLOCK
 62
     0
 10
8000.0
 20
144000.0
 30
0.0
  0
POINT
  5
7D
  8
DEFPOINTS
  6
BYBLOCK
 62
     0
 10
8331.781182
 20
144000.0
 30
0.0
  0
ENDBLK
  5
7F
  8
0
  0
ENDSEC
  0
SECTION
  2
ENTITIES
  0
POLYLINE
  5
20
  8
STANDARDEBENE
 62
     2
 66
     1
 10
0.0
 20
0.0
 30
0.0
  0
VERTEX
  5
296
  8
STANDARDEBENE
 62
     2
 10
78.379448
 20
775.850288
 30
0.0
  0
VERTEX
  5
297
  8
STANDARDEBENE
 62
     2
 10
78.291008
 20
775.777534
 30
0.0
  0
VERTEX
  5
298
  8
STANDARDEBENE
 62
     2
 10
78.037864
 20
775.56385
 30
0.0
  0
VERTEX
  5
299
  8
STANDARDEBENE
 62
     2
 10
77.638298
 20
775.216102
 30
0.0
  0
VERTEX
  5
29A
  8
STANDARDEBENE
 62
     2
 10
77.110679
 20
774.741126
 30
0.0
  0
VERTEX
  5
29B
  8
STANDARDEBENE
 62
     2
 10
76.473228
 20
774.145759
 30
0.0
  0
VERTEX
  5
29C
  8
STANDARDEBENE
 62
     2
 10
75.744285
 20
773.436927
 30
0.0
  0
VERTEX
  5
29D
  8
STANDARDEBENE
 62
     2
 10
74.942161
 20
772.621437
 30
0.0
  0
VERTEX
  5
29E
  8
STANDARDEBENE
 62
     2
 10
74.085136
 20
771.706153
 30
0.0
  0
VERTEX
  5
29F
  8
STANDARDEBENE
 62
     2
 10
73.19149
 20
770.697914
 30
0.0
  0
VERTEX
  5
2A0
  8
STANDARDEBENE
 62
     2
 10
72.279564
 20
769.603614
 30
0.0
  0
VERTEX
  5
2A1
  8
STANDARDEBENE
 62
     2
 10
71.367637
 20
768.430091
 30
0.0
  0
VERTEX
  5
2A2
  8
STANDARDEBENE
 62
     2
 10
70.473991
 20
767.184211
 30
0.0
  0
VERTEX
  5
2A3
  8
STANDARDEBENE
 62
     2
 10
69.616966
 20
765.87281
 30
0.0
  0
VERTEX
  5
2A4
  8
STANDARDEBENE
 62
     2
 10
68.814842
 20
764.502754
 30
0.0
  0
VERTEX
  5
2A5
  8
STANDARDEBENE
 62
     2
 10
68.085899
 20
763.080909
 30
0.0
  0
VERTEX
  5
2A6
  8
STANDARDEBENE
 62
     2
 10
67.448448
 20
761.614112
 30
0.0
  0
VERTEX
  5
2A7
  8
STANDARDEBENE
 62
     2
 10
66.920829
 20
760.10923
 30
0.0
  0
VERTEX
  5
2A8
  8
STANDARDEBENE
 62
     2
 10
66.521263
 20
758.313127
 30
0.0
  0
VERTEX
  5
2A9
  8
STANDARDEBENE
 62
     2
 10
66.268119
 20
756.752672
 30
0.0
  0
VERTEX
  5
2AA
  8
STANDARDEBENE
 62
     2
 10
66.17968
 20
755.174699
 30
0.0
  0
SEQEND
  5
2AB
  8
STANDARDEBENE
 62
     2
  0
LINE
  5
23
  8
TEAM-AXE
 10
0.0
 20
900.000007
 30
0.0
 11
0.0
 21
493.887486
 31
0.0
210
0.0
220
-0.0
230
-1.0
  0
ARC
  5
26
  8
TEAM-HIDE
 10
9.581152
 20
911.075446
 30
0.0
 40
156.367652
 50
184.062169
 51
266.487102
  0
POLYLINE
  5
29
  8
STANDARDEBENE
 62
     2
 66
     1
 10
0.0
 20
0.0
 30
0.0
  0
VERTEX
  5
2AC
  8
STANDARDEBENE
 62
     2
 10
-77.73507
 20
775.850288
 30
0.0
  0
VERTEX
  5
2AD
  8
STANDARDEBENE
 62
     2
 10
-77.650505
 20
775.777534
 30
0.0
  0
VERTEX
  5
2AE
  8
STANDARDEBENE
 62
     2
 10
-77.408455
 20
775.56385
 30
0.0
  0
VERTEX
  5
2AF
  8
STANDARDEBENE
 62
     2
 10
-77.026436
 20
775.216102
 30
0.0
  0
VERTEX
  5
2B0
  8
STANDARDEBENE
 62
     2
 10
-76.521935
 20
774.741126
 30
0.0
  0
VERTEX
  5
2B1
  8
STANDARDEBENE
 62
     2
 10
-75.912453
 20
774.145759
 30
0.0
  0
VERTEX
  5
2B2
  8
STANDARDEBENE
 62
     2
 10
-75.215477
 20
773.436927
 30
0.0
  0
VERTEX
  5
2B3
  8
STANDARDEBENE
 62
     2
 10
-74.448525
 20
772.621437
 30
0.0
  0
VERTEX
  5
2B4
  8
STANDARDEBENE
 62
     2
 10
-73.629082
 20
771.706153
 30
0.0
  0
VERTEX
  5
2B5
  8
STANDARDEBENE
 62
     2
 10
-72.774636
 20
770.697914
 30
0.0
  0
VERTEX
  5
2B6
  8
STANDARDEBENE
 62
     2
 10
-71.902703
 20
769.603614
 30
0.0
  0
VERTEX
  5
2B7
  8
STANDARDEBENE
 62
     2
 10
-71.030754
 20
768.430091
 30
0.0
  0
VERTEX
  5
2B8
  8
STANDARDEBENE
 62
     2
 10
-70.176308
 20
767.184211
 30
0.0
  0
VERTEX
  5
2B9
  8
STANDARDEBENE
 62
     2
 10
-69.356865
 20
765.87281
 30
0.0
  0
VERTEX
  5
2BA
  8
STANDARDEBENE
 62
     2
 10
-68.589913
 20
764.502754
 30
0.0
  0
VERTEX
  5
2BB
  8
STANDARDEBENE
 62
     2
 10
-67.892937
 20
763.080909
 30
0.0
  0
VERTEX
  5
2BC
  8
STANDARDEBENE
 62
     2
 10
-67.283455
 20
761.614112
 30
0.0
  0
VERTEX
  5
2BD
  8
STANDARDEBENE
 62
     2
 10
-66.778954
 20
760.10923
 30
0.0
  0
VERTEX
  5
2BE
  8
STANDARDEBENE
 62
     2
 10
-66.396935
 20
758.313127
 30
0.0
  0
VERTEX
  5
2BF
  8
STANDARDEBENE
 62
     2
 10
-66.154885
 20
756.752672
 30
0.0
  0
VERTEX
  5
2C0
  8
STANDARDEBENE
 62
     2
 10
-66.07032
 20
755.174699
 30
0.0
  0
SEQEND
  5
2C1
  8
STANDARDEBENE
 62
     2
  0
ARC
  5
2A
  8
TEAM-HIDE
 10
-8.448774
 20
909.93216
 30
0.0
 40
155.160752
 50
273.121399
 51
356.32933
  0
DIMENSION
  5
2B
  8
TEAM-MAS
  2
*D1
 10
228.631219
 20
900.000007
 30
0.0
 11
228.631219
 21
827.500806
 31
0.0
 12
-8000.0
 22
-144000.0
 32
0.0
 13
66.17968
 23
755.001604
 33
0.0
 14
146.393669
 24
900.000007
 34
0.0
 50
90.0
1001
ACAD
1000
DSTYLE
1002
{
1070
    40
1040
1.0
1002
}
  0
DIMENSION
  5
3A
  8
TEAM-MAS
  2
*D0
 10
279.957073
 20
730.005283
 30
0.0
 11
279.957073
 21
815.002645
 31
0.0
 12
-8000.0
 22
-144000.0
 32
0.0
 13
146.393669
 23
900.000007
 33
0.0
 14
35.0
 24
730.005283
 34
0.0
 50
90.0
  0
DIMENSION
  5
48
  8
TEAM-MAS
  2
*D3
 10
331.781182
 20
900.000007
 30
0.0
 11
331.781182
 21
750.000004
 31
0.0
 12
-8000.0
 22
-144000.0
 32
0.0
 13
95.0
 23
600.0
 33
0.0
 14
146.393669
 24
900.000007
 34
0.0
 50
90.0
1001
ACAD
1000
DSTYLE
1002
{
1070
    40
1040
1.0
1002
}
  0
DIMENSION
  5
56
  8
TEAM-MAS
  2
*D5
 10
435.558266
 20
0.0
 30
0.0
 11
435.558266
 21
450.000004
 31
0.0
 12
-8000.0
 22
-144000.0
 32
0.0
 13
146.393669
 23
900.000007
 33
0.0
 14
0.0
 24
0.0
 34
0.0
 50
90.0
  0
DIMENSION
  5
64
  8
TEAM-MAS
  2
*D2
 10
383.164104
 20
570.0
 30
0.0
 11
383.164104
 21
735.000004
 31
0.0
 12
-8000.0
 22
-144000.0
 32
0.0
 13
146.393669
 23
900.000007
 33
0.0
 14
30.0
 24
570.0
 34
0.0
 50
90.0
  0
DIMENSION
  5
72
  8
TEAM-MAS
  2
*D7
 10
331.781182
 20
0.0
 30
0.0
 11
331.781182
 21
300.0
 31
0.0
 12
-8000.0
 22
-144000.0
 32
0.0
 13
95.0
 23
600.0
 33
0.0
 14
0.0
 24
0.0
 34
0.0
 50
90.0
  0
DIMENSION
  5
80
  8
TEAM-MAS
  2
*D4
 10
383.164104
 20
0.0
 30
0.0
 11
383.164104
 21
285.0
 31
0.0
 12
-8000.0
 22
-144000.0
 32
0.0
 13
30.0
 23
570.0
 33
0.0
 14
0.0
 24
0.0
 34
0.0
 50
90.0
  0
CIRCLE
  5
8E
  8
TEAM-COLD
 10
75.0
 20
600.0
 30
0.0
 40
10.0
  0
LINE
  5
90
  8
TEAM-AXE
 10
75.0
 20
620.0
 30
0.0
 11
75.0
 21
580.0
 31
0.0
210
0.0
220
-0.0
230
-1.0
  0
LINE
  5
91
  8
TEAM-AXE
 10
-30.0
 20
570.0
 30
0.0
 11
30.0
 21
570.0
 31
0.0
  0
CIRCLE
  5
92
  8
TEAM-KAN
 10
0.0
 20
570.0
 30
0.0
 40
20.0
  0
LINE
  5
94
  8
TEAM-AXE
 10
-30.0
 20
570.0
 30
0.0
 11
30.0
 21
570.0
 31
0.0
  0
CIRCLE
  5
95
  8
TEAM-KAN
 10
0.0
 20
570.0
 30
0.0
 40
20.0
  0
LINE
  5
96
  8
TEAM-AXE
 10
-95.0
 20
600.0
 30
0.0
 11
-55.0
 21
600.0
 31
0.0
  0
CIRCLE
  5
97
  8
TEAM-WARM
 10
-75.0
 20
600.0
 30
0.0
 40
10.0
  0
LINE
  5
99
  8
TEAM-AXE
 10
-75.0
 20
620.0
 30
0.0
 11
-75.0
 21
580.0
 31
0.0
210
0.0
220
-0.0
230
-1.0
  0
LINE
  5
9A
  8
STANDARDEBENE
 62
     2
 10
-36.647835
 20
753.946001
 30
0.0
 11
-36.647835
 21
729.376297
 31
0.0
  0
LINE
  5
9B
  8
STANDARDEBENE
 62
     2
 10
38.348533
 20
729.376297
 30
0.0
 11
38.348533
 21
755.001604
 31
0.0
  0
LINE
  5
9C
  8
STANDARDEBENE
 62
     2
 10
-36.647835
 20
729.376297
 30
0.0
 11
38.348533
 21
729.376297
 31
0.0
  0
LINE
  5
9D
  8
TEAM-AXE
 10
55.0
 20
600.0
 30
0.0
 11
95.0
 21
600.0
 31
0.0
  0
LINE
  5
9E
  8
STANDARDEBENE
 62
     2
 10
-66.116112
 20
755.001604
 30
0.0
 11
66.17968
 21
755.001604
 31
0.0
  0
CIRCLE
  5
9F
  8
TEAM-INSP
 10
0.0
 20
0.0
 30
0.0
 40
10.0
  0
DIMENSION
  5
A1
  8
TEAM-MAS
  2
*D6
 10
75.0
 20
379.793753
 30
0.0
 11
-0.697566
 21
412.295007
 31
0.0
 12
-8000.0
 22
-144000.0
 32
0.0
 70
   128
 13
-75.0
 23
580.0
 33
0.0
 14
75.0
 24
580.0
 34
0.0
  0
POLYLINE
  5
AE
  8
STANDARDEBENE
 62
     2
 66
     1
 10
0.0
 20
0.0
 30
0.0
  0
VERTEX
  5
2C2
  8
STANDARDEBENE
 62
     2
 10
147.037956
 20
899.998542
 30
0.0
  0
VERTEX
  5
2C3
  8
STANDARDEBENE
 62
     2
 10
147.246635
 20
900.009223
 30
0.0
  0
VERTEX
  5
2C4
  8
STANDARDEBENE
 62
     2
 10
147.835991
 20
900.028449
 30
0.0
  0
VERTEX
  5
2C5
  8
STANDARDEBENE
 62
     2
 10
148.750908
 20
900.036994
 30
0.0
  0
VERTEX
  5
2C6
  8
STANDARDEBENE
 62
     2
 10
149.936454
 20
900.015693
 30
0.0
  0
VERTEX
  5
2C7
  8
STANDARDEBENE
 62
     2
 10
151.337394
 20
899.945259
 30
0.0
  0
VERTEX
  5
2C8
  8
STANDARDEBENE
 62
     2
 10
152.898796
 20
899.806526
 30
0.0
  0
VERTEX
  5
2C9
  8
STANDARDEBENE
 62
     2
 10
154.565544
 20
899.580268
 30
0.0
  0
VERTEX
  5
2CA
  8
STANDARDEBENE
 62
     2
 10
156.282646
 20
899.247261
 30
0.0
  0
VERTEX
  5
2CB
  8
STANDARDEBENE
 62
     2
 10
157.994926
 20
898.788337
 30
0.0
  0
VERTEX
  5
2CC
  8
STANDARDEBENE
 62
     2
 10
159.647453
 20
898.18415
 30
0.0
  0
VERTEX
  5
2CD
  8
STANDARDEBENE
 62
     2
 10
161.185112
 20
897.415657
 30
0.0
  0
VERTEX
  5
2CE
  8
STANDARDEBENE
 62
     2
 10
162.552787
 20
896.463508
 30
0.0
  0
VERTEX
  5
2CF
  8
STANDARDEBENE
 62
     2
 10
163.695488
 20
895.308601
 30
0.0
  0
VERTEX
  5
2D0
  8
STANDARDEBENE
 62
     2
 10
164.558159
 20
893.931587
 30
0.0
  0
VERTEX
  5
2D1
  8
STANDARDEBENE
 62
     2
 10
165.085685
 20
892.313362
 30
0.0
  0
VERTEX
  5
2D2
  8
STANDARDEBENE
 62
     2
 10
165.223076
 20
890.434699
 30
0.0
  0
VERTEX
  5
2D3
  8
STANDARDEBENE
 62
     2
 10
164.915214
 20
888.276313
 30
0.0
  0
VERTEX
  5
2D4
  8
STANDARDEBENE
 62
     2
 10
164.107048
 20
885.819038
 30
0.0
  0
VERTEX
  5
2D5
  8
STANDARDEBENE
 62
     2
 10
162.743522
 20
883.043647
 30
0.0
  0
VERTEX
  5
2D6
  8
STANDARDEBENE
 62
     2
 10
160.769645
 20
879.930976
 30
0.0
  0
SEQEND
  5
2D7
  8
STANDARDEBENE
 62
     2
  0
ARC
  5
AF
  8
STANDARDEBENE
 62
     2
 10
-46.834317
 20
959.109648
 30
0.0
 40
221.58864
 50
304.205657
 51
339.064129
  0
ARC
  5
B0
  8
STANDARDEBENE
 62
     2
 10
46.834317
 20
959.109648
 30
0.0
 40
221.58864
 50
200.935871
 51
235.794343
  0
LINE
  5
B1
  8
STANDARDEBENE
 62
     2
 10
-72.45356
 20
774.794715
 30
0.0
 11
-30.202187
 21
774.794715
 31
0.0
  0
POLYLINE
  5
B2
  8
STANDARDEBENE
 62
     2
 66
     1
 10
0.0
 20
0.0
 30
0.0
  0
VERTEX
  5
2D8
  8
STANDARDEBENE
 62
     2
 10
-146.393669
 20
899.998542
 30
0.0
  0
VERTEX
  5
2D9
  8
STANDARDEBENE
 62
     2
 10
-146.602349
 20
900.009223
 30
0.0
  0
VERTEX
  5
2DA
  8
STANDARDEBENE
 62
     2
 10
-147.191689
 20
900.028449
 30
0.0
  0
VERTEX
  5
2DB
  8
STANDARDEBENE
 62
     2
 10
-148.106636
 20
900.036994
 30
0.0
  0
VERTEX
  5
2DC
  8
STANDARDEBENE
 62
     2
 10
-149.292122
 20
900.015693
 30
0.0
  0
VERTEX
  5
2DD
  8
STANDARDEBENE
 62
     2
 10
-150.693093
 20
899.945259
 30
0.0
  0
VERTEX
  5
2DE
  8
STANDARDEBENE
 62
     2
 10
-152.254494
 20
899.806526
 30
0.0
  0
VERTEX
  5
2DF
  8
STANDARDEBENE
 62
     2
 10
-153.921242
 20
899.580268
 30
0.0
  0
VERTEX
  5
2E0
  8
STANDARDEBENE
 62
     2
 10
-155.638298
 20
899.247261
 30
0.0
  0
VERTEX
  5
2E1
  8
STANDARDEBENE
 62
     2
 10
-157.350609
 20
898.788337
 30
0.0
  0
VERTEX
  5
2E2
  8
STANDARDEBENE
 62
     2
 10
-159.003106
 20
898.18415
 30
0.0
  0
VERTEX
  5
2E3
  8
STANDARDEBENE
 62
     2
 10
-160.540718
 20
897.415657
 30
0.0
  0
VERTEX
  5
2E4
  8
STANDARDEBENE
 62
     2
 10
-161.908409
 20
896.463508
 30
0.0
  0
VERTEX
  5
2E5
  8
STANDARDEBENE
 62
     2
 10
-163.05111
 20
895.308601
 30
0.0
  0
VERTEX
  5
2E6
  8
STANDARDEBENE
 62
     2
 10
-163.913758
 20
893.931587
 30
0.0
  0
VERTEX
  5
2E7
  8
STANDARDEBENE
 62
     2
 10
-164.441292
 20
892.313362
 30
0.0
  0
VERTEX
  5
2E8
  8
STANDARDEBENE
 62
     2
 10
-164.578659
 20
890.434699
 30
0.0
  0
VERTEX
  5
2E9
  8
STANDARDEBENE
 62
     2
 10
-164.270798
 20
888.276313
 30
0.0
  0
VERTEX
  5
2EA
  8
STANDARDEBENE
 62
     2
 10
-163.462647
 20
885.819038
 30
0.0
  0
VERTEX
  5
2EB
  8
STANDARDEBENE
 62
     2
 10
-162.099152
 20
883.043647
 30
0.0
  0
VERTEX
  5
2EC
  8
STANDARDEBENE
 62
     2
 10
-160.125252
 20
879.930976
 30
0.0
  0
SEQEND
  5
2ED
  8
STANDARDEBENE
 62
     2
  0
TEXT
  5
B3
  8
TEAM-TXT
 10
-123.533744
 20
864.04967
 30
0.0
 40
30.0
  1
team 211117
 41
0.8
 51
15.0
  7
TEAM
  0
LINE
  5
B6
  8
STANDARDEBENE
 62
     2
 10
-146.393669
 20
900.000007
 30
0.0
 11
146.393669
 21
900.000007
 31
0.0
  0
LINE
  5
B7
  8
STANDARDEBENE
 62
     2
 10
75.21096
 20
774.794715
 30
0.0
 11
23.452781
 21
774.794715
 31
0.0
  0
ENDSEC
  0
EOF
