  0
SECTION
  2
HEADER
  9
$ACADVER
  1
AC1009
  9
$INSBASE
 10
0.0
 20
0.0
 30
0.0
  9
$EXTMIN
 10
-302.124924
 20
-10.040697
 30
-20.000988
  9
$EXTMAX
 10
605.786319
 20
976.148497
 30
20.001089
  9
$LIMMIN
 10
-302.124924
 20
-10.040697
  9
$LIMMAX
 10
605.786319
 20
976.148497
  9
$ORTHOMODE
 70
     1
  9
$REGENMODE
 70
     1
  9
$FILLMODE
 70
     1
  9
$QTEXTMODE
 70
     0
  9
$MIRRTEXT
 70
     0
  9
$DRAGMODE
 70
     2
  9
$LTSCALE
 40
25.0
  9
$OSMODE
 70
     0
  9
$ATTMODE
 70
     1
  9
$TEXTSIZE
 40
200.0
  9
$TRACEWID
 40
1.0
  9
$TEXTSTYLE
  7
STANDARD
  9
$CLAYER
  8
TEAM-MAS
  9
$CELTYPE
  6
BYLAYER
  9
$CECOLOR
 62
   256
  9
$DIMSCALE
 40
0.0
  9
$DIMASZ
 40
20.0
  9
$DIMEXO
 40
10.0
  9
$DIMDLI
 40
1.0
  9
$DIMRND
 40
0.0
  9
$DIMDLE
 40
0.0
  9
$DIMEXE
 40
1.0
  9
$DIMTP
 40
0.0
  9
$DIMTM
 40
0.0
  9
$DIMTXT
 40
35.0
  9
$DIMCEN
 40
1.0
  9
$DIMTSZ
 40
0.0
  9
$DIMTOL
 70
     0
  9
$DIMLIM
 70
     0
  9
$DIMTIH
 70
     0
  9
$DIMTOH
 70
     0
  9
$DIMSE1
 70
     0
  9
$DIMSE2
 70
     0
  9
$DIMTAD
 70
     0
  9
$DIMZIN
 70
     0
  9
$DIMBLK
  1

  9
$DIMASO
 70
     1
  9
$DIMSHO
 70
     0
  9
$DIMPOST
  1

  9
$DIMAPOST
  1

  9
$DIMALT
 70
     0
  9
$DIMALTD
 70
     2
  9
$DIMALTF
 40
25.4
  9
$DIMLFAC
 40
1.0
  9
$DIMTOFL
 70
     0
  9
$DIMTVP
 40
0.0
  9
$DIMTIX
 70
     0
  9
$DIMSOXD
 70
     0
  9
$DIMSAH
 70
     0
  9
$DIMBLK1
  1

  9
$DIMBLK2
  1

  9
$DIMSTYLE
  2
TEAM
  9
$DIMCLRD
 70
     9
  9
$DIMCLRE
 70
     9
  9
$DIMCLRT
 70
    11
  9
$DIMTFAC
 40
1.0
  9
$DIMGAP
 40
15.0
  9
$LUNITS
 70
     2
  9
$LUPREC
 70
     1
  9
$SKETCHINC
 40
1.0
  9
$FILLETRAD
 40
50.0
  9
$AUNITS
 70
     0
  9
$AUPREC
 70
     0
  9
$MENU
  1
ROPLANS
  9
$ELEVATION
 40
0.0
  9
$PELEVATION
 40
0.0
  9
$THICKNESS
 40
0.0
  9
$LIMCHECK
 70
     0
  9
$BLIPMODE
 70
     1
  9
$CHAMFERA
 40
0.0
  9
$CHAMFERB
 40
0.0
  9
$SKPOLY
 70
     0
  9
$TDCREATE
 40
2450392.957851
  9
$TDUPDATE
 40
2455498.624065
  9
$TDINDWG
 40
1.987034
  9
$TDUSRTIMER
 40
1.987034
  9
$USRTIMER
 70
     1
  9
$ANGBASE
 50
0.0
  9
$ANGDIR
 70
     0
  9
$PDMODE
 70
     0
  9
$PDSIZE
 40
0.0
  9
$PLINEWID
 40
0.0
  9
$COORDS
 70
     2
  9
$SPLFRAME
 70
     0
  9
$SPLINETYPE
 70
     6
  9
$SPLINESEGS
 70
     8
  9
$ATTDIA
 70
     0
  9
$ATTREQ
 70
     0
  9
$HANDLING
 70
     1
  9
$HANDSEED
  5
1CB
  9
$SURFTAB1
 70
    24
  9
$SURFTAB2
 70
    24
  9
$SURFTYPE
 70
     6
  9
$SURFU
 70
     6
  9
$SURFV
 70
     6
  9
$UCSNAME
  2

  9
$UCSORG
 10
0.0
 20
0.0
 30
0.0
  9
$UCSXDIR
 10
1.0
 20
0.0
 30
0.0
  9
$UCSYDIR
 10
0.0
 20
1.0
 30
0.0
  9
$PUCSNAME
  2

  9
$PUCSORG
 10
0.0
 20
0.0
 30
0.0
  9
$PUCSXDIR
 10
1.0
 20
0.0
 30
0.0
  9
$PUCSYDIR
 10
0.0
 20
1.0
 30
0.0
  9
$USERI1
 70
     0
  9
$USERI2
 70
     0
  9
$USERI3
 70
     0
  9
$USERI4
 70
     0
  9
$USERI5
 70
     0
  9
$USERR1
 40
0.0
  9
$USERR2
 40
0.0
  9
$USERR3
 40
0.0
  9
$USERR4
 40
0.0
  9
$USERR5
 40
0.0
  9
$WORLDVIEW
 70
     1
  9
$SHADEDGE
 70
     0
  9
$SHADEDIF
 70
    70
  9
$TILEMODE
 70
     1
  9
$MAXACTVP
 70
    16
  9
$PLIMCHECK
 70
     0
  9
$PEXTMIN
 10
-0.805942
 20
0.005011
 30
0.0
  9
$PEXTMAX
 10
20.250094
 20
11.356329
 30
0.0
  9
$PLIMMIN
 10
0.0
 20
0.0
  9
$PLIMMAX
 10
12.0
 20
9.0
  9
$UNITMODE
 70
     0
  9
$VISRETAIN
 70
     0
  9
$PLINEGEN
 70
     0
  9
$PSLTSCALE
 70
     0
  0
ENDSEC
  0
SECTION
  2
TABLES
  0
TABLE
  2
VPORT
 70
     2
  0
VPORT
  2
*ACTIVE
 70
     0
 10
0.0
 20
0.0
 11
1.0
 21
1.0
 12
151.830698
 22
483.0539
 13
0.0
 23
0.0
 14
1.0
 24
1.0
 15
50.0
 25
50.0
 16
0.0
 26
0.0
 36
1.0
 17
0.0
 27
0.0
 37
0.0
 40
992.245628
 41
1.865779
 42
50.0
 43
0.0
 44
0.0
 50
0.0
 51
0.0
 71
     0
 72
   100
 73
     1
 74
     1
 75
     0
 76
     0
 77
     0
 78
     0
  0
ENDTAB
  0
TABLE
  2
LTYPE
 70
     3
  0
LTYPE
  2
CONTINUOUS
 70
     0
  3
Solid Line
 72
    65
 73
     0
 40
0.0
  0
LTYPE
  2
31
 70
     0
  3

 72
    65
 73
     4
 40
2.1
 49
1.5
 49
-0.3
 49
0.0
 49
-0.3
  0
LTYPE
  2
22
 70
     0
  3

 72
    65
 73
     2
 40
1.4
 49
1.2
 49
-0.2
  0
ENDTAB
  0
TABLE
  2
LAYER
 70
    11
  0
LAYER
  2
0
 70
     0
 62
     7
  6
CONTINUOUS
  0
LAYER
  2
DEFPOINTS
 70
     0
 62
     7
  6
CONTINUOUS
  0
LAYER
  2
TEAM-BODY
 70
     0
 62
     2
  6
CONTINUOUS
  0
LAYER
  2
TEAM-AXE
 70
     0
 62
    10
  6
31
  0
LAYER
  2
TEAM-MAS
 70
     0
 62
     9
  6
CONTINUOUS
  0
LAYER
  2
TEAM-TXT
 70
     0
 62
    11
  6
CONTINUOUS
  0
LAYER
  2
TEAM-COLD
 70
     0
 62
     3
  6
CONTINUOUS
  0
LAYER
  2
TEAM-HIDE
 70
     0
 62
     8
  6
22
  0
LAYER
  2
TEAM-KAN
 70
     0
 62
     6
  6
CONTINUOUS
  0
LAYER
  2
TEAM-WARM
 70
     0
 62
     1
  6
CONTINUOUS
  0
LAYER
  2
TEAM-INSP
 70
     0
 62
     5
  6
CONTINUOUS
  0
ENDTAB
  0
TABLE
  2
STYLE
 70
     2
  0
STYLE
  2
STANDARD
 70
     0
 40
0.0
 41
1.0
 50
0.0
 71
     0
 42
200.0
  3
txt
  4

  0
STYLE
  2
TEAM
 70
     0
 40
0.0
 41
0.8
 50
15.0
 71
     0
 42
7.0
  3
ROMANS.shx
  4

  0
ENDTAB
  0
TABLE
  2
VIEW
 70
     0
  0
ENDTAB
  0
TABLE
  2
UCS
 70
     0
  0
ENDTAB
  0
TABLE
  2
APPID
 70
     1
  0
APPID
  2
ACAD
 70
     0
  0
ENDTAB
  0
TABLE
  2
DIMSTYLE
 70
     1
  0
DIMSTYLE
  2
TEAM
 70
     0
  3

  4

  5

  6

  7

 40
0.0
 41
20.0
 42
10.0
 43
1.0
 44
1.0
 45
0.0
 46
0.0
 47
0.0
 48
0.0
140
35.0
141
1.0
142
0.0
143
25.4
144
1.0
145
0.0
146
1.0
147
15.0
 71
     0
 72
     0
 73
     0
 74
     0
 75
     0
 76
     0
 77
     0
 78
     0
170
     0
171
     2
172
     0
173
     0
174
     0
175
     0
176
     9
177
     9
178
    11
  0
ENDTAB
  0
ENDSEC
  0
SECTION
  2
BLOCKS
  0
BLOCK
  8
0
  2
$MODEL_SPACE
 70
     0
 10
0.0
 20
0.0
 30
0.0
  3
$MODEL_SPACE
  1

  0
ENDBLK
  5
1AB
  8
0
  0
BLOCK
 67
     1
  8
0
  2
$PAPER_SPACE
 70
     0
 10
0.0
 20
0.0
 30
0.0
  3
$PAPER_SPACE
  1

  0
ENDBLK
  5
1A9
 67
     1
  8
0
  0
BLOCK
  8
0
  2
*D0
 70
     1
 10
0.0
 20
0.0
 30
0.0
  3
*D0
  1

  0
LINE
  5
86
  8
0
  6
BYBLOCK
 62
     9
 10
8010.0
 20
204850.0
 30
0.0
 11
8418.508855
 21
204850.0
 31
0.0
  0
LINE
  5
87
  8
0
  6
BYBLOCK
 62
     9
 10
8045.0
 20
204685.0
 30
0.0
 11
8418.508855
 21
204685.0
 31
0.0
  0
LINE
  5
88
  8
0
  6
BYBLOCK
 62
     9
 10
8417.508855
 20
204830.0
 30
0.0
 11
8417.508855
 21
204811.224874
 31
0.0
  0
LINE
  5
89
  8
0
  6
BYBLOCK
 62
     9
 10
8417.508855
 20
204705.0
 30
0.0
 11
8417.508855
 21
204723.775126
 31
0.0
  0
SOLID
  5
8A
  8
0
  6
BYBLOCK
 62
     9
 10
8414.175522
 20
204830.0
 30
0.0
 11
8420.842188
 21
204830.0
 31
0.0
 12
8417.508855
 22
204850.0
 32
0.0
 13
8417.508855
 23
204850.0
 33
0.0
  0
SOLID
  5
8B
  8
0
  6
BYBLOCK
 62
     9
 10
8414.175522
 20
204705.0
 30
0.0
 11
8420.842188
 21
204705.0
 31
0.0
 12
8417.508855
 22
204685.0
 32
0.0
 13
8417.508855
 23
204685.0
 33
0.0
  0
TEXT
  5
8C
  8
0
  6
BYBLOCK
 62
    11
 10
8435.008855
 20
204733.525126
 30
0.0
 40
35.0
  1
165
 50
90.0
  0
POINT
  5
8D
  8
DEFPOINTS
  6
BYBLOCK
 62
     0
 10
8000.0
 20
204850.0
 30
0.0
  0
POINT
  5
8E
  8
DEFPOINTS
  6
BYBLOCK
 62
     0
 10
8035.0
 20
204685.0
 30
0.0
  0
POINT
  5
8F
  8
DEFPOINTS
  6
BYBLOCK
 62
     0
 10
8417.508855
 20
204685.0
 30
10.0
  0
ENDBLK
  5
91
  8
0
  0
BLOCK
  8
0
  2
*D1
 70
     1
 10
0.0
 20
0.0
 30
0.0
  3
*D1
  1

  0
LINE
  5
4D
  8
0
  6
BYBLOCK
 62
     9
 10
8094.949874
 20
204630.0
 30
0.0
 11
8476.967067
 21
204630.0
 31
0.0
  0
LINE
  5
4E
  8
0
  6
BYBLOCK
 62
     9
 10
8010.0
 20
204000.0
 30
0.0
 11
8476.967067
 21
204000.0
 31
0.0
  0
LINE
  5
4F
  8
0
  6
BYBLOCK
 62
     9
 10
8475.967067
 20
204610.0
 30
0.0
 11
8475.967067
 21
204362.561024
 31
0.0
  0
LINE
  5
50
  8
0
  6
BYBLOCK
 62
     9
 10
8475.967067
 20
204020.0
 30
0.0
 11
8475.967067
 21
204267.438976
 31
0.0
  0
SOLID
  5
51
  8
0
  6
BYBLOCK
 62
     9
 10
8472.633733
 20
204610.0
 30
0.0
 11
8479.3004
 21
204610.0
 31
0.0
 12
8475.967067
 22
204630.0
 32
0.0
 13
8475.967067
 23
204630.0
 33
0.0
  0
SOLID
  5
52
  8
0
  6
BYBLOCK
 62
     9
 10
8472.633733
 20
204020.0
 30
0.0
 11
8479.3004
 21
204020.0
 31
0.0
 12
8475.967067
 22
204000.0
 32
0.0
 13
8475.967067
 23
204000.0
 33
0.0
  0
TEXT
  5
53
  8
0
  6
BYBLOCK
 62
    11
 10
8493.467067
 20
204279.283465
 30
0.0
 40
35.0
  1
630
 50
90.0
  0
POINT
  5
54
  8
DEFPOINTS
  6
BYBLOCK
 62
     0
 10
8084.949874
 20
204630.0
 30
0.0
  0
POINT
  5
55
  8
DEFPOINTS
  6
BYBLOCK
 62
     0
 10
8000.0
 20
204000.0
 30
0.0
  0
POINT
  5
56
  8
DEFPOINTS
  6
BYBLOCK
 62
     0
 10
8475.967067
 20
204000.0
 30
20.0
  0
ENDBLK
  5
58
  8
0
  0
BLOCK
  8
0
  2
*D2
 70
     1
 10
0.0
 20
0.0
 30
0.0
  3
*D2
  1

  0
LINE
  5
3F
  8
0
  6
BYBLOCK
 62
     9
 10
8030.0
 20
204520.0
 30
0.0
 11
8536.102862
 21
204520.0
 31
0.0
  0
LINE
  5
40
  8
0
  6
BYBLOCK
 62
     9
 10
8010.0
 20
204000.0
 30
0.0
 11
8536.102862
 21
204000.0
 31
0.0
  0
LINE
  5
41
  8
0
  6
BYBLOCK
 62
     9
 10
8535.102862
 20
204500.0
 30
0.0
 11
8535.102862
 21
204306.51378
 31
0.0
  0
LINE
  5
42
  8
0
  6
BYBLOCK
 62
     9
 10
8535.102862
 20
204020.0
 30
0.0
 11
8535.102862
 21
204213.48622
 31
0.0
  0
SOLID
  5
43
  8
0
  6
BYBLOCK
 62
     9
 10
8531.769529
 20
204500.0
 30
0.0
 11
8538.436196
 21
204500.0
 31
0.0
 12
8535.102862
 22
204520.0
 32
0.0
 13
8535.102862
 23
204520.0
 33
0.0
  0
SOLID
  5
44
  8
0
  6
BYBLOCK
 62
     9
 10
8531.769529
 20
204020.0
 30
0.0
 11
8538.436196
 21
204020.0
 31
0.0
 12
8535.102862
 22
204000.0
 32
0.0
 13
8535.102862
 23
204000.0
 33
0.0
  0
TEXT
  5
45
  8
0
  6
BYBLOCK
 62
    11
 10
8552.602862
 20
204223.23622
 30
0.0
 40
35.0
  1
520
 50
90.0
  0
POINT
  5
46
  8
DEFPOINTS
  6
BYBLOCK
 62
     0
 10
8020.0
 20
204520.0
 30
10.0
  0
POINT
  5
47
  8
DEFPOINTS
  6
BYBLOCK
 62
     0
 10
8000.0
 20
204000.0
 30
10.0
  0
POINT
  5
48
  8
DEFPOINTS
  6
BYBLOCK
 62
     0
 10
8535.102862
 20
204000.0
 30
10.0
  0
ENDBLK
  5
4A
  8
0
  0
BLOCK
  8
0
  2
*D3
 70
     1
 10
0.0
 20
0.0
 30
0.0
  3
*D3
  1

  0
LINE
  5
31
  8
0
  6
BYBLOCK
 62
     9
 10
8010.0
 20
204850.0
 30
0.0
 11
8536.102862
 21
204850.0
 31
0.0
  0
LINE
  5
32
  8
0
  6
BYBLOCK
 62
     9
 10
8030.0
 20
204520.0
 30
0.0
 11
8536.102862
 21
204520.0
 31
0.0
  0
LINE
  5
33
  8
0
  6
BYBLOCK
 62
     9
 10
8535.102862
 20
204830.0
 30
0.0
 11
8535.102862
 21
204731.51378
 31
0.0
  0
LINE
  5
34
  8
0
  6
BYBLOCK
 62
     9
 10
8535.102862
 20
204540.0
 30
0.0
 11
8535.102862
 21
204638.48622
 31
0.0
  0
SOLID
  5
35
  8
0
  6
BYBLOCK
 62
     9
 10
8531.769529
 20
204830.0
 30
0.0
 11
8538.436196
 21
204830.0
 31
0.0
 12
8535.102862
 22
204850.0
 32
0.0
 13
8535.102862
 23
204850.0
 33
0.0
  0
SOLID
  5
36
  8
0
  6
BYBLOCK
 62
     9
 10
8531.769529
 20
204540.0
 30
0.0
 11
8538.436196
 21
204540.0
 31
0.0
 12
8535.102862
 22
204520.0
 32
0.0
 13
8535.102862
 23
204520.0
 33
0.0
  0
TEXT
  5
37
  8
0
  6
BYBLOCK
 62
    11
 10
8552.602862
 20
204648.23622
 30
0.0
 40
35.0
  1
330
 50
90.0
  0
POINT
  5
38
  8
DEFPOINTS
  6
BYBLOCK
 62
     0
 10
8000.0
 20
204850.0
 30
10.0
  0
POINT
  5
39
  8
DEFPOINTS
  6
BYBLOCK
 62
     0
 10
8020.0
 20
204520.0
 30
10.0
  0
POINT
  5
3A
  8
DEFPOINTS
  6
BYBLOCK
 62
     0
 10
8535.102862
 20
204520.0
 30
20.0
  0
ENDBLK
  5
3C
  8
0
  0
BLOCK
  8
0
  2
*D4
 70
     1
 10
0.0
 20
0.0
 30
0.0
  3
*D4
  1

  0
LINE
  5
78
  8
0
  6
BYBLOCK
 62
     9
 10
8094.949874
 20
204630.0
 30
0.0
 11
8476.967067
 21
204630.0
 31
0.0
  0
LINE
  5
79
  8
0
  6
BYBLOCK
 62
     9
 10
8010.0
 20
204850.0
 30
0.0
 11
8476.967067
 21
204850.0
 31
0.0
  0
LINE
  5
7A
  8
0
  6
BYBLOCK
 62
     9
 10
8475.967067
 20
204650.0
 30
0.0
 11
8475.967067
 21
204693.041831
 31
0.0
  0
LINE
  5
7B
  8
0
  6
BYBLOCK
 62
     9
 10
8475.967067
 20
204830.0
 30
0.0
 11
8475.967067
 21
204786.958169
 31
0.0
  0
SOLID
  5
7C
  8
0
  6
BYBLOCK
 62
     9
 10
8472.633733
 20
204650.0
 30
0.0
 11
8479.3004
 21
204650.0
 31
0.0
 12
8475.967067
 22
204630.0
 32
0.0
 13
8475.967067
 23
204630.0
 33
0.0
  0
SOLID
  5
7D
  8
0
  6
BYBLOCK
 62
     9
 10
8472.633733
 20
204830.0
 30
0.0
 11
8479.3004
 21
204830.0
 31
0.0
 12
8475.967067
 22
204850.0
 32
0.0
 13
8475.967067
 23
204850.0
 33
0.0
  0
TEXT
  5
7E
  8
0
  6
BYBLOCK
 62
    11
 10
8493.467067
 20
204703.68061
 30
0.0
 40
35.0
  1
220
 50
90.0
  0
POINT
  5
7F
  8
DEFPOINTS
  6
BYBLOCK
 62
     0
 10
8084.949874
 20
204630.0
 30
0.0
  0
POINT
  5
80
  8
DEFPOINTS
  6
BYBLOCK
 62
     0
 10
8000.0
 20
204850.0
 30
0.0
  0
POINT
  5
81
  8
DEFPOINTS
  6
BYBLOCK
 62
     0
 10
8475.967067
 20
204850.0
 30
0.0
  0
ENDBLK
  5
83
  8
0
  0
BLOCK
  8
0
  2
*D5
 70
     1
 10
0.0
 20
0.0
 30
0.0
  3
*D5
  1

  0
LINE
  5
C1
  8
0
  6
BYBLOCK
 62
     9
 10
7700.0
 20
204850.0
 30
0.0
 11
7700.0
 21
204959.815824
 31
0.0
  0
LINE
  5
C2
  8
0
  6
BYBLOCK
 62
     9
 10
8300.0
 20
204850.0
 30
0.0
 11
8300.0
 21
204959.815824
 31
0.0
  0
LINE
  5
C3
  8
0
  6
BYBLOCK
 62
     9
 10
7720.0
 20
204958.815824
 30
0.0
 11
7952.438976
 21
204958.815824
 31
0.0
  0
LINE
  5
C4
  8
0
  6
BYBLOCK
 62
     9
 10
8280.0
 20
204958.815824
 30
0.0
 11
8047.561024
 21
204958.815824
 31
0.0
  0
SOLID
  5
C5
  8
0
  6
BYBLOCK
 62
     9
 10
7720.0
 20
204962.149158
 30
0.0
 11
7720.0
 21
204955.482491
 31
0.0
 12
7700.0
 22
204958.815824
 32
0.0
 13
7700.0
 23
204958.815824
 33
0.0
  0
SOLID
  5
C6
  8
0
  6
BYBLOCK
 62
     9
 10
8280.0
 20
204962.149158
 30
0.0
 11
8280.0
 21
204955.482491
 31
0.0
 12
8300.0
 22
204958.815824
 32
0.0
 13
8300.0
 23
204958.815824
 33
0.0
  0
TEXT
  5
C7
  8
0
  6
BYBLOCK
 62
    11
 10
7964.283465
 20
204941.315824
 30
0.0
 40
35.0
  1
600
  0
POINT
  5
C8
  8
DEFPOINTS
  6
BYBLOCK
 62
     0
 10
7700.0
 20
204840.0
 30
0.0
  0
POINT
  5
C9
  8
DEFPOINTS
  6
BYBLOCK
 62
     0
 10
8300.0
 20
204840.0
 30
0.0
  0
POINT
  5
CA
  8
DEFPOINTS
  6
BYBLOCK
 62
     0
 10
8300.0
 20
204958.815824
 30
0.0
  0
ENDBLK
  5
CC
  8
0
  0
BLOCK
  8
0
  2
*D6
 70
     1
 10
0.0
 20
0.0
 30
0.0
  3
*D6
  1

  0
LINE
  5
6A
  8
0
  6
BYBLOCK
 62
     9
 10
8010.0
 20
204850.0
 30
0.0
 11
8589.578098
 21
204850.0
 31
0.0
  0
LINE
  5
6B
  8
0
  6
BYBLOCK
 62
     9
 10
8010.0
 20
204000.0
 30
0.0
 11
8589.578098
 21
204000.0
 31
0.0
  0
LINE
  5
6C
  8
0
  6
BYBLOCK
 62
     9
 10
8588.578098
 20
204830.0
 30
0.0
 11
8588.578098
 21
204471.51378
 31
0.0
  0
LINE
  5
6D
  8
0
  6
BYBLOCK
 62
     9
 10
8588.578098
 20
204020.0
 30
0.0
 11
8588.578098
 21
204378.48622
 31
0.0
  0
SOLID
  5
6E
  8
0
  6
BYBLOCK
 62
     9
 10
8585.244765
 20
204830.0
 30
0.0
 11
8591.911431
 21
204830.0
 31
0.0
 12
8588.578098
 22
204850.0
 32
0.0
 13
8588.578098
 23
204850.0
 33
0.0
  0
SOLID
  5
6F
  8
0
  6
BYBLOCK
 62
     9
 10
8585.244765
 20
204020.0
 30
0.0
 11
8591.911431
 21
204020.0
 31
0.0
 12
8588.578098
 22
204000.0
 32
0.0
 13
8588.578098
 23
204000.0
 33
0.0
  0
TEXT
  5
70
  8
0
  6
BYBLOCK
 62
    11
 10
8606.078098
 20
204388.23622
 30
0.0
 40
35.0
  1
850
 50
90.0
  0
POINT
  5
71
  8
DEFPOINTS
  6
BYBLOCK
 62
     0
 10
8000.0
 20
204850.0
 30
0.0
  0
POINT
  5
72
  8
DEFPOINTS
  6
BYBLOCK
 62
     0
 10
8000.0
 20
204000.0
 30
0.0
  0
POINT
  5
73
  8
DEFPOINTS
  6
BYBLOCK
 62
     0
 10
8588.578098
 20
204000.0
 30
10.0
  0
ENDBLK
  5
75
  8
0
  0
BLOCK
  8
0
  2
*D7
 70
     1
 10
0.0
 20
0.0
 30
0.0
  3
*D7
  1

  0
LINE
  5
22
  8
0
  6
BYBLOCK
 62
     9
 10
7925.0
 20
204619.783522
 30
0.0
 11
7925.0
 21
204393.761843
 31
0.0
  0
LINE
  5
23
  8
0
  6
BYBLOCK
 62
     9
 10
8075.0
 20
204620.0
 30
0.0
 11
8075.0
 21
204393.761843
 31
0.0
  0
LINE
  5
24
  8
0
  6
BYBLOCK
 62
     9
 10
7945.0
 20
204394.761843
 30
0.0
 11
7960.0
 21
204394.761843
 31
0.0
  0
LINE
  5
25
  8
0
  6
BYBLOCK
 62
     9
 10
8055.0
 20
204394.761843
 30
0.0
 11
8040.0
 21
204394.761843
 31
0.0
  0
TEXT
  5
26
  8
0
  6
BYBLOCK
 62
    11
 10
7966.73622
 20
204377.261843
 30
0.0
 40
35.0
  1
150
  0
SOLID
  5
27
  8
0
  6
BYBLOCK
 62
     9
 10
7945.0
 20
204398.095176
 30
0.0
 11
7945.0
 21
204391.428509
 31
0.0
 12
7925.0
 22
204394.761843
 32
0.0
 13
7925.0
 23
204394.761843
 33
0.0
  0
SOLID
  5
28
  8
0
  6
BYBLOCK
 62
     9
 10
8055.0
 20
204398.095176
 30
0.0
 11
8055.0
 21
204391.428509
 31
0.0
 12
8075.0
 22
204394.761843
 32
0.0
 13
8075.0
 23
204394.761843
 33
0.0
  0
POINT
  5
29
  8
DEFPOINTS
  6
BYBLOCK
 62
     0
 10
7925.0
 20
204629.783522
 30
20.0
  0
POINT
  5
2B
  8
DEFPOINTS
  6
BYBLOCK
 62
     0
 10
8075.0
 20
204630.0
 30
20.0
  0
POINT
  5
2C
  8
DEFPOINTS
  6
BYBLOCK
 62
     0
 10
8075.0
 20
204394.761843
 30
30.0
  0
ENDBLK
  5
2E
  8
0
  0
BLOCK
  8
0
  2
*D8
 70
     1
 10
0.0
 20
0.0
 30
0.0
  3
*D8
  1

  0
LINE
  5
B3
  8
0
  6
BYBLOCK
 62
     9
 10
7859.983464
 20
204819.0
 30
0.0
 11
7859.983464
 21
204907.631183
 31
0.0
  0
LINE
  5
B4
  8
0
  6
BYBLOCK
 62
     9
 10
8139.983464
 20
204819.0
 30
0.0
 11
8139.983464
 21
204907.631183
 31
0.0
  0
LINE
  5
B5
  8
0
  6
BYBLOCK
 62
     9
 10
7879.983464
 20
204906.631183
 30
0.0
 11
7953.025294
 21
204906.631183
 31
0.0
  0
LINE
  5
B6
  8
0
  6
BYBLOCK
 62
     9
 10
8119.983464
 20
204906.631183
 30
0.0
 11
8046.941633
 21
204906.631183
 31
0.0
  0
SOLID
  5
B7
  8
0
  6
BYBLOCK
 62
     9
 10
7879.983464
 20
204909.964516
 30
0.0
 11
7879.983464
 21
204903.297849
 31
0.0
 12
7859.983464
 22
204906.631183
 32
0.0
 13
7859.983464
 23
204906.631183
 33
0.0
  0
SOLID
  5
B8
  8
0
  6
BYBLOCK
 62
     9
 10
8119.983464
 20
204909.964516
 30
0.0
 11
8119.983464
 21
204903.297849
 31
0.0
 12
8139.983464
 22
204906.631183
 32
0.0
 13
8139.983464
 23
204906.631183
 33
0.0
  0
TEXT
  5
B9
  8
0
  6
BYBLOCK
 62
    11
 10
7963.664074
 20
204889.131183
 30
0.0
 40
35.0
  1
280
  0
POINT
  5
BA
  8
DEFPOINTS
  6
BYBLOCK
 62
     0
 10
7859.983464
 20
204809.0
 30
0.0
  0
POINT
  5
BB
  8
DEFPOINTS
  6
BYBLOCK
 62
     0
 10
8139.983464
 20
204809.0
 30
0.0
  0
POINT
  5
BC
  8
DEFPOINTS
  6
BYBLOCK
 62
     0
 10
8139.983464
 20
204906.631183
 30
0.0
  0
ENDBLK
  5
BE
  8
0
  0
BLOCK
  8
0
  2
*D9
 70
     1
 10
0.0
 20
0.0
 30
0.0
  3
*D9
  1

  0
LINE
  5
5B
  8
0
  6
BYBLOCK
 62
     9
 10
8174.983464
 20
204795.0
 30
0.0
 11
8359.932155
 21
204795.0
 31
0.0
  0
LINE
  5
5C
  8
0
  6
BYBLOCK
 62
     9
 10
8300.0
 20
204850.0
 30
0.0
 11
8359.932155
 21
204850.0
 31
0.0
  0
LINE
  5
5D
  8
0
  6
BYBLOCK
 62
     9
 10
8358.932155
 20
204775.0
 30
0.0
 11
8358.932155
 21
204755.0
 31
0.0
  0
LINE
  5
5E
  8
0
  6
BYBLOCK
 62
     9
 10
8358.932155
 20
204870.0
 30
0.0
 11
8358.932155
 21
204890.0
 31
0.0
  0
TEXT
  5
5F
  8
0
  6
BYBLOCK
 62
    11
 10
8376.432155
 20
204696.133969
 30
0.0
 40
35.0
  1
55
 50
90.0
  0
LINE
  5
60
  8
0
  6
BYBLOCK
 62
     9
 10
8358.932155
 20
204795.0
 30
0.0
 11
8358.932155
 21
204850.0
 31
0.0
  0
SOLID
  5
61
  8
0
  6
BYBLOCK
 62
     9
 10
8355.598822
 20
204775.0
 30
0.0
 11
8362.265488
 21
204775.0
 31
0.0
 12
8358.932155
 22
204795.0
 32
0.0
 13
8358.932155
 23
204795.0
 33
0.0
  0
SOLID
  5
62
  8
0
  6
BYBLOCK
 62
     9
 10
8355.598822
 20
204870.0
 30
0.0
 11
8362.265488
 21
204870.0
 31
0.0
 12
8358.932155
 22
204850.0
 32
0.0
 13
8358.932155
 23
204850.0
 33
0.0
  0
POINT
  5
63
  8
DEFPOINTS
  6
BYBLOCK
 62
     0
 10
8164.983464
 20
204795.0
 30
0.0
  0
POINT
  5
64
  8
DEFPOINTS
  6
BYBLOCK
 62
     0
 10
8290.0
 20
204850.0
 30
0.0
  0
POINT
  5
65
  8
DEFPOINTS
  6
BYBLOCK
 62
     0
 10
8358.932155
 20
204850.0
 30
0.0
  0
ENDBLK
  5
67
  8
0
  0
ENDSEC
  0
SECTION
  2
ENTITIES
  0
DIMENSION
  5
20
  8
TEAM-MAS
  2
*D7
 10
75.0
 20
394.761843
 30
10.0
 11
0.0
 21
394.761843
 31
-20.0
 12
-8000.0
 22
-204000.0
 32
-20.0
 70
   128
 13
-75.0
 23
629.783522
 33
0.0
 14
75.0
 24
630.0
 34
0.0
  0
DIMENSION
  5
2F
  8
TEAM-MAS
  2
*D3
 10
535.102862
 20
520.0
 30
10.0
 11
535.102862
 21
685.0
 31
-10.0
 12
-8000.0
 22
-204000.0
 32
-10.0
 13
0.0
 23
850.0
 33
0.0
 14
20.0
 24
520.0
 34
0.0
 50
90.0
  0
DIMENSION
  5
3D
  8
TEAM-MAS
  2
*D2
 10
535.102862
 20
0.0
 30
0.0
 11
535.102862
 21
260.0
 31
-10.0
 12
-8000.0
 22
-204000.0
 32
-10.0
 13
20.0
 23
520.0
 33
0.0
 14
0.0
 24
0.0
 34
0.0
 50
90.0
  0
DIMENSION
  5
4B
  8
TEAM-MAS
  2
*D1
 10
475.967067
 20
0.0
 30
20.0
 11
475.967067
 21
315.0
 31
0.0
 12
-8000.0
 22
-204000.0
 32
0.0
 13
84.949874
 23
630.0
 33
0.0
 14
0.0
 24
0.0
 34
0.0
 50
90.0
  0
DIMENSION
  5
59
  8
TEAM-MAS
  2
*D9
 10
358.932155
 20
850.0
 30
0.0
 11
358.932155
 21
721.358843
 31
0.0
 12
-8000.0
 22
-204000.0
 32
0.0
 70
   128
 13
164.983464
 23
795.0
 33
0.0
 14
290.0
 24
850.0
 34
0.0
 50
90.0
1001
ACAD
1000
DSTYLE
1002
{
1070
    78
1070
     0
1070
    40
1040
1.0
1002
}
  0
DIMENSION
  5
68
  8
TEAM-MAS
  2
*D6
 10
588.578098
 20
0.0
 30
10.0
 11
588.578098
 21
425.0
 31
0.0
 12
-8000.0
 22
-204000.0
 32
0.0
 13
0.0
 23
850.0
 33
0.0
 14
0.0
 24
0.0
 34
0.0
 50
90.0
  0
DIMENSION
  5
76
  8
TEAM-MAS
  2
*D4
 10
475.967067
 20
850.0
 30
0.0
 11
475.967067
 21
740.0
 31
0.0
 12
-8000.0
 22
-204000.0
 32
0.0
 13
84.949874
 23
630.0
 33
0.0
 14
0.0
 24
850.0
 34
0.0
 50
90.0
1001
ACAD
1000
DSTYLE
1002
{
1070
    78
1070
     0
1070
    40
1040
1.0
1002
}
  0
DIMENSION
  5
84
  8
TEAM-MAS
  2
*D0
 10
417.508855
 20
685.0
 30
10.0
 11
417.508855
 21
767.5
 31
0.0
 12
-8000.0
 22
-204000.0
 32
0.0
 13
0.0
 23
850.0
 33
0.0
 14
35.0
 24
685.0
 34
0.0
 50
90.0
  0
POLYLINE
  5
92
  8
TEAM-HIDE
 66
     1
 10
0.0
 20
0.0
 30
0.0
 70
     1
  0
VERTEX
  5
1B1
  8
TEAM-HIDE
 10
150.983464
 20
786.0
 30
0.0
 42
1.0
  0
VERTEX
  5
1B2
  8
TEAM-HIDE
 10
150.983464
 20
804.0
 30
0.0
  0
VERTEX
  5
1B3
  8
TEAM-HIDE
 10
128.983464
 20
804.0
 30
0.0
 42
1.0
  0
VERTEX
  5
1B4
  8
TEAM-HIDE
 10
128.983464
 20
786.0
 30
0.0
  0
SEQEND
  5
1B5
  8
TEAM-HIDE
  0
LINE
  5
95
  8
TEAM-AXE
 10
139.983464
 20
809.0
 30
0.0
 11
139.983464
 21
781.0
 31
0.0
  0
LINE
  5
98
  8
TEAM-AXE
 10
114.983464
 20
795.0
 30
0.0
 11
164.983464
 21
795.0
 31
0.0
  0
LINE
  5
99
  8
TEAM-AXE
 10
84.949874
 20
630.0
 30
0.0
 11
65.050126
 21
630.0
 31
0.0
  0
CIRCLE
  5
9A
  8
TEAM-COLD
 10
75.0
 20
630.0
 30
0.0
 40
10.0
  0
LINE
  5
9C
  8
TEAM-AXE
 10
75.0
 20
620.0
 30
0.0
 11
75.0
 21
640.0
 31
0.0
  0
TEXT
  5
9D
  8
TEAM-TXT
 10
-254.028459
 20
740.274426
 30
0.0
 40
30.0
  1
team 211140
 41
0.8
 51
15.0
  7
TEAM
  0
POLYLINE
  5
A0
  8
TEAM-HIDE
 66
     1
 10
0.0
 20
0.0
 30
0.0
 70
     1
  0
VERTEX
  5
1B6
  8
TEAM-HIDE
 10
-129.016536
 20
786.0
 30
0.0
 42
1.0
  0
VERTEX
  5
1B7
  8
TEAM-HIDE
 10
-129.016536
 20
804.0
 30
0.0
  0
VERTEX
  5
1B8
  8
TEAM-HIDE
 10
-151.016536
 20
804.0
 30
0.0
 42
1.0
  0
VERTEX
  5
1B9
  8
TEAM-HIDE
 10
-151.016536
 20
786.0
 30
0.0
  0
SEQEND
  5
1BA
  8
TEAM-HIDE
  0
LINE
  5
A1
  8
TEAM-AXE
 10
-140.016536
 20
809.0
 30
0.0
 11
-140.016536
 21
781.0
 31
0.0
  0
LINE
  5
A2
  8
TEAM-AXE
 10
-165.016536
 20
795.0
 30
0.0
 11
-115.016536
 21
795.0
 31
0.0
  0
LINE
  5
A3
  8
TEAM-AXE
 10
-65.050126
 20
629.783522
 30
0.0
 11
-84.949874
 21
629.783522
 31
0.0
  0
LINE
  5
A4
  8
TEAM-AXE
 10
0.0
 20
500.0
 30
0.0
 11
0.0
 21
540.0
 31
0.0
  0
LINE
  5
A5
  8
TEAM-AXE
 10
20.0
 20
520.0
 30
0.0
 11
-20.0
 21
520.0
 31
0.0
  0
CIRCLE
  5
A6
  8
TEAM-KAN
 10
0.0
 20
520.0
 30
0.0
 40
20.0
  0
CIRCLE
  5
A8
  8
TEAM-WARM
 10
-75.0
 20
629.783522
 30
0.0
 40
10.0
  0
LINE
  5
AA
  8
TEAM-AXE
 10
-75.0
 20
619.783522
 30
0.0
 11
-75.0
 21
639.783522
 31
0.0
  0
LINE
  5
AB
  8
TEAM-BODY
 10
-49.988474
 20
725.0
 30
0.0
 11
49.922329
 21
725.0
 31
0.0
  0
LINE
  5
AD
  8
TEAM-AXE
 10
0.0
 20
683.977716
 30
0.0
 11
0.0
 21
850.0
 31
0.0
  0
POLYLINE
  5
AE
  8
TEAM-BODY
 66
     1
 10
0.0
 20
0.0
 30
0.0
 70
   129
  0
VERTEX
  5
1BB
  8
TEAM-BODY
 10
300.0
 20
840.0
 30
0.0
 42
0.414214
  0
VERTEX
  5
1BC
  8
TEAM-BODY
 10
290.0
 20
850.0
 30
0.0
  0
VERTEX
  5
1BD
  8
TEAM-BODY
 10
-290.0
 20
850.0
 30
0.0
 42
0.414214
  0
VERTEX
  5
1BE
  8
TEAM-BODY
 10
-300.0
 20
840.0
 30
0.0
  0
VERTEX
  5
1BF
  8
TEAM-BODY
 10
-300.0
 20
735.0
 30
0.0
 42
0.414214
  0
VERTEX
  5
1C0
  8
TEAM-BODY
 10
-290.0
 20
725.0
 30
0.0
  0
VERTEX
  5
1C1
  8
TEAM-BODY
 10
-49.971938
 20
725.0
 30
0.0
 42
-0.372902
  0
VERTEX
  5
1C2
  8
TEAM-BODY
 10
-45.023028
 20
720.712944
 30
0.0
  0
VERTEX
  5
1C3
  8
TEAM-BODY
 10
-39.87819
 20
685.0
 30
0.0
  0
VERTEX
  5
1C4
  8
TEAM-BODY
 10
39.845117
 20
685.0
 30
0.0
  0
VERTEX
  5
1C5
  8
TEAM-BODY
 10
44.989955
 20
720.712944
 30
0.0
 42
-0.372902
  0
VERTEX
  5
1C6
  8
TEAM-BODY
 10
49.938865
 20
725.0
 30
0.0
  0
VERTEX
  5
1C7
  8
TEAM-BODY
 10
289.299872
 20
725.0
 30
0.0
 42
0.394544
  0
VERTEX
  5
1C8
  8
TEAM-BODY
 10
300.0
 20
735.0
 30
0.0
  0
SEQEND
  5
1C9
  8
TEAM-BODY
  0
CIRCLE
  5
AF
  8
TEAM-INSP
 10
0.0
 20
0.0
 30
0.0
 40
10.0
  0
DIMENSION
  5
B1
  8
TEAM-MAS
  2
*D8
 10
139.983464
 20
906.631183
 30
0.0
 11
-0.016536
 21
906.631183
 31
0.0
 12
-8000.0
 22
-204000.0
 32
0.0
 13
-140.016536
 23
809.0
 33
0.0
 14
139.983464
 24
809.0
 34
0.0
1001
ACAD
1000
DSTYLE
1002
{
1070
    78
1070
     0
1070
    40
1040
1.0
1002
}
  0
DIMENSION
  5
BF
  8
TEAM-MAS
  2
*D5
 10
300.0
 20
958.815824
 30
0.0
 11
0.0
 21
958.815824
 31
0.0
 12
-8000.0
 22
-204000.0
 32
0.0
 13
-300.0
 23
840.0
 33
0.0
 14
300.0
 24
840.0
 34
0.0
  0
ENDSEC
  0
EOF
