  0
SECTION
  2
HEADER
  9
$ACADVER
  1
AC1009
  9
$INSBASE
 10
0.0
 20
0.0
 30
0.0
  9
$EXTMIN
 10
-251.086389
 20
-10.056788
 30
-0.000431
  9
$EXTMAX
 10
491.418246
 20
967.803615
 30
10.000593
  9
$LIMMIN
 10
-251.086389
 20
-10.056788
  9
$LIMMAX
 10
491.418246
 20
967.803615
  9
$ORTHOMODE
 70
     1
  9
$REGENMODE
 70
     1
  9
$FILLMODE
 70
     1
  9
$QTEXTMODE
 70
     0
  9
$MIRRTEXT
 70
     0
  9
$DRAGMODE
 70
     2
  9
$LTSCALE
 40
25.0
  9
$OSMODE
 70
     0
  9
$ATTMODE
 70
     1
  9
$TEXTSIZE
 40
200.0
  9
$TRACEWID
 40
1.0
  9
$TEXTSTYLE
  7
STANDARD
  9
$CLAYER
  8
TEAM-MAS
  9
$CELTYPE
  6
BYLAYER
  9
$CECOLOR
 62
   256
  9
$DIMSCALE
 40
1.0
  9
$DIMASZ
 40
20.0
  9
$DIMEXO
 40
10.0
  9
$DIMDLI
 40
1.0
  9
$DIMRND
 40
0.0
  9
$DIMDLE
 40
0.0
  9
$DIMEXE
 40
1.0
  9
$DIMTP
 40
0.0
  9
$DIMTM
 40
0.0
  9
$DIMTXT
 40
35.0
  9
$DIMCEN
 40
1.0
  9
$DIMTSZ
 40
0.0
  9
$DIMTOL
 70
     0
  9
$DIMLIM
 70
     0
  9
$DIMTIH
 70
     0
  9
$DIMTOH
 70
     0
  9
$DIMSE1
 70
     0
  9
$DIMSE2
 70
     0
  9
$DIMTAD
 70
     0
  9
$DIMZIN
 70
     0
  9
$DIMBLK
  1

  9
$DIMASO
 70
     1
  9
$DIMSHO
 70
     0
  9
$DIMPOST
  1

  9
$DIMAPOST
  1

  9
$DIMALT
 70
     0
  9
$DIMALTD
 70
     2
  9
$DIMALTF
 40
25.4
  9
$DIMLFAC
 40
1.0
  9
$DIMTOFL
 70
     0
  9
$DIMTVP
 40
0.0
  9
$DIMTIX
 70
     0
  9
$DIMSOXD
 70
     0
  9
$DIMSAH
 70
     0
  9
$DIMBLK1
  1

  9
$DIMBLK2
  1

  9
$DIMSTYLE
  2
TEAM
  9
$DIMCLRD
 70
     9
  9
$DIMCLRE
 70
     9
  9
$DIMCLRT
 70
    11
  9
$DIMTFAC
 40
1.0
  9
$DIMGAP
 40
15.0
  9
$LUNITS
 70
     2
  9
$LUPREC
 70
     1
  9
$SKETCHINC
 40
1.0
  9
$FILLETRAD
 40
10.0
  9
$AUNITS
 70
     0
  9
$AUPREC
 70
     0
  9
$MENU
  1
ROPLANS
  9
$ELEVATION
 40
0.0
  9
$PELEVATION
 40
0.0
  9
$THICKNESS
 40
0.0
  9
$LIMCHECK
 70
     0
  9
$BLIPMODE
 70
     1
  9
$CHAMFERA
 40
0.0
  9
$CHAMFERB
 40
0.0
  9
$SKPOLY
 70
     0
  9
$TDCREATE
 40
2450392.957851
  9
$TDUPDATE
 40
2455509.933601
  9
$TDINDWG
 40
2.904676
  9
$TDUSRTIMER
 40
2.904676
  9
$USRTIMER
 70
     1
  9
$ANGBASE
 50
0.0
  9
$ANGDIR
 70
     0
  9
$PDMODE
 70
     0
  9
$PDSIZE
 40
0.0
  9
$PLINEWID
 40
0.0
  9
$COORDS
 70
     2
  9
$SPLFRAME
 70
     0
  9
$SPLINETYPE
 70
     6
  9
$SPLINESEGS
 70
     8
  9
$ATTDIA
 70
     0
  9
$ATTREQ
 70
     0
  9
$HANDLING
 70
     1
  9
$HANDSEED
  5
252
  9
$SURFTAB1
 70
    24
  9
$SURFTAB2
 70
    24
  9
$SURFTYPE
 70
     6
  9
$SURFU
 70
     6
  9
$SURFV
 70
     6
  9
$UCSNAME
  2

  9
$UCSORG
 10
0.0
 20
0.0
 30
0.0
  9
$UCSXDIR
 10
1.0
 20
0.0
 30
0.0
  9
$UCSYDIR
 10
0.0
 20
1.0
 30
0.0
  9
$PUCSNAME
  2

  9
$PUCSORG
 10
0.0
 20
0.0
 30
0.0
  9
$PUCSXDIR
 10
1.0
 20
0.0
 30
0.0
  9
$PUCSYDIR
 10
0.0
 20
1.0
 30
0.0
  9
$USERI1
 70
     0
  9
$USERI2
 70
     0
  9
$USERI3
 70
     0
  9
$USERI4
 70
     0
  9
$USERI5
 70
     0
  9
$USERR1
 40
0.0
  9
$USERR2
 40
0.0
  9
$USERR3
 40
0.0
  9
$USERR4
 40
0.0
  9
$USERR5
 40
0.0
  9
$WORLDVIEW
 70
     1
  9
$SHADEDGE
 70
     0
  9
$SHADEDIF
 70
    70
  9
$TILEMODE
 70
     1
  9
$MAXACTVP
 70
    16
  9
$PLIMCHECK
 70
     0
  9
$PEXTMIN
 10
-0.805942
 20
0.005011
 30
0.0
  9
$PEXTMAX
 10
20.250094
 20
11.356329
 30
0.0
  9
$PLIMMIN
 10
0.0
 20
0.0
  9
$PLIMMAX
 10
12.0
 20
9.0
  9
$UNITMODE
 70
     0
  9
$VISRETAIN
 70
     0
  9
$PLINEGEN
 70
     0
  9
$PSLTSCALE
 70
     0
  0
ENDSEC
  0
SECTION
  2
TABLES
  0
TABLE
  2
VPORT
 70
     2
  0
VPORT
  2
*ACTIVE
 70
     0
 10
0.0
 20
0.0
 11
1.0
 21
1.0
 12
120.165928
 22
478.873414
 13
0.0
 23
0.0
 14
1.0
 24
1.0
 15
50.0
 25
50.0
 16
0.0
 26
0.0
 36
1.0
 17
0.0
 27
0.0
 37
0.0
 40
983.865687
 41
1.865779
 42
50.0
 43
0.0
 44
0.0
 50
0.0
 51
0.0
 71
     0
 72
   100
 73
     1
 74
     1
 75
     0
 76
     0
 77
     0
 78
     0
  0
ENDTAB
  0
TABLE
  2
LTYPE
 70
     3
  0
LTYPE
  2
CONTINUOUS
 70
     0
  3
Solid Line
 72
    65
 73
     0
 40
0.0
  0
LTYPE
  2
31
 70
     0
  3

 72
    65
 73
     4
 40
2.1
 49
1.5
 49
-0.3
 49
0.0
 49
-0.3
  0
LTYPE
  2
22
 70
     0
  3

 72
    65
 73
     2
 40
1.4
 49
1.2
 49
-0.2
  0
ENDTAB
  0
TABLE
  2
LAYER
 70
    11
  0
LAYER
  2
0
 70
     0
 62
     7
  6
CONTINUOUS
  0
LAYER
  2
DEFPOINTS
 70
     0
 62
     7
  6
CONTINUOUS
  0
LAYER
  2
TEAM-BODY
 70
     0
 62
     2
  6
CONTINUOUS
  0
LAYER
  2
TEAM-AXE
 70
     0
 62
    10
  6
31
  0
LAYER
  2
TEAM-MAS
 70
     0
 62
     9
  6
CONTINUOUS
  0
LAYER
  2
TEAM-TXT
 70
     0
 62
    11
  6
CONTINUOUS
  0
LAYER
  2
TEAM-COLD
 70
     0
 62
     3
  6
CONTINUOUS
  0
LAYER
  2
TEAM-HIDE
 70
     0
 62
     8
  6
22
  0
LAYER
  2
TEAM-KAN
 70
     0
 62
     6
  6
CONTINUOUS
  0
LAYER
  2
TEAM-WARM
 70
     0
 62
     1
  6
CONTINUOUS
  0
LAYER
  2
TEAM-INSP
 70
     0
 62
     5
  6
CONTINUOUS
  0
ENDTAB
  0
TABLE
  2
STYLE
 70
     2
  0
STYLE
  2
STANDARD
 70
     0
 40
0.0
 41
1.0
 50
0.0
 71
     0
 42
200.0
  3
txt
  4

  0
STYLE
  2
TEAM
 70
     0
 40
0.0
 41
0.8
 50
15.0
 71
     0
 42
7.0
  3
ROMANS.shx
  4

  0
ENDTAB
  0
TABLE
  2
VIEW
 70
     0
  0
ENDTAB
  0
TABLE
  2
UCS
 70
     0
  0
ENDTAB
  0
TABLE
  2
APPID
 70
     1
  0
APPID
  2
ACAD
 70
     0
  0
ENDTAB
  0
TABLE
  2
DIMSTYLE
 70
     1
  0
DIMSTYLE
  2
TEAM
 70
     0
  3

  4

  5

  6

  7

 40
1.0
 41
20.0
 42
10.0
 43
1.0
 44
1.0
 45
0.0
 46
0.0
 47
0.0
 48
0.0
140
35.0
141
1.0
142
0.0
143
25.4
144
1.0
145
0.0
146
1.0
147
15.0
 71
     0
 72
     0
 73
     0
 74
     0
 75
     0
 76
     0
 77
     0
 78
     0
170
     0
171
     2
172
     0
173
     0
174
     0
175
     0
176
     9
177
     9
178
    11
  0
ENDTAB
  0
ENDSEC
  0
SECTION
  2
BLOCKS
  0
BLOCK
  8
0
  2
$MODEL_SPACE
 70
     0
 10
0.0
 20
0.0
 30
0.0
  3
$MODEL_SPACE
  1

  0
ENDBLK
  5
21F
  8
0
  0
BLOCK
 67
     1
  8
0
  2
$PAPER_SPACE
 70
     0
 10
0.0
 20
0.0
 30
0.0
  3
$PAPER_SPACE
  1

  0
ENDBLK
  5
21D
 67
     1
  8
0
  0
BLOCK
  8
0
  2
*D0
 70
     1
 10
0.0
 20
0.0
 30
0.0
  3
*D0
  1

  0
LINE
  5
47
  8
0
  6
BYBLOCK
 62
     9
 10
8010.0
 20
156569.997355
 30
0.0
 11
8382.538732
 21
156569.997355
 31
0.0
  0
LINE
  5
48
  8
0
  6
BYBLOCK
 62
     9
 10
8010.0
 20
156000.0
 30
0.0
 11
8382.538732
 21
156000.0
 31
0.0
  0
LINE
  5
49
  8
0
  6
BYBLOCK
 62
     9
 10
8381.538732
 20
156549.997355
 30
0.0
 11
8381.538732
 21
156331.512457
 31
0.0
  0
LINE
  5
4A
  8
0
  6
BYBLOCK
 62
     9
 10
8381.538732
 20
156020.0
 30
0.0
 11
8381.538732
 21
156238.484898
 31
0.0
  0
SOLID
  5
4B
  8
0
  6
BYBLOCK
 62
     9
 10
8378.205398
 20
156549.997355
 30
0.0
 11
8384.872065
 21
156549.997355
 31
0.0
 12
8381.538732
 22
156569.997355
 32
0.0
 13
8381.538732
 23
156569.997355
 33
0.0
  0
SOLID
  5
4C
  8
0
  6
BYBLOCK
 62
     9
 10
8378.205398
 20
156020.0
 30
0.0
 11
8384.872065
 21
156020.0
 31
0.0
 12
8381.538732
 22
156000.0
 32
0.0
 13
8381.538732
 23
156000.0
 33
0.0
  0
TEXT
  5
4D
  8
0
  6
BYBLOCK
 62
    11
 10
8399.038732
 20
156241.248678
 30
0.0
 40
35.0
  1
570
 50
90.0
  0
POINT
  5
4E
  8
DEFPOINTS
  6
BYBLOCK
 62
     0
 10
8000.0
 20
156569.997355
 30
0.0
  0
POINT
  5
4F
  8
DEFPOINTS
  6
BYBLOCK
 62
     0
 10
8000.0
 20
156000.0
 30
10.0
  0
POINT
  5
50
  8
DEFPOINTS
  6
BYBLOCK
 62
     0
 10
8381.538732
 20
156000.0
 30
10.0
  0
ENDBLK
  5
52
  8
0
  0
BLOCK
  8
0
  2
*D1
 70
     1
 10
0.0
 20
0.0
 30
0.0
  3
*D1
  1

  0
LINE
  5
55
  8
0
  6
BYBLOCK
 62
     9
 10
8010.0
 20
156000.0
 30
0.0
 11
8428.713007
 21
156000.0
 31
0.0
  0
LINE
  5
56
  8
0
  6
BYBLOCK
 62
     9
 10
8050.0
 20
156619.997355
 30
0.0
 11
8428.713007
 21
156619.997355
 31
0.0
  0
LINE
  5
57
  8
0
  6
BYBLOCK
 62
     9
 10
8427.713007
 20
156020.0
 30
0.0
 11
8427.713007
 21
156262.437654
 31
0.0
  0
LINE
  5
58
  8
0
  6
BYBLOCK
 62
     9
 10
8427.713007
 20
156599.997355
 30
0.0
 11
8427.713007
 21
156357.559701
 31
0.0
  0
SOLID
  5
59
  8
0
  6
BYBLOCK
 62
     9
 10
8424.379673
 20
156020.0
 30
0.0
 11
8431.04634
 21
156020.0
 31
0.0
 12
8427.713007
 22
156000.0
 32
0.0
 13
8427.713007
 23
156000.0
 33
0.0
  0
SOLID
  5
5A
  8
0
  6
BYBLOCK
 62
     9
 10
8424.379673
 20
156599.997355
 30
0.0
 11
8431.04634
 21
156599.997355
 31
0.0
 12
8427.713007
 22
156619.997355
 32
0.0
 13
8427.713007
 23
156619.997355
 33
0.0
  0
TEXT
  5
5B
  8
0
  6
BYBLOCK
 62
    11
 10
8445.213007
 20
156266.248678
 30
0.0
 40
35.0
  1
620
 50
90.0
  0
POINT
  5
5C
  8
DEFPOINTS
  6
BYBLOCK
 62
     0
 10
8000.0
 20
156000.0
 30
10.0
  0
POINT
  5
5D
  8
DEFPOINTS
  6
BYBLOCK
 62
     0
 10
8040.0
 20
156619.997355
 30
0.0
  0
POINT
  5
5E
  8
DEFPOINTS
  6
BYBLOCK
 62
     0
 10
8427.713007
 20
156619.997355
 30
10.0
  0
ENDBLK
  5
60
  8
0
  0
BLOCK
  8
0
  2
*D2
 70
     1
 10
0.0
 20
0.0
 30
0.0
  3
*D2
  1

  0
LINE
  5
63
  8
0
  6
BYBLOCK
 62
     9
 10
8252.558741
 20
156849.997355
 30
0.0
 11
8337.940289
 21
156849.997355
 31
0.0
  0
LINE
  5
64
  8
0
  6
BYBLOCK
 62
     9
 10
8047.483977
 20
156669.997355
 30
0.0
 11
8337.940289
 21
156669.997355
 31
0.0
  0
LINE
  5
65
  8
0
  6
BYBLOCK
 62
     9
 10
8336.940289
 20
156829.997355
 30
0.0
 11
8336.940289
 21
156803.011135
 31
0.0
  0
LINE
  5
66
  8
0
  6
BYBLOCK
 62
     9
 10
8336.940289
 20
156689.997355
 30
0.0
 11
8336.940289
 21
156716.983576
 31
0.0
  0
SOLID
  5
67
  8
0
  6
BYBLOCK
 62
     9
 10
8333.606955
 20
156829.997355
 30
0.0
 11
8340.273622
 21
156829.997355
 31
0.0
 12
8336.940289
 22
156849.997355
 32
0.0
 13
8336.940289
 23
156849.997355
 33
0.0
  0
SOLID
  5
68
  8
0
  6
BYBLOCK
 62
     9
 10
8333.606955
 20
156689.997355
 30
0.0
 11
8340.273622
 21
156689.997355
 31
0.0
 12
8336.940289
 22
156669.997355
 32
0.0
 13
8336.940289
 23
156669.997355
 33
0.0
  0
TEXT
  5
69
  8
0
  6
BYBLOCK
 62
    11
 10
8354.440289
 20
156722.080689
 30
0.0
 40
35.0
  1
180
 50
90.0
  0
POINT
  5
6A
  8
DEFPOINTS
  6
BYBLOCK
 62
     0
 10
8242.558741
 20
156849.997355
 30
10.0
  0
POINT
  5
6B
  8
DEFPOINTS
  6
BYBLOCK
 62
     0
 10
8037.483977
 20
156669.997355
 30
0.0
  0
POINT
  5
6C
  8
DEFPOINTS
  6
BYBLOCK
 62
     0
 10
8336.940289
 20
156669.997355
 30
10.0
  0
ENDBLK
  5
6E
  8
0
  0
BLOCK
  8
0
  2
*D3
 70
     1
 10
0.0
 20
0.0
 30
0.0
  3
*D3
  1

  0
LINE
  5
71
  8
0
  6
BYBLOCK
 62
     9
 10
8010.0
 20
156569.997355
 30
0.0
 11
8382.538732
 21
156569.997355
 31
0.0
  0
LINE
  5
72
  8
0
  6
BYBLOCK
 62
     9
 10
8254.983977
 20
156849.997355
 30
0.0
 11
8382.538732
 21
156849.997355
 31
0.0
  0
LINE
  5
73
  8
0
  6
BYBLOCK
 62
     9
 10
8381.538732
 20
156589.997355
 30
0.0
 11
8381.538732
 21
156663.039186
 31
0.0
  0
LINE
  5
74
  8
0
  6
BYBLOCK
 62
     9
 10
8381.538732
 20
156829.997355
 30
0.0
 11
8381.538732
 21
156756.955525
 31
0.0
  0
SOLID
  5
75
  8
0
  6
BYBLOCK
 62
     9
 10
8378.205398
 20
156589.997355
 30
0.0
 11
8384.872065
 21
156589.997355
 31
0.0
 12
8381.538732
 22
156569.997355
 32
0.0
 13
8381.538732
 23
156569.997355
 33
0.0
  0
SOLID
  5
76
  8
0
  6
BYBLOCK
 62
     9
 10
8378.205398
 20
156829.997355
 30
0.0
 11
8384.872065
 21
156829.997355
 31
0.0
 12
8381.538732
 22
156849.997355
 32
0.0
 13
8381.538732
 23
156849.997355
 33
0.0
  0
TEXT
  5
77
  8
0
  6
BYBLOCK
 62
    11
 10
8399.038732
 20
156666.247355
 30
0.0
 40
35.0
  1
280
 50
90.0
  0
POINT
  5
78
  8
DEFPOINTS
  6
BYBLOCK
 62
     0
 10
8000.0
 20
156569.997355
 30
0.0
  0
POINT
  5
79
  8
DEFPOINTS
  6
BYBLOCK
 62
     0
 10
8244.983977
 20
156849.997355
 30
0.0
  0
POINT
  5
7A
  8
DEFPOINTS
  6
BYBLOCK
 62
     0
 10
8381.538732
 20
156849.997355
 30
0.0
  0
ENDBLK
  5
7C
  8
0
  0
BLOCK
  8
0
  2
*D4
 70
     1
 10
0.0
 20
0.0
 30
0.0
  3
*D4
  1

  0
LINE
  5
7F
  8
0
  6
BYBLOCK
 62
     9
 10
8050.0
 20
156619.997355
 30
0.0
 11
8428.713007
 21
156619.997355
 31
0.0
  0
LINE
  5
80
  8
0
  6
BYBLOCK
 62
     9
 10
8254.983977
 20
156849.997355
 30
0.0
 11
8428.713007
 21
156849.997355
 31
0.0
  0
LINE
  5
81
  8
0
  6
BYBLOCK
 62
     9
 10
8427.713007
 20
156639.997355
 30
0.0
 11
8427.713007
 21
156688.039186
 31
0.0
  0
LINE
  5
82
  8
0
  6
BYBLOCK
 62
     9
 10
8427.713007
 20
156829.997355
 30
0.0
 11
8427.713007
 21
156781.955525
 31
0.0
  0
SOLID
  5
83
  8
0
  6
BYBLOCK
 62
     9
 10
8424.379673
 20
156639.997355
 30
0.0
 11
8431.04634
 21
156639.997355
 31
0.0
 12
8427.713007
 22
156619.997355
 32
0.0
 13
8427.713007
 23
156619.997355
 33
0.0
  0
SOLID
  5
84
  8
0
  6
BYBLOCK
 62
     9
 10
8424.379673
 20
156829.997355
 30
0.0
 11
8431.04634
 21
156829.997355
 31
0.0
 12
8427.713007
 22
156849.997355
 32
0.0
 13
8427.713007
 23
156849.997355
 33
0.0
  0
TEXT
  5
85
  8
0
  6
BYBLOCK
 62
    11
 10
8445.213007
 20
156691.247355
 30
0.0
 40
35.0
  1
230
 50
90.0
  0
POINT
  5
86
  8
DEFPOINTS
  6
BYBLOCK
 62
     0
 10
8040.0
 20
156619.997355
 30
0.0
  0
POINT
  5
87
  8
DEFPOINTS
  6
BYBLOCK
 62
     0
 10
8244.983977
 20
156849.997355
 30
0.0
  0
POINT
  5
88
  8
DEFPOINTS
  6
BYBLOCK
 62
     0
 10
8427.713007
 20
156849.997355
 30
0.0
  0
ENDBLK
  5
8A
  8
0
  0
BLOCK
  8
0
  2
*D5
 70
     1
 10
0.0
 20
0.0
 30
0.0
  3
*D5
  1

  0
LINE
  5
2A
  8
0
  6
BYBLOCK
 62
     9
 10
7880.094137
 20
156804.0
 30
0.0
 11
7880.094137
 21
156910.240199
 31
0.0
  0
LINE
  5
2B
  8
0
  6
BYBLOCK
 62
     9
 10
8120.094137
 20
156804.0
 30
0.0
 11
8120.094137
 21
156910.240199
 31
0.0
  0
LINE
  5
2C
  8
0
  6
BYBLOCK
 62
     9
 10
7900.094137
 20
156909.240199
 30
0.0
 11
7951.385967
 21
156909.240199
 31
0.0
  0
LINE
  5
2D
  8
0
  6
BYBLOCK
 62
     9
 10
8100.094137
 20
156909.240199
 30
0.0
 11
8048.802306
 21
156909.240199
 31
0.0
  0
SOLID
  5
2E
  8
0
  6
BYBLOCK
 62
     9
 10
7900.094137
 20
156912.573532
 30
0.0
 11
7900.094137
 21
156905.906866
 31
0.0
 12
7880.094137
 22
156909.240199
 32
0.0
 13
7880.094137
 23
156909.240199
 33
0.0
  0
SOLID
  5
2F
  8
0
  6
BYBLOCK
 62
     9
 10
8100.094137
 20
156912.573532
 30
0.0
 11
8100.094137
 21
156905.906866
 31
0.0
 12
8120.094137
 22
156909.240199
 32
0.0
 13
8120.094137
 23
156909.240199
 33
0.0
  0
TEXT
  5
30
  8
0
  6
BYBLOCK
 62
    11
 10
7956.344137
 20
156891.740199
 30
0.0
 40
35.0
  1
240
  0
POINT
  5
31
  8
DEFPOINTS
  6
BYBLOCK
 62
     0
 10
7880.094137
 20
156794.0
 30
10.0
  0
POINT
  5
33
  8
DEFPOINTS
  6
BYBLOCK
 62
     0
 10
8120.094137
 20
156794.0
 30
10.0
  0
POINT
  5
34
  8
DEFPOINTS
  6
BYBLOCK
 62
     0
 10
8120.094137
 20
156909.240199
 30
10.0
  0
ENDBLK
  5
36
  8
0
  0
BLOCK
  8
0
  2
*D6
 70
     1
 10
0.0
 20
0.0
 30
0.0
  3
*D6
  1

  0
LINE
  5
39
  8
0
  6
BYBLOCK
 62
     9
 10
7749.983977
 20
156839.997355
 30
0.0
 11
7749.983977
 21
156952.978911
 31
0.0
  0
LINE
  5
3A
  8
0
  6
BYBLOCK
 62
     9
 10
8249.983977
 20
156839.997355
 30
0.0
 11
8249.983977
 21
156952.978911
 31
0.0
  0
LINE
  5
3B
  8
0
  6
BYBLOCK
 62
     9
 10
7769.983977
 20
156951.978911
 30
0.0
 11
7953.470198
 21
156951.978911
 31
0.0
  0
LINE
  5
3C
  8
0
  6
BYBLOCK
 62
     9
 10
8229.983977
 20
156951.978911
 30
0.0
 11
8046.497757
 21
156951.978911
 31
0.0
  0
SOLID
  5
3D
  8
0
  6
BYBLOCK
 62
     9
 10
7769.983977
 20
156955.312244
 30
0.0
 11
7769.983977
 21
156948.645578
 31
0.0
 12
7749.983977
 22
156951.978911
 32
0.0
 13
7749.983977
 23
156951.978911
 33
0.0
  0
SOLID
  5
3E
  8
0
  6
BYBLOCK
 62
     9
 10
8229.983977
 20
156955.312244
 30
0.0
 11
8229.983977
 21
156948.645578
 31
0.0
 12
8249.983977
 22
156951.978911
 32
0.0
 13
8249.983977
 23
156951.978911
 33
0.0
  0
TEXT
  5
3F
  8
0
  6
BYBLOCK
 62
    11
 10
7959.150644
 20
156934.478911
 30
0.0
 40
35.0
  1
500
  0
POINT
  5
40
  8
DEFPOINTS
  6
BYBLOCK
 62
     0
 10
7749.983977
 20
156829.997355
 30
0.0
  0
POINT
  5
41
  8
DEFPOINTS
  6
BYBLOCK
 62
     0
 10
8249.983977
 20
156829.997355
 30
0.0
  0
POINT
  5
42
  8
DEFPOINTS
  6
BYBLOCK
 62
     0
 10
8249.983977
 20
156951.978911
 30
10.0
  0
ENDBLK
  5
44
  8
0
  0
BLOCK
  8
0
  2
*D7
 70
     1
 10
0.0
 20
0.0
 30
0.0
  3
*D7
  1

  0
LINE
  5
AA
  8
0
  6
BYBLOCK
 62
     9
 10
8040.0
 20
156609.997355
 30
0.0
 11
8040.0
 21
156488.748776
 31
0.0
  0
LINE
  5
AB
  8
0
  6
BYBLOCK
 62
     9
 10
7960.0
 20
156609.997355
 30
0.0
 11
7960.0
 21
156488.748776
 31
0.0
  0
LINE
  5
AC
  8
0
  6
BYBLOCK
 62
     9
 10
8020.0
 20
156489.748776
 30
0.0
 11
8005.0
 21
156489.748776
 31
0.0
  0
LINE
  5
AD
  8
0
  6
BYBLOCK
 62
     9
 10
7980.0
 20
156489.748776
 30
0.0
 11
7995.0
 21
156489.748776
 31
0.0
  0
TEXT
  5
AE
  8
0
  6
BYBLOCK
 62
    11
 10
7973.75
 20
156472.248776
 30
0.0
 40
35.0
  1
80
  0
SOLID
  5
AF
  8
0
  6
BYBLOCK
 62
     9
 10
8020.0
 20
156493.082109
 30
0.0
 11
8020.0
 21
156486.415443
 31
0.0
 12
8040.0
 22
156489.748776
 32
0.0
 13
8040.0
 23
156489.748776
 33
0.0
  0
SOLID
  5
B0
  8
0
  6
BYBLOCK
 62
     9
 10
7980.0
 20
156493.082109
 30
0.0
 11
7980.0
 21
156486.415443
 31
0.0
 12
7960.0
 22
156489.748776
 32
0.0
 13
7960.0
 23
156489.748776
 33
0.0
  0
POINT
  5
B1
  8
DEFPOINTS
  6
BYBLOCK
 62
     0
 10
8040.0
 20
156619.997355
 30
0.0
  0
POINT
  5
B2
  8
DEFPOINTS
  6
BYBLOCK
 62
     0
 10
7960.0
 20
156619.997355
 30
0.0
  0
POINT
  5
B3
  8
DEFPOINTS
  6
BYBLOCK
 62
     0
 10
7960.0
 20
156489.748776
 30
10.0
  0
ENDBLK
  5
B5
  8
0
  0
BLOCK
  8
0
  2
*D8
 70
     1
 10
0.0
 20
0.0
 30
0.0
  3
*D8
  1

  0
LINE
  5
DA
  8
0
  6
BYBLOCK
 62
     9
 10
8283.521575
 20
156000.0
 30
0.0
 11
8475.174761
 21
156000.0
 31
0.0
  0
LINE
  5
DB
  8
0
  6
BYBLOCK
 62
     9
 10
8254.983977
 20
156849.997355
 30
0.0
 11
8475.174761
 21
156849.997355
 31
0.0
  0
LINE
  5
DC
  8
0
  6
BYBLOCK
 62
     9
 10
8474.174761
 20
156020.0
 30
0.0
 11
8474.174761
 21
156378.484898
 31
0.0
  0
LINE
  5
DD
  8
0
  6
BYBLOCK
 62
     9
 10
8474.174761
 20
156829.997355
 30
0.0
 11
8474.174761
 21
156471.512457
 31
0.0
  0
SOLID
  5
DE
  8
0
  6
BYBLOCK
 62
     9
 10
8470.841428
 20
156020.0
 30
0.0
 11
8477.508094
 21
156020.0
 31
0.0
 12
8474.174761
 22
156000.0
 32
0.0
 13
8474.174761
 23
156000.0
 33
0.0
  0
SOLID
  5
DF
  8
0
  6
BYBLOCK
 62
     9
 10
8470.841428
 20
156829.997355
 30
0.0
 11
8477.508094
 21
156829.997355
 31
0.0
 12
8474.174761
 22
156849.997355
 32
0.0
 13
8474.174761
 23
156849.997355
 33
0.0
  0
TEXT
  5
E0
  8
0
  6
BYBLOCK
 62
    11
 10
8491.674761
 20
156381.248678
 30
0.0
 40
35.0
  1
850
 50
90.0
  0
POINT
  5
E1
  8
DEFPOINTS
  6
BYBLOCK
 62
     0
 10
8273.521575
 20
156000.0
 30
10.0
  0
POINT
  5
E2
  8
DEFPOINTS
  6
BYBLOCK
 62
     0
 10
8244.983977
 20
156849.997355
 30
0.0
  0
POINT
  5
E3
  8
DEFPOINTS
  6
BYBLOCK
 62
     0
 10
8474.174761
 20
156849.997355
 30
10.0
  0
ENDBLK
  5
E5
  8
0
  0
BLOCK
  8
0
  2
*D9
 70
     1
 10
0.0
 20
0.0
 30
0.0
  3
*D9
  1

  0
LINE
  5
E8
  8
0
  6
BYBLOCK
 62
     9
 10
8254.983977
 20
156849.997355
 30
0.0
 11
8289.881908
 21
156849.997355
 31
0.0
  0
LINE
  5
E9
  8
0
  6
BYBLOCK
 62
     9
 10
8152.094137
 20
156780.0
 30
0.0
 11
8289.881908
 21
156780.0
 31
0.0
  0
LINE
  5
EA
  8
0
  6
BYBLOCK
 62
     9
 10
8288.881908
 20
156869.997355
 30
0.0
 11
8288.881908
 21
156889.997355
 31
0.0
  0
LINE
  5
EB
  8
0
  6
BYBLOCK
 62
     9
 10
8288.881908
 20
156760.0
 30
0.0
 11
8288.881908
 21
156740.0
 31
0.0
  0
TEXT
  5
EC
  8
0
  6
BYBLOCK
 62
    11
 10
8306.381908
 20
156728.75
 30
0.0
 40
35.0
  1
70
 50
90.0
  0
LINE
  5
ED
  8
0
  6
BYBLOCK
 62
     9
 10
8288.881908
 20
156849.997355
 30
0.0
 11
8288.881908
 21
156780.0
 31
0.0
  0
SOLID
  5
EE
  8
0
  6
BYBLOCK
 62
     9
 10
8285.548575
 20
156869.997355
 30
0.0
 11
8292.215241
 21
156869.997355
 31
0.0
 12
8288.881908
 22
156849.997355
 32
0.0
 13
8288.881908
 23
156849.997355
 33
0.0
  0
SOLID
  5
EF
  8
0
  6
BYBLOCK
 62
     9
 10
8285.548575
 20
156760.0
 30
0.0
 11
8292.215241
 21
156760.0
 31
0.0
 12
8288.881908
 22
156780.0
 32
0.0
 13
8288.881908
 23
156780.0
 33
0.0
  0
POINT
  5
F0
  8
DEFPOINTS
  6
BYBLOCK
 62
     0
 10
8244.983977
 20
156849.997355
 30
0.0
  0
POINT
  5
F1
  8
DEFPOINTS
  6
BYBLOCK
 62
     0
 10
8142.094137
 20
156780.0
 30
0.0
  0
POINT
  5
F2
  8
DEFPOINTS
  6
BYBLOCK
 62
     0
 10
8288.881908
 20
156780.0
 30
0.0
  0
ENDBLK
  5
F4
  8
0
  0
ENDSEC
  0
SECTION
  2
ENTITIES
  0
POLYLINE
  5
20
  8
TEAM-BODY
 66
     1
 10
0.0
 20
0.0
 30
0.0
 70
     1
  0
VERTEX
  5
225
  8
TEAM-BODY
 10
79.983977
 20
689.997355
 30
0.0
  0
VERTEX
  5
226
  8
TEAM-BODY
 10
-80.016023
 20
689.997355
 30
0.0
  0
VERTEX
  5
227
  8
TEAM-BODY
 10
-80.016023
 20
406.997355
 30
0.0
 42
0.414214
  0
VERTEX
  5
228
  8
TEAM-BODY
 10
-73.016023
 20
399.997355
 30
0.0
  0
VERTEX
  5
229
  8
TEAM-BODY
 10
72.983977
 20
399.997355
 30
0.0
 42
0.414214
  0
VERTEX
  5
22A
  8
TEAM-BODY
 10
79.983977
 20
406.997355
 30
0.0
  0
SEQEND
  5
22B
  8
TEAM-BODY
  0
TEXT
  5
22
  8
TEAM-TXT
 10
-127.834796
 20
712.220126
 30
0.0
 40
30.0
  1
team 212201
 41
0.8
 51
15.0
  7
TEAM
  0
LINE
  5
25
  8
TEAM-BODY
 10
-245.016023
 20
809.997355
 30
0.0
 11
244.983977
 21
809.997355
 31
0.0
  0
LINE
  5
26
  8
TEAM-BODY
 10
-245.016023
 20
849.997355
 30
0.0
 11
244.983977
 21
849.997355
 31
0.0
  0
POLYLINE
  5
27
  8
TEAM-BODY
 66
     1
 10
0.0
 20
0.0
 30
0.0
 70
     1
  0
VERTEX
  5
22C
  8
TEAM-BODY
 10
231.471301
 20
797.720551
 30
0.0
 42
-0.414214
  0
VERTEX
  5
22D
  8
TEAM-BODY
 10
244.983977
 20
809.997355
 30
0.0
 42
0.414214
  0
VERTEX
  5
22E
  8
TEAM-BODY
 10
249.983977
 20
814.997355
 30
0.0
  0
VERTEX
  5
22F
  8
TEAM-BODY
 10
249.983977
 20
844.997355
 30
0.0
 42
0.414214
  0
VERTEX
  5
230
  8
TEAM-BODY
 10
244.983977
 20
849.997355
 30
0.0
 42
-0.414214
  0
VERTEX
  5
231
  8
TEAM-BODY
 10
239.983977
 20
854.997355
 30
0.0
  0
VERTEX
  5
232
  8
TEAM-BODY
 10
239.983977
 20
877.997355
 30
0.0
 42
0.414214
  0
VERTEX
  5
233
  8
TEAM-BODY
 10
232.983977
 20
884.997355
 30
0.0
  0
VERTEX
  5
234
  8
TEAM-BODY
 10
-233.016023
 20
884.997355
 30
0.0
 42
0.414214
  0
VERTEX
  5
235
  8
TEAM-BODY
 10
-240.016023
 20
877.997355
 30
0.0
  0
VERTEX
  5
236
  8
TEAM-BODY
 10
-240.016023
 20
854.997355
 30
0.0
 42
-0.414214
  0
VERTEX
  5
237
  8
TEAM-BODY
 10
-245.016023
 20
849.997355
 30
0.0
 42
0.414214
  0
VERTEX
  5
238
  8
TEAM-BODY
 10
-250.016023
 20
844.997355
 30
0.0
  0
VERTEX
  5
239
  8
TEAM-BODY
 10
-250.016023
 20
814.997355
 30
0.0
 42
0.414214
  0
VERTEX
  5
23A
  8
TEAM-BODY
 10
-245.016023
 20
809.997355
 30
0.0
 42
-0.414214
  0
VERTEX
  5
23B
  8
TEAM-BODY
 10
-231.503346
 20
797.720551
 30
0.0
 42
0.14353
  0
VERTEX
  5
23C
  8
TEAM-BODY
 10
-182.955471
 20
695.115057
 30
0.0
 42
0.216162
  0
VERTEX
  5
23D
  8
TEAM-BODY
 10
-171.670961
 20
689.997355
 30
0.0
  0
VERTEX
  5
23E
  8
TEAM-BODY
 10
171.638916
 20
689.997355
 30
0.0
 42
0.216162
  0
VERTEX
  5
23F
  8
TEAM-BODY
 10
182.923426
 20
695.115057
 30
0.0
 42
0.14353
  0
SEQEND
  5
240
  8
TEAM-BODY
  0
DIMENSION
  5
28
  8
TEAM-MAS
  2
*D5
 10
120.094137
 20
909.240199
 30
10.0
 11
0.094137
 21
909.240199
 31
0.0
 12
-8000.0
 22
-156000.0
 32
0.0
 13
-119.905863
 23
794.0
 33
10.0
 14
120.094137
 24
794.0
 34
10.0
1001
ACAD
1000
DSTYLE
1002
{
1070
    40
1040
1.0
1002
}
  0
DIMENSION
  5
37
  8
TEAM-MAS
  2
*D6
 10
249.983977
 20
951.978911
 30
10.0
 11
-0.016023
 21
951.978911
 31
0.0
 12
-8000.0
 22
-156000.0
 32
0.0
 13
-250.016023
 23
829.997355
 33
0.0
 14
249.983977
 24
829.997355
 34
0.0
1001
ACAD
1000
DSTYLE
1002
{
1070
    40
1040
1.0
1002
}
  0
DIMENSION
  5
45
  8
TEAM-MAS
  2
*D0
 10
381.538732
 20
0.0
 30
10.0
 11
381.538732
 21
284.998678
 31
0.0
 12
-8000.0
 22
-156000.0
 32
0.0
 13
0.0
 23
569.997355
 33
0.0
 14
0.0
 24
0.0
 34
10.0
 50
90.0
1001
ACAD
1000
DSTYLE
1002
{
1070
    40
1040
1.0
1002
}
  0
DIMENSION
  5
53
  8
TEAM-MAS
  2
*D1
 10
427.713007
 20
619.997355
 30
10.0
 11
427.713007
 21
309.998678
 31
0.0
 12
-8000.0
 22
-156000.0
 32
0.0
 13
0.0
 23
0.0
 33
10.0
 14
40.0
 24
619.997355
 34
0.0
 50
90.0
1001
ACAD
1000
DSTYLE
1002
{
1070
    40
1040
1.0
1002
}
  0
DIMENSION
  5
61
  8
TEAM-MAS
  2
*D2
 10
336.940289
 20
669.997355
 30
10.0
 11
336.940289
 21
759.997355
 31
0.0
 12
-8000.0
 22
-156000.0
 32
0.0
 13
242.558741
 23
849.997355
 33
10.0
 14
37.483977
 24
669.997355
 34
0.0
 50
90.0
1001
ACAD
1000
DSTYLE
1002
{
1070
    40
1040
1.0
1002
}
  0
DIMENSION
  5
6F
  8
TEAM-MAS
  2
*D3
 10
381.538732
 20
849.997355
 30
0.0
 11
381.538732
 21
709.997355
 31
0.0
 12
-8000.0
 22
-156000.0
 32
0.0
 13
0.0
 23
569.997355
 33
0.0
 14
244.983977
 24
849.997355
 34
0.0
 50
90.0
1001
ACAD
1000
DSTYLE
1002
{
1070
    40
1040
1.0
1002
}
  0
DIMENSION
  5
7D
  8
TEAM-MAS
  2
*D4
 10
427.713007
 20
849.997355
 30
0.0
 11
427.713007
 21
734.997355
 31
0.0
 12
-8000.0
 22
-156000.0
 32
0.0
 13
40.0
 23
619.997355
 33
0.0
 14
244.983977
 24
849.997355
 34
0.0
 50
90.0
1001
ACAD
1000
DSTYLE
1002
{
1070
    40
1040
1.0
1002
}
  0
LINE
  5
8B
  8
TEAM-AXE
 10
-0.016023
 20
696.169812
 30
0.0
 11
-0.016023
 21
665.758164
 31
0.0
  0
LINE
  5
8E
  8
TEAM-AXE
 10
0.0
 20
569.997355
 30
0.0
 11
0.0
 21
589.997355
 31
0.0
  0
LINE
  5
8F
  8
TEAM-AXE
 10
0.0
 20
569.997355
 30
0.0
 11
-20.0
 21
569.997355
 31
0.0
  0
LINE
  5
90
  8
TEAM-AXE
 10
0.0
 20
569.997355
 30
0.0
 11
0.0
 21
549.997355
 31
0.0
  0
CIRCLE
  5
91
  8
TEAM-KAN
 10
0.0
 20
569.997355
 30
0.0
 40
20.0
  0
LINE
  5
93
  8
TEAM-AXE
 10
0.0
 20
569.997355
 30
0.0
 11
20.0
 21
569.997355
 31
0.0
  0
LINE
  5
94
  8
TEAM-AXE
 10
-40.0
 20
619.997355
 30
0.0
 11
-40.0
 21
629.997355
 31
0.0
  0
LINE
  5
95
  8
TEAM-AXE
 10
-40.0
 20
619.997355
 30
0.0
 11
-30.0
 21
619.997355
 31
0.0
  0
LINE
  5
96
  8
TEAM-AXE
 10
-40.0
 20
619.997355
 30
0.0
 11
-40.0
 21
609.997355
 31
0.0
  0
CIRCLE
  5
97
  8
TEAM-WARM
 10
-40.0
 20
619.997355
 30
0.0
 40
10.0
  0
POINT
  5
99
  8
TEAM-MAS
 10
-40.0
 20
599.997355
 30
0.0
  0
POINT
  5
9A
  8
TEAM-MAS
 10
-40.0
 20
599.997355
 30
0.0
  0
POINT
  5
9B
  8
TEAM-MAS
 10
-40.0
 20
599.997355
 30
0.0
  0
LINE
  5
9C
  8
TEAM-AXE
 10
-40.0
 20
619.997355
 30
0.0
 11
-50.0
 21
619.997355
 31
0.0
  0
LINE
  5
9D
  8
TEAM-AXE
 10
40.0
 20
619.997355
 30
0.0
 11
40.0
 21
629.997355
 31
0.0
  0
LINE
  5
9E
  8
TEAM-AXE
 10
40.0
 20
619.997355
 30
0.0
 11
40.0
 21
609.997355
 31
0.0
  0
POINT
  5
9F
  8
TEAM-MAS
 10
40.0
 20
599.997355
 30
0.0
  0
POINT
  5
A0
  8
TEAM-MAS
 10
40.0
 20
599.997355
 30
0.0
  0
POINT
  5
A1
  8
TEAM-MAS
 10
40.0
 20
599.997355
 30
0.0
  0
LINE
  5
A2
  8
TEAM-AXE
 10
40.0
 20
619.997355
 30
0.0
 11
50.0
 21
619.997355
 31
0.0
  0
LINE
  5
A3
  8
TEAM-AXE
 10
40.0
 20
619.997355
 30
0.0
 11
30.0
 21
619.997355
 31
0.0
  0
CIRCLE
  5
A4
  8
TEAM-COLD
 10
40.0
 20
619.997355
 30
0.0
 40
10.0
  0
POINT
  5
A6
  8
TEAM-MAS
 10
40.0
 20
599.997355
 30
0.0
  0
POINT
  5
A7
  8
TEAM-MAS
 10
40.0
 20
599.997355
 30
0.0
  0
DIMENSION
  5
A8
  8
TEAM-MAS
  2
*D7
 10
-40.0
 20
489.748776
 30
10.0
 11
0.0
 21
489.748776
 31
0.0
 12
-8000.0
 22
-156000.0
 32
0.0
 70
   128
 13
40.0
 23
619.997355
 33
0.0
 14
-40.0
 24
619.997355
 34
0.0
1001
ACAD
1000
DSTYLE
1002
{
1070
    40
1040
1.0
1002
}
  0
POLYLINE
  5
B6
  8
TEAM-HIDE
 66
     1
 10
0.0
 20
0.0
 30
0.0
 70
     1
  0
VERTEX
  5
241
  8
TEAM-HIDE
 10
-114.905863
 20
770.0
 30
0.0
 42
0.414214
  0
VERTEX
  5
242
  8
TEAM-HIDE
 10
-104.905863
 20
780.0
 30
0.0
 42
0.414214
  0
VERTEX
  5
243
  8
TEAM-HIDE
 10
-114.905863
 20
790.0
 30
0.0
  0
VERTEX
  5
244
  8
TEAM-HIDE
 10
-124.905863
 20
790.0
 30
0.0
 42
0.414214
  0
VERTEX
  5
245
  8
TEAM-HIDE
 10
-134.905863
 20
780.0
 30
0.0
 42
0.414214
  0
VERTEX
  5
246
  8
TEAM-HIDE
 10
-124.905863
 20
770.0
 30
0.0
  0
VERTEX
  5
247
  8
TEAM-HIDE
 10
-119.905863
 20
770.0
 30
0.0
  0
SEQEND
  5
248
  8
TEAM-HIDE
  0
POINT
  5
B9
  8
TEAM-AXE
 10
-119.905863
 20
786.0
 30
0.0
  0
LINE
  5
BA
  8
TEAM-AXE
 10
-119.905863
 20
794.0
 30
0.0
 11
-119.905863
 21
787.0
 31
0.0
  0
LINE
  5
BB
  8
TEAM-AXE
 10
-107.905863
 20
780.0
 30
0.0
 11
-98.905863
 21
780.0
 31
0.0
  0
POINT
  5
BC
  8
TEAM-AXE
 10
-109.905863
 20
780.0
 30
0.0
  0
LINE
  5
BD
  8
TEAM-AXE
 10
-119.905863
 20
776.0
 30
0.0
 11
-119.905863
 21
785.0
 31
0.0
  0
POINT
  5
BE
  8
TEAM-AXE
 10
-129.905863
 20
780.0
 30
0.0
  0
POINT
  5
BF
  8
TEAM-AXE
 10
-119.905863
 20
774.0
 30
0.0
  0
LINE
  5
C0
  8
TEAM-AXE
 10
-111.905863
 20
780.0
 30
0.0
 11
-127.905863
 21
780.0
 31
0.0
  0
LINE
  5
C1
  8
TEAM-AXE
 10
-131.905863
 20
780.0
 30
0.0
 11
-141.905863
 21
780.0
 31
0.0
  0
LINE
  5
C2
  8
TEAM-AXE
 10
-119.905863
 20
765.0
 30
0.0
 11
-119.905863
 21
773.0
 31
0.0
  0
ARC
  5
C3
  8
TEAM-BODY
 10
44.483977
 20
682.997355
 30
0.0
 40
7.0
 50
90.0
 51
180.0
  0
LINE
  5
C4
  8
TEAM-BODY
 10
37.483977
 20
682.997355
 30
0.0
 11
37.483977
 21
669.997355
 31
0.0
  0
ARC
  5
C5
  8
TEAM-BODY
 10
-44.516023
 20
682.997355
 30
0.0
 40
7.0
 50
360.0
 51
90.0
  0
LINE
  5
C6
  8
TEAM-BODY
 10
-37.516023
 20
682.997355
 30
0.0
 11
-37.516023
 21
669.997355
 31
0.0
  0
LINE
  5
C7
  8
TEAM-BODY
 10
-37.516023
 20
669.997355
 30
0.0
 11
37.483977
 21
669.997355
 31
0.0
  0
CIRCLE
  5
C8
  8
TEAM-INSP
 10
0.0
 20
0.0
 30
0.0
 40
10.0
  0
POINT
  5
CA
  8
TEAM-MAS
 10
60.0
 20
619.997355
 30
0.0
  0
POINT
  5
CB
  8
TEAM-MAS
 10
60.0
 20
619.997355
 30
0.0
  0
POINT
  5
CC
  8
TEAM-MAS
 10
60.0
 20
619.997355
 30
0.0
  0
POLYLINE
  5
CD
  8
TEAM-HIDE
 66
     1
 10
0.0
 20
0.0
 30
0.0
 70
     1
  0
VERTEX
  5
249
  8
TEAM-HIDE
 10
115.094137
 20
770.0
 30
0.0
 42
-0.414214
  0
VERTEX
  5
24A
  8
TEAM-HIDE
 10
105.094137
 20
780.0
 30
0.0
 42
-0.414214
  0
VERTEX
  5
24B
  8
TEAM-HIDE
 10
115.094137
 20
790.0
 30
0.0
  0
VERTEX
  5
24C
  8
TEAM-HIDE
 10
125.094137
 20
790.0
 30
0.0
 42
-0.414214
  0
VERTEX
  5
24D
  8
TEAM-HIDE
 10
135.094137
 20
780.0
 30
0.0
 42
-0.414214
  0
VERTEX
  5
24E
  8
TEAM-HIDE
 10
125.094137
 20
770.0
 30
0.0
  0
VERTEX
  5
24F
  8
TEAM-HIDE
 10
120.094137
 20
770.0
 30
0.0
  0
SEQEND
  5
250
  8
TEAM-HIDE
  0
POINT
  5
CE
  8
TEAM-AXE
 10
120.094137
 20
786.0
 30
0.0
  0
LINE
  5
CF
  8
TEAM-AXE
 10
120.094137
 20
794.0
 30
0.0
 11
120.094137
 21
787.0
 31
0.0
  0
LINE
  5
D0
  8
TEAM-AXE
 10
108.094137
 20
780.0
 30
0.0
 11
99.094137
 21
780.0
 31
0.0
  0
LINE
  5
D1
  8
TEAM-AXE
 10
132.094137
 20
780.0
 30
0.0
 11
142.094137
 21
780.0
 31
0.0
  0
POINT
  5
D2
  8
TEAM-AXE
 10
130.094137
 20
780.0
 30
0.0
  0
POINT
  5
D3
  8
TEAM-AXE
 10
110.094137
 20
780.0
 30
0.0
  0
LINE
  5
D4
  8
TEAM-AXE
 10
120.094137
 20
776.0
 30
0.0
 11
120.094137
 21
785.0
 31
0.0
  0
POINT
  5
D5
  8
TEAM-AXE
 10
120.094137
 20
774.0
 30
0.0
  0
LINE
  5
D6
  8
TEAM-AXE
 10
112.094137
 20
780.0
 30
0.0
 11
128.094137
 21
780.0
 31
0.0
  0
LINE
  5
D7
  8
TEAM-AXE
 10
120.094137
 20
765.0
 30
0.0
 11
120.094137
 21
773.0
 31
0.0
  0
DIMENSION
  5
D8
  8
TEAM-MAS
  2
*D8
 10
474.174761
 20
849.997355
 30
10.0
 11
474.174761
 21
424.998678
 31
0.0
 12
-8000.0
 22
-156000.0
 32
0.0
 13
273.521575
 23
0.0
 33
10.0
 14
244.983977
 24
849.997355
 34
0.0
 50
90.0
1001
ACAD
1000
DSTYLE
1002
{
1070
    40
1040
1.0
1002
}
  0
DIMENSION
  5
E6
  8
TEAM-MAS
  2
*D9
 10
288.881908
 20
780.0
 30
0.0
 11
288.881908
 21
755.0
 31
0.0
 12
-8000.0
 22
-156000.0
 32
0.0
 70
   128
 13
244.983977
 23
849.997355
 33
0.0
 14
142.094137
 24
780.0
 34
0.0
 50
90.0
1001
ACAD
1000
DSTYLE
1002
{
1070
    40
1040
1.0
1002
}
  0
ENDSEC
  0
EOF
