  0
SECTION
  2
HEADER
  9
$ACADVER
  1
AC1009
  9
$INSBASE
 10
0.0
 20
0.0
 30
0.0
  9
$EXTMIN
 10
-334.292484
 20
-534.99836
 30
-0.000431
  9
$EXTMAX
 10
424.307657
 20
10.035519
 30
10.000593
  9
$LIMMIN
 10
-334.292484
 20
-534.99836
  9
$LIMMAX
 10
424.307657
 20
10.035519
  9
$ORTHOMODE
 70
     1
  9
$REGENMODE
 70
     1
  9
$FILLMODE
 70
     1
  9
$QTEXTMODE
 70
     0
  9
$MIRRTEXT
 70
     0
  9
$DRAGMODE
 70
     2
  9
$LTSCALE
 40
25.0
  9
$OSMODE
 70
     0
  9
$ATTMODE
 70
     1
  9
$TEXTSIZE
 40
200.0
  9
$TRACEWID
 40
1.0
  9
$TEXTSTYLE
  7
STANDARD
  9
$CLAYER
  8
TEAM-MAS
  9
$CELTYPE
  6
BYLAYER
  9
$CECOLOR
 62
   256
  9
$DIMSCALE
 40
1.0
  9
$DIMASZ
 40
20.0
  9
$DIMEXO
 40
10.0
  9
$DIMDLI
 40
1.0
  9
$DIMRND
 40
0.0
  9
$DIMDLE
 40
0.0
  9
$DIMEXE
 40
1.0
  9
$DIMTP
 40
0.0
  9
$DIMTM
 40
0.0
  9
$DIMTXT
 40
35.0
  9
$DIMCEN
 40
1.0
  9
$DIMTSZ
 40
0.0
  9
$DIMTOL
 70
     0
  9
$DIMLIM
 70
     0
  9
$DIMTIH
 70
     0
  9
$DIMTOH
 70
     0
  9
$DIMSE1
 70
     0
  9
$DIMSE2
 70
     0
  9
$DIMTAD
 70
     0
  9
$DIMZIN
 70
     0
  9
$DIMBLK
  1

  9
$DIMASO
 70
     1
  9
$DIMSHO
 70
     0
  9
$DIMPOST
  1

  9
$DIMAPOST
  1

  9
$DIMALT
 70
     0
  9
$DIMALTD
 70
     2
  9
$DIMALTF
 40
25.4
  9
$DIMLFAC
 40
1.0
  9
$DIMTOFL
 70
     0
  9
$DIMTVP
 40
0.0
  9
$DIMTIX
 70
     0
  9
$DIMSOXD
 70
     0
  9
$DIMSAH
 70
     0
  9
$DIMBLK1
  1

  9
$DIMBLK2
  1

  9
$DIMSTYLE
  2
TEAM
  9
$DIMCLRD
 70
     9
  9
$DIMCLRE
 70
     9
  9
$DIMCLRT
 70
    11
  9
$DIMTFAC
 40
1.0
  9
$DIMGAP
 40
15.0
  9
$LUNITS
 70
     2
  9
$LUPREC
 70
     1
  9
$SKETCHINC
 40
1.0
  9
$FILLETRAD
 40
10.0
  9
$AUNITS
 70
     0
  9
$AUPREC
 70
     0
  9
$MENU
  1
ROPLANS
  9
$ELEVATION
 40
0.0
  9
$PELEVATION
 40
0.0
  9
$THICKNESS
 40
0.0
  9
$LIMCHECK
 70
     0
  9
$BLIPMODE
 70
     1
  9
$CHAMFERA
 40
0.0
  9
$CHAMFERB
 40
0.0
  9
$SKPOLY
 70
     0
  9
$TDCREATE
 40
2450392.957851
  9
$TDUPDATE
 40
2455509.933601
  9
$TDINDWG
 40
2.904676
  9
$TDUSRTIMER
 40
2.904676
  9
$USRTIMER
 70
     1
  9
$ANGBASE
 50
0.0
  9
$ANGDIR
 70
     0
  9
$PDMODE
 70
     0
  9
$PDSIZE
 40
0.0
  9
$PLINEWID
 40
0.0
  9
$COORDS
 70
     2
  9
$SPLFRAME
 70
     0
  9
$SPLINETYPE
 70
     6
  9
$SPLINESEGS
 70
     8
  9
$ATTDIA
 70
     0
  9
$ATTREQ
 70
     0
  9
$HANDLING
 70
     1
  9
$HANDSEED
  5
113
  9
$SURFTAB1
 70
    24
  9
$SURFTAB2
 70
    24
  9
$SURFTYPE
 70
     6
  9
$SURFU
 70
     6
  9
$SURFV
 70
     6
  9
$UCSNAME
  2

  9
$UCSORG
 10
0.0
 20
0.0
 30
0.0
  9
$UCSXDIR
 10
1.0
 20
0.0
 30
0.0
  9
$UCSYDIR
 10
0.0
 20
1.0
 30
0.0
  9
$PUCSNAME
  2

  9
$PUCSORG
 10
0.0
 20
0.0
 30
0.0
  9
$PUCSXDIR
 10
1.0
 20
0.0
 30
0.0
  9
$PUCSYDIR
 10
0.0
 20
1.0
 30
0.0
  9
$USERI1
 70
     0
  9
$USERI2
 70
     0
  9
$USERI3
 70
     0
  9
$USERI4
 70
     0
  9
$USERI5
 70
     0
  9
$USERR1
 40
0.0
  9
$USERR2
 40
0.0
  9
$USERR3
 40
0.0
  9
$USERR4
 40
0.0
  9
$USERR5
 40
0.0
  9
$WORLDVIEW
 70
     1
  9
$SHADEDGE
 70
     0
  9
$SHADEDIF
 70
    70
  9
$TILEMODE
 70
     1
  9
$MAXACTVP
 70
    16
  9
$PLIMCHECK
 70
     0
  9
$PEXTMIN
 10
-0.805942
 20
0.005011
 30
0.0
  9
$PEXTMAX
 10
20.250094
 20
11.356329
 30
0.0
  9
$PLIMMIN
 10
0.0
 20
0.0
  9
$PLIMMAX
 10
12.0
 20
9.0
  9
$UNITMODE
 70
     0
  9
$VISRETAIN
 70
     0
  9
$PLINEGEN
 70
     0
  9
$PSLTSCALE
 70
     0
  0
ENDSEC
  0
SECTION
  2
TABLES
  0
TABLE
  2
VPORT
 70
     2
  0
VPORT
  2
*ACTIVE
 70
     0
 10
0.0
 20
0.0
 11
1.0
 21
1.0
 12
45.007586
 22
-262.48142
 13
0.0
 23
0.0
 14
1.0
 24
1.0
 15
50.0
 25
50.0
 16
0.0
 26
0.0
 36
1.0
 17
0.0
 27
0.0
 37
0.0
 40
548.381068
 41
1.865779
 42
50.0
 43
0.0
 44
0.0
 50
0.0
 51
0.0
 71
     0
 72
   100
 73
     1
 74
     1
 75
     0
 76
     0
 77
     0
 78
     0
  0
ENDTAB
  0
TABLE
  2
LTYPE
 70
     3
  0
LTYPE
  2
CONTINUOUS
 70
     0
  3
Solid Line
 72
    65
 73
     0
 40
0.0
  0
LTYPE
  2
31
 70
     0
  3

 72
    65
 73
     4
 40
2.1
 49
1.5
 49
-0.3
 49
0.0
 49
-0.3
  0
LTYPE
  2
22
 70
     0
  3

 72
    65
 73
     2
 40
1.4
 49
1.2
 49
-0.2
  0
ENDTAB
  0
TABLE
  2
LAYER
 70
     9
  0
LAYER
  2
0
 70
     0
 62
     7
  6
CONTINUOUS
  0
LAYER
  2
DEFPOINTS
 70
     0
 62
     7
  6
CONTINUOUS
  0
LAYER
  2
TEAM-BODY
 70
     0
 62
     2
  6
CONTINUOUS
  0
LAYER
  2
TEAM-AXE
 70
     0
 62
    10
  6
31
  0
LAYER
  2
TEAM-MAS
 70
     0
 62
     9
  6
CONTINUOUS
  0
LAYER
  2
TEAM-TXT
 70
     0
 62
    11
  6
CONTINUOUS
  0
LAYER
  2
TEAM-DET1
 70
     0
 62
     4
  6
CONTINUOUS
  0
LAYER
  2
TEAM-HIDE
 70
     0
 62
     8
  6
22
  0
LAYER
  2
TEAM-INSP
 70
     0
 62
     5
  6
CONTINUOUS
  0
ENDTAB
  0
TABLE
  2
STYLE
 70
     2
  0
STYLE
  2
STANDARD
 70
     0
 40
0.0
 41
1.0
 50
0.0
 71
     0
 42
200.0
  3
txt
  4

  0
STYLE
  2
TEAM
 70
     0
 40
0.0
 41
0.8
 50
15.0
 71
     0
 42
7.0
  3
ROMANS.shx
  4

  0
ENDTAB
  0
TABLE
  2
VIEW
 70
     0
  0
ENDTAB
  0
TABLE
  2
UCS
 70
     0
  0
ENDTAB
  0
TABLE
  2
APPID
 70
     1
  0
APPID
  2
ACAD
 70
     0
  0
ENDTAB
  0
TABLE
  2
DIMSTYLE
 70
     1
  0
DIMSTYLE
  2
TEAM
 70
     0
  3

  4

  5

  6

  7

 40
1.0
 41
20.0
 42
10.0
 43
1.0
 44
1.0
 45
0.0
 46
0.0
 47
0.0
 48
0.0
140
35.0
141
1.0
142
0.0
143
25.4
144
1.0
145
0.0
146
1.0
147
15.0
 71
     0
 72
     0
 73
     0
 74
     0
 75
     0
 76
     0
 77
     0
 78
     0
170
     0
171
     2
172
     0
173
     0
174
     0
175
     0
176
     9
177
     9
178
    11
  0
ENDTAB
  0
ENDSEC
  0
SECTION
  2
BLOCKS
  0
BLOCK
  8
0
  2
$MODEL_SPACE
 70
     0
 10
0.0
 20
0.0
 30
0.0
  3
$MODEL_SPACE
  1

  0
ENDBLK
  5
103
  8
0
  0
BLOCK
 67
     1
  8
0
  2
$PAPER_SPACE
 70
     0
 10
0.0
 20
0.0
 30
0.0
  3
$PAPER_SPACE
  1

  0
ENDBLK
  5
101
 67
     1
  8
0
  0
BLOCK
  8
0
  2
*D0
 70
     1
 10
0.0
 20
0.0
 30
0.0
  3
*D0
  1

  0
LINE
  5
2C
  8
0
  6
BYBLOCK
 62
     9
 10
4330.0
 20
164000.0
 30
0.0
 11
4363.162573
 21
164000.0
 31
0.0
  0
LINE
  5
2D
  8
0
  6
BYBLOCK
 62
     9
 10
4010.427754
 20
163790.0
 30
0.0
 11
4363.162573
 21
163790.0
 31
0.0
  0
LINE
  5
2E
  8
0
  6
BYBLOCK
 62
     9
 10
4362.162573
 20
163980.0
 30
0.0
 11
4362.162573
 21
163938.458169
 31
0.0
  0
LINE
  5
2F
  8
0
  6
BYBLOCK
 62
     9
 10
4362.162573
 20
163810.0
 30
0.0
 11
4362.162573
 21
163851.541831
 31
0.0
  0
SOLID
  5
30
  8
0
  6
BYBLOCK
 62
     9
 10
4358.829239
 20
163980.0
 30
0.0
 11
4365.495906
 21
163980.0
 31
0.0
 12
4362.162573
 22
164000.0
 32
0.0
 13
4362.162573
 23
164000.0
 33
0.0
  0
SOLID
  5
31
  8
0
  6
BYBLOCK
 62
     9
 10
4358.829239
 20
163810.0
 30
0.0
 11
4365.495906
 21
163810.0
 31
0.0
 12
4362.162573
 22
163790.0
 32
0.0
 13
4362.162573
 23
163790.0
 33
0.0
  0
TEXT
  5
32
  8
0
  6
BYBLOCK
 62
    11
 10
4379.662573
 20
163857.083333
 30
0.0
 40
35.0
  1
210
 50
90.0
  0
POINT
  5
33
  8
DEFPOINTS
  6
BYBLOCK
 62
     0
 10
4320.0
 20
164000.0
 30
0.0
  0
POINT
  5
35
  8
DEFPOINTS
  6
BYBLOCK
 62
     0
 10
4000.427754
 20
163790.0
 30
0.0
  0
POINT
  5
36
  8
DEFPOINTS
  6
BYBLOCK
 62
     0
 10
4362.162573
 20
163790.0
 30
0.0
  0
ENDBLK
  5
38
  8
0
  0
BLOCK
  8
0
  2
*D1
 70
     1
 10
0.0
 20
0.0
 30
0.0
  3
*D1
  1

  0
LINE
  5
3B
  8
0
  6
BYBLOCK
 62
     9
 10
4330.0
 20
164000.0
 30
0.0
 11
4408.053824
 21
164000.0
 31
0.0
  0
LINE
  5
3C
  8
0
  6
BYBLOCK
 62
     9
 10
4010.0
 20
163515.0
 30
0.0
 11
4408.053824
 21
163515.0
 31
0.0
  0
LINE
  5
3D
  8
0
  6
BYBLOCK
 62
     9
 10
4407.053824
 20
163980.0
 30
0.0
 11
4407.053824
 21
163806.474874
 31
0.0
  0
LINE
  5
3E
  8
0
  6
BYBLOCK
 62
     9
 10
4407.053824
 20
163535.0
 30
0.0
 11
4407.053824
 21
163708.525126
 31
0.0
  0
SOLID
  5
3F
  8
0
  6
BYBLOCK
 62
     9
 10
4403.720491
 20
163980.0
 30
0.0
 11
4410.387157
 21
163980.0
 31
0.0
 12
4407.053824
 22
164000.0
 32
0.0
 13
4407.053824
 23
164000.0
 33
0.0
  0
SOLID
  5
40
  8
0
  6
BYBLOCK
 62
     9
 10
4403.720491
 20
163535.0
 30
0.0
 11
4410.387157
 21
163535.0
 31
0.0
 12
4407.053824
 22
163515.0
 32
0.0
 13
4407.053824
 23
163515.0
 33
0.0
  0
TEXT
  5
41
  8
0
  6
BYBLOCK
 62
    11
 10
4424.553824
 20
163710.833333
 30
0.0
 40
35.0
  1
485
 50
90.0
  0
POINT
  5
42
  8
DEFPOINTS
  6
BYBLOCK
 62
     0
 10
4320.0
 20
164000.0
 30
0.0
  0
POINT
  5
43
  8
DEFPOINTS
  6
BYBLOCK
 62
     0
 10
4000.0
 20
163515.0
 30
0.0
  0
POINT
  5
44
  8
DEFPOINTS
  6
BYBLOCK
 62
     0
 10
4407.053824
 20
163515.0
 30
10.0
  0
ENDBLK
  5
46
  8
0
  0
BLOCK
  8
0
  2
*D2
 70
     1
 10
0.0
 20
0.0
 30
0.0
  3
*D2
  1

  0
LINE
  5
61
  8
0
  6
BYBLOCK
 62
     9
 10
3675.0
 20
163558.690523
 30
0.0
 11
3675.0
 21
163481.218657
 31
0.0
  0
LINE
  5
62
  8
0
  6
BYBLOCK
 62
     9
 10
4325.0
 20
163558.690523
 30
0.0
 11
4325.0
 21
163481.218657
 31
0.0
  0
LINE
  5
63
  8
0
  6
BYBLOCK
 62
     9
 10
3695.0
 20
163482.218657
 30
0.0
 11
3952.438976
 21
163482.218657
 31
0.0
  0
LINE
  5
64
  8
0
  6
BYBLOCK
 62
     9
 10
4305.0
 20
163482.218657
 30
0.0
 11
4047.561024
 21
163482.218657
 31
0.0
  0
SOLID
  5
65
  8
0
  6
BYBLOCK
 62
     9
 10
3695.0
 20
163485.55199
 30
0.0
 11
3695.0
 21
163478.885323
 31
0.0
 12
3675.0
 22
163482.218657
 32
0.0
 13
3675.0
 23
163482.218657
 33
0.0
  0
SOLID
  5
66
  8
0
  6
BYBLOCK
 62
     9
 10
4305.0
 20
163485.55199
 30
0.0
 11
4305.0
 21
163478.885323
 31
0.0
 12
4325.0
 22
163482.218657
 32
0.0
 13
4325.0
 23
163482.218657
 33
0.0
  0
TEXT
  5
67
  8
0
  6
BYBLOCK
 62
    11
 10
3956.25
 20
163464.718657
 30
0.0
 40
35.0
  1
650
  0
POINT
  5
68
  8
DEFPOINTS
  6
BYBLOCK
 62
     0
 10
3675.0
 20
163568.690523
 30
0.0
  0
POINT
  5
69
  8
DEFPOINTS
  6
BYBLOCK
 62
     0
 10
4325.0
 20
163568.690523
 30
0.0
  0
POINT
  5
6A
  8
DEFPOINTS
  6
BYBLOCK
 62
     0
 10
4325.0
 20
163482.218657
 30
0.0
  0
ENDBLK
  5
6C
  8
0
  0
ENDSEC
  0
SECTION
  2
ENTITIES
  0
LINE
  5
20
  8
TEAM-AXE
 10
-102.5
 20
-102.371193
 30
0.0
 11
-102.5
 21
-62.371193
 31
0.0
  0
LINE
  5
23
  8
TEAM-AXE
 10
-122.5
 20
-82.371193
 30
0.0
 11
-82.5
 21
-82.371193
 31
0.0
  0
CIRCLE
  5
24
  8
TEAM-HIDE
 10
-102.5
 20
-82.371193
 30
0.0
 40
15.0
  0
LINE
  5
27
  8
TEAM-AXE
 10
107.5
 20
-102.371193
 30
0.0
 11
107.5
 21
-62.371193
 31
0.0
  0
LINE
  5
28
  8
TEAM-AXE
 10
87.5
 20
-82.371193
 30
0.0
 11
127.5
 21
-82.371193
 31
0.0
  0
CIRCLE
  5
29
  8
TEAM-HIDE
 10
107.5
 20
-82.371193
 30
0.0
 40
15.0
  0
DIMENSION
  5
2A
  8
TEAM-MAS
  2
*D0
 10
362.162573
 20
-210.0
 30
0.0
 11
362.162573
 21
-105.0
 31
0.0
 12
-4000.0
 22
-164000.0
 32
0.0
 13
320.0
 23
0.0
 33
0.0
 14
0.427754
 24
-210.0
 34
0.0
 50
90.0
1001
ACAD
1000
DSTYLE
1002
{
1070
    40
1040
1.0
1002
}
  0
DIMENSION
  5
39
  8
TEAM-MAS
  2
*D1
 10
407.053824
 20
-485.0
 30
10.0
 11
407.053824
 21
-242.5
 31
0.0
 12
-4000.0
 22
-164000.0
 32
0.0
 13
320.0
 23
0.0
 33
0.0
 14
0.0
 24
-485.0
 34
0.0
 50
90.0
1001
ACAD
1000
DSTYLE
1002
{
1070
    40
1040
1.0
1002
}
  0
CIRCLE
  5
47
  8
TEAM-INSP
 10
0.0
 20
0.0
 30
0.0
 40
10.0
  0
ARC
  5
49
  8
TEAM-BODY
 10
-278.0
 20
-431.320334
 30
0.0
 40
7.0
 50
180.0
 51
266.230752
  0
CIRCLE
  5
4B
  8
TEAM-DET1
 10
0.0
 20
-79.259672
 30
0.0
 40
15.0
  0
LINE
  5
4D
  8
TEAM-AXE
 10
22.5
 20
-79.259672
 30
0.0
 11
-22.5
 21
-79.259672
 31
0.0
  0
LINE
  5
4E
  8
TEAM-AXE
 10
0.0
 20
-56.759672
 30
0.0
 11
0.0
 21
-101.759667
 31
0.0
  0
LINE
  5
4F
  8
TEAM-BODY
 10
275.0
 20
-125.0
 30
0.0
 11
-275.0
 21
-125.0
 31
0.0
  0
LINE
  5
50
  8
TEAM-BODY
 10
-278.0
 20
-35.0
 30
0.0
 11
278.0
 21
-35.0
 31
0.0
  0
ARC
  5
51
  8
TEAM-BODY
 10
-278.0
 20
-42.0
 30
0.0
 40
7.0
 50
90.0
 51
180.0
  0
LINE
  5
52
  8
TEAM-BODY
 10
-285.0
 20
-42.0
 30
0.0
 11
-285.0
 21
-431.320334
 31
0.0
  0
ARC
  5
53
  8
TEAM-BODY
 10
-275.0
 20
-135.0
 30
0.0
 40
10.0
 50
90.0
 51
180.0
  0
ARC
  5
54
  8
TEAM-BODY
 10
0.0
 20
5349.407218
 30
0.0
 40
5794.407218
 50
267.245492
 51
272.754508
  0
ARC
  5
55
  8
TEAM-BODY
 10
278.0
 20
-42.0
 30
0.0
 40
7.0
 50
0.0
 51
90.0
  0
LINE
  5
56
  8
TEAM-BODY
 10
285.0
 20
-42.0
 30
0.0
 11
285.0
 21
-431.320334
 31
0.0
  0
ARC
  5
57
  8
TEAM-BODY
 10
278.0
 20
-431.320334
 30
0.0
 40
7.0
 50
273.769248
 51
0.0
  0
ARC
  5
58
  8
TEAM-BODY
 10
275.0
 20
-135.0
 30
0.0
 40
10.0
 50
0.0
 51
90.0
  0
POLYLINE
  5
59
  8
TEAM-BODY
 66
     1
 10
0.0
 20
0.0
 30
0.0
 70
     1
  0
VERTEX
  5
109
  8
TEAM-BODY
 10
325.0
 20
-5.0
 30
0.0
 42
0.414214
  0
VERTEX
  5
10A
  8
TEAM-BODY
 10
320.0
 20
0.0
 30
0.0
  0
VERTEX
  5
10B
  8
TEAM-BODY
 10
-320.0
 20
0.0
 30
0.0
 42
0.414214
  0
VERTEX
  5
10C
  8
TEAM-BODY
 10
-325.0
 20
-5.0
 30
0.0
  0
VERTEX
  5
10D
  8
TEAM-BODY
 10
-325.0
 20
-431.309477
 30
0.0
 42
0.395043
  0
VERTEX
  5
10E
  8
TEAM-BODY
 10
-281.094713
 20
-478.207481
 30
0.0
 42
0.024387
  0
VERTEX
  5
10F
  8
TEAM-BODY
 10
281.094713
 20
-478.207481
 30
0.0
 42
0.395043
  0
VERTEX
  5
110
  8
TEAM-BODY
 10
325.0
 20
-431.309477
 30
0.0
  0
SEQEND
  5
111
  8
TEAM-BODY
  0
LINE
  5
5A
  8
TEAM-AXE
 10
45.212708
 20
-210.0
 30
0.0
 11
-44.787292
 21
-210.0
 31
0.0
  0
CIRCLE
  5
5B
  8
TEAM-DET1
 10
0.427754
 20
-210.0
 30
0.0
 40
37.5
  0
ARC
  5
5C
  8
TEAM-BODY
 10
0.427754
 20
-210.0
 30
0.0
 40
23.75
 50
180.0
 51
0.0
  0
ARC
  5
5D
  8
TEAM-BODY
 10
0.427754
 20
-210.0
 30
0.0
 40
23.75
 50
0.0
 51
180.0
  0
LINE
  5
5E
  8
TEAM-AXE
 10
0.427754
 20
-166.0
 30
0.0
 11
0.427754
 21
-256.0
 31
0.0
  0
DIMENSION
  5
5F
  8
TEAM-MAS
  2
*D2
 10
325.0
 20
-517.781343
 30
0.0
 11
0.0
 21
-517.781343
 31
0.0
 12
-4000.0
 22
-164000.0
 32
0.0
 13
-325.0
 23
-431.309477
 33
0.0
 14
325.0
 24
-431.309477
 34
0.0
1001
ACAD
1000
DSTYLE
1002
{
1070
    40
1040
1.0
1002
}
  0
TEXT
  5
6D
  8
TEAM-TXT
 10
-287.939364
 20
-405.474322
 30
0.0
 40
30.0
  1
team 212204
 41
0.8
 51
15.0
  7
TEAM
  0
ARC
  5
70
  8
TEAM-DET1
 10
-312.466283
 20
-37.560812
 30
0.0
 40
9.629267
 50
83.164
 51
149.802695
  0
LINE
  5
71
  8
TEAM-DET1
 10
-311.320132
 20
-28.0
 30
0.0
 11
311.320132
 21
-28.0
 31
0.0
  0
LINE
  5
72
  8
TEAM-DET1
 10
320.0
 20
0.0
 30
0.0
 11
320.0
 21
-28.0
 31
0.0
  0
ARC
  5
73
  8
TEAM-DET1
 10
312.466283
 20
-37.560812
 30
0.0
 40
9.629267
 50
30.197305
 51
96.836
  0
LINE
  5
74
  8
TEAM-DET1
 10
294.738108
 20
-35.0
 30
0.0
 11
313.370992
 21
-35.0
 31
0.0
  0
LINE
  5
75
  8
TEAM-DET1
 10
-320.0
 20
0.0
 30
0.0
 11
-320.0
 21
-28.0
 31
0.0
  0
LINE
  5
76
  8
TEAM-DET1
 10
-294.738108
 20
-35.0
 30
0.0
 11
-313.370992
 21
-35.0
 31
0.0
  0
ENDSEC
  0
EOF
