  0
SECTION
  2
HEADER
  9
$ACADVER
  1
AC1009
  9
$INSBASE
 10
0.0
 20
0.0
 30
0.0
  9
$EXTMIN
 10
-326.106231
 20
-10.011254
 30
-0.000037
  9
$EXTMAX
 10
571.152229
 20
969.491311
 30
10.0004
  9
$LIMMIN
 10
-326.106231
 20
-10.011254
  9
$LIMMAX
 10
571.152229
 20
969.491311
  9
$ORTHOMODE
 70
     1
  9
$REGENMODE
 70
     1
  9
$FILLMODE
 70
     1
  9
$QTEXTMODE
 70
     0
  9
$MIRRTEXT
 70
     0
  9
$DRAGMODE
 70
     2
  9
$LTSCALE
 40
50.0
  9
$OSMODE
 70
     0
  9
$ATTMODE
 70
     1
  9
$TEXTSIZE
 40
200.0
  9
$TRACEWID
 40
1.0
  9
$TEXTSTYLE
  7
STANDARD
  9
$CLAYER
  8
TEAM-MAS
  9
$CELTYPE
  6
BYLAYER
  9
$CECOLOR
 62
   256
  9
$DIMSCALE
 40
0.0
  9
$DIMASZ
 40
20.0
  9
$DIMEXO
 40
10.0
  9
$DIMDLI
 40
1.0
  9
$DIMRND
 40
0.0
  9
$DIMDLE
 40
0.0
  9
$DIMEXE
 40
1.0
  9
$DIMTP
 40
0.0
  9
$DIMTM
 40
0.0
  9
$DIMTXT
 40
35.0
  9
$DIMCEN
 40
1.0
  9
$DIMTSZ
 40
0.0
  9
$DIMTOL
 70
     0
  9
$DIMLIM
 70
     0
  9
$DIMTIH
 70
     0
  9
$DIMTOH
 70
     0
  9
$DIMSE1
 70
     0
  9
$DIMSE2
 70
     0
  9
$DIMTAD
 70
     0
  9
$DIMZIN
 70
     0
  9
$DIMBLK
  1

  9
$DIMASO
 70
     1
  9
$DIMSHO
 70
     0
  9
$DIMPOST
  1

  9
$DIMAPOST
  1

  9
$DIMALT
 70
     0
  9
$DIMALTD
 70
     2
  9
$DIMALTF
 40
25.4
  9
$DIMLFAC
 40
1.0
  9
$DIMTOFL
 70
     0
  9
$DIMTVP
 40
0.0
  9
$DIMTIX
 70
     0
  9
$DIMSOXD
 70
     0
  9
$DIMSAH
 70
     0
  9
$DIMBLK1
  1

  9
$DIMBLK2
  1

  9
$DIMSTYLE
  2
TEAM
  9
$DIMCLRD
 70
     9
  9
$DIMCLRE
 70
     9
  9
$DIMCLRT
 70
    11
  9
$DIMTFAC
 40
1.0
  9
$DIMGAP
 40
7.0
  9
$LUNITS
 70
     2
  9
$LUPREC
 70
     1
  9
$SKETCHINC
 40
1.0
  9
$FILLETRAD
 40
50.0
  9
$AUNITS
 70
     0
  9
$AUPREC
 70
     0
  9
$MENU
  1
ROPLANS
  9
$ELEVATION
 40
0.0
  9
$PELEVATION
 40
0.0
  9
$THICKNESS
 40
0.0
  9
$LIMCHECK
 70
     0
  9
$BLIPMODE
 70
     1
  9
$CHAMFERA
 40
0.0
  9
$CHAMFERB
 40
0.0
  9
$SKPOLY
 70
     0
  9
$TDCREATE
 40
2450392.957851
  9
$TDUPDATE
 40
2456279.880111
  9
$TDINDWG
 40
2.294971
  9
$TDUSRTIMER
 40
2.294971
  9
$USRTIMER
 70
     1
  9
$ANGBASE
 50
0.0
  9
$ANGDIR
 70
     0
  9
$PDMODE
 70
     0
  9
$PDSIZE
 40
0.0
  9
$PLINEWID
 40
0.0
  9
$COORDS
 70
     2
  9
$SPLFRAME
 70
     0
  9
$SPLINETYPE
 70
     6
  9
$SPLINESEGS
 70
     8
  9
$ATTDIA
 70
     0
  9
$ATTREQ
 70
     0
  9
$HANDLING
 70
     1
  9
$HANDSEED
  5
1BE
  9
$SURFTAB1
 70
    24
  9
$SURFTAB2
 70
    24
  9
$SURFTYPE
 70
     6
  9
$SURFU
 70
     6
  9
$SURFV
 70
     6
  9
$UCSNAME
  2

  9
$UCSORG
 10
0.0
 20
0.0
 30
0.0
  9
$UCSXDIR
 10
1.0
 20
0.0
 30
0.0
  9
$UCSYDIR
 10
0.0
 20
1.0
 30
0.0
  9
$PUCSNAME
  2

  9
$PUCSORG
 10
0.0
 20
0.0
 30
0.0
  9
$PUCSXDIR
 10
1.0
 20
0.0
 30
0.0
  9
$PUCSYDIR
 10
0.0
 20
1.0
 30
0.0
  9
$USERI1
 70
     0
  9
$USERI2
 70
     0
  9
$USERI3
 70
     0
  9
$USERI4
 70
     0
  9
$USERI5
 70
     0
  9
$USERR1
 40
0.0
  9
$USERR2
 40
0.0
  9
$USERR3
 40
0.0
  9
$USERR4
 40
0.0
  9
$USERR5
 40
0.0
  9
$WORLDVIEW
 70
     1
  9
$SHADEDGE
 70
     0
  9
$SHADEDIF
 70
    70
  9
$TILEMODE
 70
     1
  9
$MAXACTVP
 70
    16
  9
$PLIMCHECK
 70
     0
  9
$PEXTMIN
 10
-0.805942
 20
0.005011
 30
0.0
  9
$PEXTMAX
 10
20.250094
 20
11.356329
 30
0.0
  9
$PLIMMIN
 10
0.0
 20
0.0
  9
$PLIMMAX
 10
12.0
 20
9.0
  9
$UNITMODE
 70
     0
  9
$VISRETAIN
 70
     0
  9
$PLINEGEN
 70
     0
  9
$PSLTSCALE
 70
     0
  0
ENDSEC
  0
SECTION
  2
TABLES
  0
TABLE
  2
VPORT
 70
     2
  0
VPORT
  2
*ACTIVE
 70
     0
 10
0.0
 20
0.0
 11
1.0
 21
1.0
 12
122.522999
 22
479.740029
 13
0.0
 23
0.0
 14
1.0
 24
1.0
 15
50.0
 25
50.0
 16
0.0
 26
0.0
 36
1.0
 17
0.0
 27
0.0
 37
0.0
 40
985.669423
 41
1.911765
 42
50.0
 43
0.0
 44
0.0
 50
0.0
 51
0.0
 71
     0
 72
   100
 73
     1
 74
     1
 75
     0
 76
     0
 77
     0
 78
     0
  0
ENDTAB
  0
TABLE
  2
LTYPE
 70
     4
  0
LTYPE
  2
CONTINUOUS
 70
     0
  3
Solid Line
 72
    65
 73
     0
 40
0.0
  0
LTYPE
  2
31
 70
     0
  3

 72
    65
 73
     4
 40
2.1
 49
1.5
 49
-0.3
 49
0.0
 49
-0.3
  0
LTYPE
  2
22
 70
     0
  3

 72
    65
 73
     2
 40
1.4
 49
1.2
 49
-0.2
  0
LTYPE
  2
STRICHLINIE
 70
     0
  3
Strichlinie __ __ __ __ __ __ __ __ __ __ __ __
 72
    65
 73
     2
 40
0.75
 49
0.5
 49
-0.25
  0
ENDTAB
  0
TABLE
  2
LAYER
 70
    12
  0
LAYER
  2
0
 70
     0
 62
     7
  6
CONTINUOUS
  0
LAYER
  2
DEFPOINTS
 70
     0
 62
     7
  6
CONTINUOUS
  0
LAYER
  2
TEAM-BODY
 70
     0
 62
     2
  6
CONTINUOUS
  0
LAYER
  2
TEAM-AXE
 70
     0
 62
    10
  6
31
  0
LAYER
  2
TEAM-MAS
 70
     0
 62
     9
  6
CONTINUOUS
  0
LAYER
  2
TEAM-TXT
 70
     0
 62
    11
  6
CONTINUOUS
  0
LAYER
  2
TEAM-COLD
 70
     0
 62
     3
  6
CONTINUOUS
  0
LAYER
  2
TEAM-HIDE
 70
     0
 62
     8
  6
22
  0
LAYER
  2
TEAM-KAN
 70
     0
 62
     6
  6
CONTINUOUS
  0
LAYER
  2
TEAM-WARM
 70
     0
 62
     1
  6
CONTINUOUS
  0
LAYER
  2
TEAM-INSP
 70
     0
 62
     5
  6
CONTINUOUS
  0
LAYER
  2
TEAM-HAUBE
 70
     0
 62
     4
  6
STRICHLINIE
  0
ENDTAB
  0
TABLE
  2
STYLE
 70
     2
  0
STYLE
  2
STANDARD
 70
     0
 40
0.0
 41
1.0
 50
0.0
 71
     0
 42
200.0
  3
txt
  4

  0
STYLE
  2
TEAM
 70
     0
 40
0.0
 41
0.8
 50
15.0
 71
     0
 42
7.0
  3
ROMANS.shx
  4

  0
ENDTAB
  0
TABLE
  2
VIEW
 70
     0
  0
ENDTAB
  0
TABLE
  2
UCS
 70
     0
  0
ENDTAB
  0
TABLE
  2
APPID
 70
     1
  0
APPID
  2
ACAD
 70
     0
  0
ENDTAB
  0
TABLE
  2
DIMSTYLE
 70
     1
  0
DIMSTYLE
  2
TEAM
 70
     0
  3

  4

  5

  6

  7

 40
0.0
 41
20.0
 42
10.0
 43
1.0
 44
1.0
 45
0.0
 46
0.0
 47
0.0
 48
0.0
140
35.0
141
1.0
142
0.0
143
25.4
144
1.0
145
0.0
146
1.0
147
7.0
 71
     0
 72
     0
 73
     0
 74
     0
 75
     0
 76
     0
 77
     0
 78
     0
170
     0
171
     2
172
     0
173
     0
174
     0
175
     0
176
     9
177
     9
178
    11
  0
ENDTAB
  0
ENDSEC
  0
SECTION
  2
BLOCKS
  0
BLOCK
  8
0
  2
$MODEL_SPACE
 70
     0
 10
0.0
 20
0.0
 30
0.0
  3
$MODEL_SPACE
  1

  0
ENDBLK
  5
18B
  8
0
  0
BLOCK
 67
     1
  8
0
  2
$PAPER_SPACE
 70
     0
 10
0.0
 20
0.0
 30
0.0
  3
$PAPER_SPACE
  1

  0
ENDBLK
  5
189
 67
     1
  8
0
  0
BLOCK
  8
0
  2
*D0
 70
     1
 10
0.0
 20
0.0
 30
0.0
  3
*D0
  1

  0
LINE
  5
77
  8
0
  6
BYBLOCK
 62
     9
 10
4308.521575
 20
76000.0
 30
0.0
 11
4554.610627
 21
76000.0
 31
0.0
  0
LINE
  5
78
  8
0
  6
BYBLOCK
 62
     9
 10
4329.983977
 20
76849.997355
 30
0.0
 11
4554.610627
 21
76849.997355
 31
0.0
  0
LINE
  5
79
  8
0
  6
BYBLOCK
 62
     9
 10
4553.610627
 20
76020.0
 30
0.0
 11
4553.610627
 21
76374.248678
 31
0.0
  0
LINE
  5
7A
  8
0
  6
BYBLOCK
 62
     9
 10
4553.610627
 20
76829.997355
 30
0.0
 11
4553.610627
 21
76475.748678
 31
0.0
  0
SOLID
  5
7B
  8
0
  6
BYBLOCK
 62
     9
 10
4550.277294
 20
76020.0
 30
0.0
 11
4556.94396
 21
76020.0
 31
0.0
 12
4553.610627
 22
76000.0
 32
0.0
 13
4553.610627
 23
76000.0
 33
0.0
  0
SOLID
  5
7C
  8
0
  6
BYBLOCK
 62
     9
 10
4550.277294
 20
76829.997355
 30
0.0
 11
4556.94396
 21
76829.997355
 31
0.0
 12
4553.610627
 22
76849.997355
 32
0.0
 13
4553.610627
 23
76849.997355
 33
0.0
  0
TEXT
  5
7D
  8
0
  6
BYBLOCK
 62
    11
 10
4571.110627
 20
76381.248678
 30
0.0
 40
35.0
  1
850
 50
90.0
  0
POINT
  5
7E
  8
DEFPOINTS
  6
BYBLOCK
 62
     0
 10
4298.521575
 20
76000.0
 30
10.0
  0
POINT
  5
7F
  8
DEFPOINTS
  6
BYBLOCK
 62
     0
 10
4319.983977
 20
76849.997355
 30
0.0
  0
POINT
  5
80
  8
DEFPOINTS
  6
BYBLOCK
 62
     0
 10
4553.610627
 20
76849.997355
 30
10.0
  0
ENDBLK
  5
82
  8
0
  0
BLOCK
  8
0
  2
*D1
 70
     1
 10
0.0
 20
0.0
 30
0.0
  3
*D1
  1

  0
LINE
  5
69
  8
0
  6
BYBLOCK
 62
     9
 10
3860.094137
 20
76809.0
 30
0.0
 11
3860.094137
 21
76910.240199
 31
0.0
  0
LINE
  5
6A
  8
0
  6
BYBLOCK
 62
     9
 10
4140.094137
 20
76809.0
 30
0.0
 11
4140.094137
 21
76910.240199
 31
0.0
  0
LINE
  5
6B
  8
0
  6
BYBLOCK
 62
     9
 10
3880.094137
 20
76909.240199
 30
0.0
 11
3949.344137
 21
76909.240199
 31
0.0
  0
LINE
  5
6C
  8
0
  6
BYBLOCK
 62
     9
 10
4120.094137
 20
76909.240199
 30
0.0
 11
4050.844137
 21
76909.240199
 31
0.0
  0
SOLID
  5
6D
  8
0
  6
BYBLOCK
 62
     9
 10
3880.094137
 20
76912.573532
 30
0.0
 11
3880.094137
 21
76905.906866
 31
0.0
 12
3860.094137
 22
76909.240199
 32
0.0
 13
3860.094137
 23
76909.240199
 33
0.0
  0
SOLID
  5
6E
  8
0
  6
BYBLOCK
 62
     9
 10
4120.094137
 20
76912.573532
 30
0.0
 11
4120.094137
 21
76905.906866
 31
0.0
 12
4140.094137
 22
76909.240199
 32
0.0
 13
4140.094137
 23
76909.240199
 33
0.0
  0
TEXT
  5
6F
  8
0
  6
BYBLOCK
 62
    11
 10
3956.344137
 20
76891.740199
 30
0.0
 40
35.0
  1
280
  0
POINT
  5
70
  8
DEFPOINTS
  6
BYBLOCK
 62
     0
 10
3860.094137
 20
76799.0
 30
10.0
  0
POINT
  5
71
  8
DEFPOINTS
  6
BYBLOCK
 62
     0
 10
4140.094137
 20
76799.0
 30
10.0
  0
POINT
  5
72
  8
DEFPOINTS
  6
BYBLOCK
 62
     0
 10
4140.094137
 20
76909.240199
 30
10.0
  0
ENDBLK
  5
74
  8
0
  0
BLOCK
  8
0
  2
*D2
 70
     1
 10
0.0
 20
0.0
 30
0.0
  3
*D2
  1

  0
LINE
  5
5B
  8
0
  6
BYBLOCK
 62
     9
 10
3674.983977
 20
76839.997355
 30
0.0
 11
3674.983977
 21
76952.978911
 31
0.0
  0
LINE
  5
5C
  8
0
  6
BYBLOCK
 62
     9
 10
4324.983977
 20
76839.997355
 30
0.0
 11
4324.983977
 21
76952.978911
 31
0.0
  0
LINE
  5
5D
  8
0
  6
BYBLOCK
 62
     9
 10
3694.983977
 20
76951.978911
 30
0.0
 11
3949.233977
 21
76951.978911
 31
0.0
  0
LINE
  5
5E
  8
0
  6
BYBLOCK
 62
     9
 10
4304.983977
 20
76951.978911
 30
0.0
 11
4050.733977
 21
76951.978911
 31
0.0
  0
SOLID
  5
5F
  8
0
  6
BYBLOCK
 62
     9
 10
3694.983977
 20
76955.312244
 30
0.0
 11
3694.983977
 21
76948.645578
 31
0.0
 12
3674.983977
 22
76951.978911
 32
0.0
 13
3674.983977
 23
76951.978911
 33
0.0
  0
SOLID
  5
60
  8
0
  6
BYBLOCK
 62
     9
 10
4304.983977
 20
76955.312244
 30
0.0
 11
4304.983977
 21
76948.645578
 31
0.0
 12
4324.983977
 22
76951.978911
 32
0.0
 13
4324.983977
 23
76951.978911
 33
0.0
  0
TEXT
  5
61
  8
0
  6
BYBLOCK
 62
    11
 10
3956.233977
 20
76934.478911
 30
0.0
 40
35.0
  1
650
  0
POINT
  5
62
  8
DEFPOINTS
  6
BYBLOCK
 62
     0
 10
3674.983977
 20
76829.997355
 30
0.0
  0
POINT
  5
63
  8
DEFPOINTS
  6
BYBLOCK
 62
     0
 10
4324.983977
 20
76829.997355
 30
0.0
  0
POINT
  5
64
  8
DEFPOINTS
  6
BYBLOCK
 62
     0
 10
4324.983977
 20
76951.978911
 30
10.0
  0
ENDBLK
  5
66
  8
0
  0
BLOCK
  8
0
  2
*D3
 70
     1
 10
0.0
 20
0.0
 30
0.0
  3
*D3
  1

  0
LINE
  5
4D
  8
0
  6
BYBLOCK
 62
     9
 10
4040.0
 20
76579.997355
 30
0.0
 11
4040.0
 21
76458.748776
 31
0.0
  0
LINE
  5
4E
  8
0
  6
BYBLOCK
 62
     9
 10
3960.0
 20
76579.997355
 30
0.0
 11
3960.0
 21
76458.748776
 31
0.0
  0
LINE
  5
4F
  8
0
  6
BYBLOCK
 62
     9
 10
4020.0
 20
76459.748776
 30
0.0
 11
4013.0
 21
76459.748776
 31
0.0
  0
LINE
  5
50
  8
0
  6
BYBLOCK
 62
     9
 10
3980.0
 20
76459.748776
 30
0.0
 11
3987.0
 21
76459.748776
 31
0.0
  0
TEXT
  5
51
  8
0
  6
BYBLOCK
 62
    11
 10
3973.75
 20
76442.248776
 30
0.0
 40
35.0
  1
80
  0
SOLID
  5
52
  8
0
  6
BYBLOCK
 62
     9
 10
4020.0
 20
76463.082109
 30
0.0
 11
4020.0
 21
76456.415443
 31
0.0
 12
4040.0
 22
76459.748776
 32
0.0
 13
4040.0
 23
76459.748776
 33
0.0
  0
SOLID
  5
53
  8
0
  6
BYBLOCK
 62
     9
 10
3980.0
 20
76463.082109
 30
0.0
 11
3980.0
 21
76456.415443
 31
0.0
 12
3960.0
 22
76459.748776
 32
0.0
 13
3960.0
 23
76459.748776
 33
0.0
  0
POINT
  5
54
  8
DEFPOINTS
  6
BYBLOCK
 62
     0
 10
4040.0
 20
76589.997355
 30
0.0
  0
POINT
  5
55
  8
DEFPOINTS
  6
BYBLOCK
 62
     0
 10
3960.0
 20
76589.997355
 30
0.0
  0
POINT
  5
56
  8
DEFPOINTS
  6
BYBLOCK
 62
     0
 10
3960.0
 20
76459.748776
 30
10.0
  0
ENDBLK
  5
58
  8
0
  0
BLOCK
  8
0
  2
*D4
 70
     1
 10
0.0
 20
0.0
 30
0.0
  3
*D4
  1

  0
LINE
  5
BC
  8
0
  6
BYBLOCK
 62
     9
 10
4329.983977
 20
76849.997355
 30
0.0
 11
4369.317774
 21
76849.997355
 31
0.0
  0
LINE
  5
BD
  8
0
  6
BYBLOCK
 62
     9
 10
4172.094137
 20
76785.0
 30
0.0
 11
4369.317774
 21
76785.0
 31
0.0
  0
LINE
  5
BE
  8
0
  6
BYBLOCK
 62
     9
 10
4368.317774
 20
76829.997355
 30
0.0
 11
4368.317774
 21
76805.0
 31
0.0
  0
TEXT
  5
BF
  8
0
  6
BYBLOCK
 62
    11
 10
4385.817774
 20
76725.833333
 30
0.0
 40
35.0
  1
65
 50
90.0
  0
SOLID
  5
C0
  8
0
  6
BYBLOCK
 62
     9
 10
4364.984441
 20
76829.997355
 30
0.0
 11
4371.651107
 21
76829.997355
 31
0.0
 12
4368.317774
 22
76849.997355
 32
0.0
 13
4368.317774
 23
76849.997355
 33
0.0
  0
SOLID
  5
C1
  8
0
  6
BYBLOCK
 62
     9
 10
4364.984441
 20
76805.0
 30
0.0
 11
4371.651107
 21
76805.0
 31
0.0
 12
4368.317774
 22
76785.0
 32
0.0
 13
4368.317774
 23
76785.0
 33
0.0
  0
POINT
  5
C2
  8
DEFPOINTS
  6
BYBLOCK
 62
     0
 10
4319.983977
 20
76849.997355
 30
0.0
  0
POINT
  5
C3
  8
DEFPOINTS
  6
BYBLOCK
 62
     0
 10
4162.094137
 20
76785.0
 30
0.0
  0
POINT
  5
C4
  8
DEFPOINTS
  6
BYBLOCK
 62
     0
 10
4368.317774
 20
76785.0
 30
0.0
  0
ENDBLK
  5
C6
  8
0
  0
BLOCK
  8
0
  2
*D5
 70
     1
 10
0.0
 20
0.0
 30
0.0
  3
*D5
  1

  0
LINE
  5
AE
  8
0
  6
BYBLOCK
 62
     9
 10
4050.0
 20
76589.997355
 30
0.0
 11
4508.148873
 21
76589.997355
 31
0.0
  0
LINE
  5
AF
  8
0
  6
BYBLOCK
 62
     9
 10
4329.983977
 20
76849.997355
 30
0.0
 11
4508.148873
 21
76849.997355
 31
0.0
  0
LINE
  5
B0
  8
0
  6
BYBLOCK
 62
     9
 10
4507.148873
 20
76609.997355
 30
0.0
 11
4507.148873
 21
76669.247355
 31
0.0
  0
LINE
  5
B1
  8
0
  6
BYBLOCK
 62
     9
 10
4507.148873
 20
76829.997355
 30
0.0
 11
4507.148873
 21
76770.747355
 31
0.0
  0
SOLID
  5
B2
  8
0
  6
BYBLOCK
 62
     9
 10
4503.815539
 20
76609.997355
 30
0.0
 11
4510.482206
 21
76609.997355
 31
0.0
 12
4507.148873
 22
76589.997355
 32
0.0
 13
4507.148873
 23
76589.997355
 33
0.0
  0
SOLID
  5
B3
  8
0
  6
BYBLOCK
 62
     9
 10
4503.815539
 20
76829.997355
 30
0.0
 11
4510.482206
 21
76829.997355
 31
0.0
 12
4507.148873
 22
76849.997355
 32
0.0
 13
4507.148873
 23
76849.997355
 33
0.0
  0
TEXT
  5
B4
  8
0
  6
BYBLOCK
 62
    11
 10
4524.648873
 20
76676.247355
 30
0.0
 40
35.0
  1
260
 50
90.0
  0
POINT
  5
B5
  8
DEFPOINTS
  6
BYBLOCK
 62
     0
 10
4040.0
 20
76589.997355
 30
0.0
  0
POINT
  5
B6
  8
DEFPOINTS
  6
BYBLOCK
 62
     0
 10
4319.983977
 20
76849.997355
 30
0.0
  0
POINT
  5
B7
  8
DEFPOINTS
  6
BYBLOCK
 62
     0
 10
4507.148873
 20
76849.997355
 30
0.0
  0
ENDBLK
  5
B9
  8
0
  0
BLOCK
  8
0
  2
*D6
 70
     1
 10
0.0
 20
0.0
 30
0.0
  3
*D6
  1

  0
LINE
  5
A0
  8
0
  6
BYBLOCK
 62
     9
 10
4010.0
 20
76539.997355
 30
0.0
 11
4461.974598
 21
76539.997355
 31
0.0
  0
LINE
  5
A1
  8
0
  6
BYBLOCK
 62
     9
 10
4329.983977
 20
76849.997355
 30
0.0
 11
4461.974598
 21
76849.997355
 31
0.0
  0
LINE
  5
A2
  8
0
  6
BYBLOCK
 62
     9
 10
4460.974598
 20
76559.997355
 30
0.0
 11
4460.974598
 21
76650.080689
 31
0.0
  0
LINE
  5
A3
  8
0
  6
BYBLOCK
 62
     9
 10
4460.974598
 20
76829.997355
 30
0.0
 11
4460.974598
 21
76739.914022
 31
0.0
  0
SOLID
  5
A4
  8
0
  6
BYBLOCK
 62
     9
 10
4457.641264
 20
76559.997355
 30
0.0
 11
4464.307931
 21
76559.997355
 31
0.0
 12
4460.974598
 22
76539.997355
 32
0.0
 13
4460.974598
 23
76539.997355
 33
0.0
  0
SOLID
  5
A5
  8
0
  6
BYBLOCK
 62
     9
 10
4457.641264
 20
76829.997355
 30
0.0
 11
4464.307931
 21
76829.997355
 31
0.0
 12
4460.974598
 22
76849.997355
 32
0.0
 13
4460.974598
 23
76849.997355
 33
0.0
  0
TEXT
  5
A6
  8
0
  6
BYBLOCK
 62
    11
 10
4478.474598
 20
76657.080689
 30
0.0
 40
35.0
  1
310
 50
90.0
  0
POINT
  5
A7
  8
DEFPOINTS
  6
BYBLOCK
 62
     0
 10
4000.0
 20
76539.997355
 30
0.0
  0
POINT
  5
A8
  8
DEFPOINTS
  6
BYBLOCK
 62
     0
 10
4319.983977
 20
76849.997355
 30
0.0
  0
POINT
  5
A9
  8
DEFPOINTS
  6
BYBLOCK
 62
     0
 10
4460.974598
 20
76849.997355
 30
0.0
  0
ENDBLK
  5
AB
  8
0
  0
BLOCK
  8
0
  2
*D7
 70
     1
 10
0.0
 20
0.0
 30
0.0
  3
*D7
  1

  0
LINE
  5
3F
  8
0
  6
BYBLOCK
 62
     9
 10
4327.558741
 20
76849.997355
 30
0.0
 11
4417.376155
 21
76849.997355
 31
0.0
  0
LINE
  5
40
  8
0
  6
BYBLOCK
 62
     9
 10
4047.483977
 20
76659.997355
 30
0.0
 11
4417.376155
 21
76659.997355
 31
0.0
  0
LINE
  5
41
  8
0
  6
BYBLOCK
 62
     9
 10
4416.376155
 20
76829.997355
 30
0.0
 11
4416.376155
 21
76799.914022
 31
0.0
  0
LINE
  5
42
  8
0
  6
BYBLOCK
 62
     9
 10
4416.376155
 20
76679.997355
 30
0.0
 11
4416.376155
 21
76710.080689
 31
0.0
  0
SOLID
  5
43
  8
0
  6
BYBLOCK
 62
     9
 10
4413.042821
 20
76829.997355
 30
0.0
 11
4419.709488
 21
76829.997355
 31
0.0
 12
4416.376155
 22
76849.997355
 32
0.0
 13
4416.376155
 23
76849.997355
 33
0.0
  0
SOLID
  5
44
  8
0
  6
BYBLOCK
 62
     9
 10
4413.042821
 20
76679.997355
 30
0.0
 11
4419.709488
 21
76679.997355
 31
0.0
 12
4416.376155
 22
76659.997355
 32
0.0
 13
4416.376155
 23
76659.997355
 33
0.0
  0
TEXT
  5
45
  8
0
  6
BYBLOCK
 62
    11
 10
4433.876155
 20
76717.080689
 30
0.0
 40
35.0
  1
190
 50
90.0
  0
POINT
  5
46
  8
DEFPOINTS
  6
BYBLOCK
 62
     0
 10
4317.558741
 20
76849.997355
 30
10.0
  0
POINT
  5
47
  8
DEFPOINTS
  6
BYBLOCK
 62
     0
 10
4037.483977
 20
76659.997355
 30
0.0
  0
POINT
  5
48
  8
DEFPOINTS
  6
BYBLOCK
 62
     0
 10
4416.376155
 20
76659.997355
 30
10.0
  0
ENDBLK
  5
4A
  8
0
  0
BLOCK
  8
0
  2
*D8
 70
     1
 10
0.0
 20
0.0
 30
0.0
  3
*D8
  1

  0
LINE
  5
31
  8
0
  6
BYBLOCK
 62
     9
 10
4010.0
 20
76000.0
 30
0.0
 11
4508.148873
 21
76000.0
 31
0.0
  0
LINE
  5
32
  8
0
  6
BYBLOCK
 62
     9
 10
4050.0
 20
76589.997355
 30
0.0
 11
4508.148873
 21
76589.997355
 31
0.0
  0
LINE
  5
33
  8
0
  6
BYBLOCK
 62
     9
 10
4507.148873
 20
76020.0
 30
0.0
 11
4507.148873
 21
76244.248678
 31
0.0
  0
LINE
  5
34
  8
0
  6
BYBLOCK
 62
     9
 10
4507.148873
 20
76569.997355
 30
0.0
 11
4507.148873
 21
76345.748678
 31
0.0
  0
SOLID
  5
35
  8
0
  6
BYBLOCK
 62
     9
 10
4503.815539
 20
76020.0
 30
0.0
 11
4510.482206
 21
76020.0
 31
0.0
 12
4507.148873
 22
76000.0
 32
0.0
 13
4507.148873
 23
76000.0
 33
0.0
  0
SOLID
  5
36
  8
0
  6
BYBLOCK
 62
     9
 10
4503.815539
 20
76569.997355
 30
0.0
 11
4510.482206
 21
76569.997355
 31
0.0
 12
4507.148873
 22
76589.997355
 32
0.0
 13
4507.148873
 23
76589.997355
 33
0.0
  0
TEXT
  5
37
  8
0
  6
BYBLOCK
 62
    11
 10
4524.648873
 20
76251.248678
 30
0.0
 40
35.0
  1
590
 50
90.0
  0
POINT
  5
38
  8
DEFPOINTS
  6
BYBLOCK
 62
     0
 10
4000.0
 20
76000.0
 30
10.0
  0
POINT
  5
39
  8
DEFPOINTS
  6
BYBLOCK
 62
     0
 10
4040.0
 20
76589.997355
 30
0.0
  0
POINT
  5
3A
  8
DEFPOINTS
  6
BYBLOCK
 62
     0
 10
4507.148873
 20
76589.997355
 30
10.0
  0
ENDBLK
  5
3C
  8
0
  0
BLOCK
  8
0
  2
*D9
 70
     1
 10
0.0
 20
0.0
 30
0.0
  3
*D9
  1

  0
LINE
  5
22
  8
0
  6
BYBLOCK
 62
     9
 10
4010.0
 20
76539.997355
 30
0.0
 11
4461.974598
 21
76539.997355
 31
0.0
  0
LINE
  5
23
  8
0
  6
BYBLOCK
 62
     9
 10
4010.0
 20
76000.0
 30
0.0
 11
4461.974598
 21
76000.0
 31
0.0
  0
LINE
  5
24
  8
0
  6
BYBLOCK
 62
     9
 10
4460.974598
 20
76519.997355
 30
0.0
 11
4460.974598
 21
76320.748678
 31
0.0
  0
LINE
  5
25
  8
0
  6
BYBLOCK
 62
     9
 10
4460.974598
 20
76020.0
 30
0.0
 11
4460.974598
 21
76219.248678
 31
0.0
  0
SOLID
  5
26
  8
0
  6
BYBLOCK
 62
     9
 10
4457.641264
 20
76519.997355
 30
0.0
 11
4464.307931
 21
76519.997355
 31
0.0
 12
4460.974598
 22
76539.997355
 32
0.0
 13
4460.974598
 23
76539.997355
 33
0.0
  0
SOLID
  5
27
  8
0
  6
BYBLOCK
 62
     9
 10
4457.641264
 20
76020.0
 30
0.0
 11
4464.307931
 21
76020.0
 31
0.0
 12
4460.974598
 22
76000.0
 32
0.0
 13
4460.974598
 23
76000.0
 33
0.0
  0
TEXT
  5
28
  8
0
  6
BYBLOCK
 62
    11
 10
4478.474598
 20
76226.248678
 30
0.0
 40
35.0
  1
540
 50
90.0
  0
POINT
  5
29
  8
DEFPOINTS
  6
BYBLOCK
 62
     0
 10
4000.0
 20
76539.997355
 30
0.0
  0
POINT
  5
2B
  8
DEFPOINTS
  6
BYBLOCK
 62
     0
 10
4000.0
 20
76000.0
 30
10.0
  0
POINT
  5
2C
  8
DEFPOINTS
  6
BYBLOCK
 62
     0
 10
4460.974598
 20
76000.0
 30
10.0
  0
ENDBLK
  5
2E
  8
0
  0
ENDSEC
  0
SECTION
  2
ENTITIES
  0
DIMENSION
  5
20
  8
TEAM-MAS
  2
*D9
 10
460.974598
 20
0.0
 30
10.0
 11
460.974598
 21
269.998678
 31
0.0
 12
-4000.0
 22
-76000.0
 32
0.0
 13
0.0
 23
539.997355
 33
0.0
 14
0.0
 24
0.0
 34
10.0
 50
90.0
1001
ACAD
1000
DSTYLE
1002
{
1070
    40
1040
1.0
1002
}
  0
DIMENSION
  5
2F
  8
TEAM-MAS
  2
*D8
 10
507.148873
 20
589.997355
 30
10.0
 11
507.148873
 21
294.998678
 31
0.0
 12
-4000.0
 22
-76000.0
 32
0.0
 13
0.0
 23
0.0
 33
10.0
 14
40.0
 24
589.997355
 34
0.0
 50
90.0
1001
ACAD
1000
DSTYLE
1002
{
1070
    40
1040
1.0
1002
}
  0
DIMENSION
  5
3D
  8
TEAM-MAS
  2
*D7
 10
416.376155
 20
659.997355
 30
10.0
 11
416.376155
 21
754.997355
 31
0.0
 12
-4000.0
 22
-76000.0
 32
0.0
 13
317.558741
 23
849.997355
 33
10.0
 14
37.483977
 24
659.997355
 34
0.0
 50
90.0
1001
ACAD
1000
DSTYLE
1002
{
1070
    40
1040
1.0
1002
}
  0
DIMENSION
  5
4B
  8
TEAM-MAS
  2
*D3
 10
-40.0
 20
459.748776
 30
10.0
 11
0.0
 21
459.748776
 31
0.0
 12
-4000.0
 22
-76000.0
 32
0.0
 70
   128
 13
40.0
 23
589.997355
 33
0.0
 14
-40.0
 24
589.997355
 34
0.0
1001
ACAD
1000
DSTYLE
1002
{
1070
    40
1040
1.0
1002
}
  0
DIMENSION
  5
59
  8
TEAM-MAS
  2
*D2
 10
324.983977
 20
951.978911
 30
10.0
 11
-0.016023
 21
951.978911
 31
0.0
 12
-4000.0
 22
-76000.0
 32
0.0
 13
-325.016023
 23
829.997355
 33
0.0
 14
324.983977
 24
829.997355
 34
0.0
1001
ACAD
1000
DSTYLE
1002
{
1070
    40
1040
1.0
1002
}
  0
DIMENSION
  5
67
  8
TEAM-MAS
  2
*D1
 10
140.094137
 20
909.240199
 30
10.0
 11
0.094137
 21
909.240199
 31
0.0
 12
-4000.0
 22
-76000.0
 32
0.0
 13
-139.905863
 23
799.0
 33
10.0
 14
140.094137
 24
799.0
 34
10.0
1001
ACAD
1000
DSTYLE
1002
{
1070
    40
1040
1.0
1002
}
  0
DIMENSION
  5
75
  8
TEAM-MAS
  2
*D0
 10
553.610627
 20
849.997355
 30
10.0
 11
553.610627
 21
424.998678
 31
0.0
 12
-4000.0
 22
-76000.0
 32
0.0
 13
298.521575
 23
0.0
 33
10.0
 14
319.983977
 24
849.997355
 34
0.0
 50
90.0
1001
ACAD
1000
DSTYLE
1002
{
1070
    40
1040
1.0
1002
}
  0
CIRCLE
  5
83
  8
TEAM-INSP
 10
0.0
 20
0.0
 30
0.0
 40
10.0
  0
POLYLINE
  5
85
  8
TEAM-HAUBE
 66
     1
 10
0.0
 20
0.0
 30
0.0
 70
     1
  0
VERTEX
  5
191
  8
TEAM-HAUBE
 10
79.983977
 20
679.997355
 30
0.0
  0
VERTEX
  5
192
  8
TEAM-HAUBE
 10
-80.016023
 20
679.997355
 30
0.0
  0
VERTEX
  5
193
  8
TEAM-HAUBE
 10
-80.016023
 20
406.997355
 30
0.0
 42
0.414214
  0
VERTEX
  5
194
  8
TEAM-HAUBE
 10
-73.016023
 20
399.997355
 30
0.0
  0
VERTEX
  5
195
  8
TEAM-HAUBE
 10
72.983977
 20
399.997355
 30
0.0
 42
0.414214
  0
VERTEX
  5
196
  8
TEAM-HAUBE
 10
79.983977
 20
406.997355
 30
0.0
  0
SEQEND
  5
197
  8
TEAM-HAUBE
  0
LINE
  5
88
  8
TEAM-BODY
 10
-320.016023
 20
809.997355
 30
0.0
 11
319.983977
 21
809.997355
 31
0.0
  0
LINE
  5
8A
  8
TEAM-BODY
 10
-320.016023
 20
849.997355
 30
0.0
 11
319.983977
 21
849.997355
 31
0.0
  0
POLYLINE
  5
8B
  8
TEAM-BODY
 66
     1
 10
0.0
 20
0.0
 30
0.0
 70
     1
  0
VERTEX
  5
198
  8
TEAM-BODY
 10
306.471301
 20
797.720551
 30
0.0
 42
-0.414214
  0
VERTEX
  5
199
  8
TEAM-BODY
 10
319.983977
 20
809.997355
 30
0.0
 42
0.414214
  0
VERTEX
  5
19A
  8
TEAM-BODY
 10
324.983977
 20
814.997355
 30
0.0
  0
VERTEX
  5
19B
  8
TEAM-BODY
 10
324.983977
 20
844.997355
 30
0.0
 42
0.414214
  0
VERTEX
  5
19C
  8
TEAM-BODY
 10
319.983977
 20
849.997355
 30
0.0
 42
-0.414214
  0
VERTEX
  5
19D
  8
TEAM-BODY
 10
314.983977
 20
854.997355
 30
0.0
  0
VERTEX
  5
19E
  8
TEAM-BODY
 10
314.983977
 20
877.997355
 30
0.0
 42
0.414214
  0
VERTEX
  5
19F
  8
TEAM-BODY
 10
307.983977
 20
884.997355
 30
0.0
  0
VERTEX
  5
1A0
  8
TEAM-BODY
 10
-308.016023
 20
884.997355
 30
0.0
 42
0.414214
  0
VERTEX
  5
1A1
  8
TEAM-BODY
 10
-315.016023
 20
877.997355
 30
0.0
  0
VERTEX
  5
1A2
  8
TEAM-BODY
 10
-315.016023
 20
854.997355
 30
0.0
 42
-0.414214
  0
VERTEX
  5
1A3
  8
TEAM-BODY
 10
-320.016023
 20
849.997355
 30
0.0
 42
0.414214
  0
VERTEX
  5
1A4
  8
TEAM-BODY
 10
-325.016023
 20
844.997355
 30
0.0
  0
VERTEX
  5
1A5
  8
TEAM-BODY
 10
-325.016023
 20
814.997355
 30
0.0
 42
0.414214
  0
VERTEX
  5
1A6
  8
TEAM-BODY
 10
-320.016023
 20
809.997355
 30
0.0
 42
-0.414214
  0
VERTEX
  5
1A7
  8
TEAM-BODY
 10
-306.503346
 20
797.720551
 30
0.0
 42
0.097292
  0
VERTEX
  5
1A8
  8
TEAM-BODY
 10
-257.955471
 20
685.115057
 30
0.0
 42
0.216162
  0
VERTEX
  5
1A9
  8
TEAM-BODY
 10
-246.670961
 20
679.997355
 30
0.0
  0
VERTEX
  5
1AA
  8
TEAM-BODY
 10
246.638916
 20
679.997355
 30
0.0
 42
0.216162
  0
VERTEX
  5
1AB
  8
TEAM-BODY
 10
257.923426
 20
685.115057
 30
0.0
 42
0.097292
  0
SEQEND
  5
1AC
  8
TEAM-BODY
  0
TEXT
  5
8C
  8
TEAM-TXT
 10
-127.834796
 20
702.220126
 30
0.0
 40
30.0
  1
team 212204
 41
0.8
 51
15.0
  7
TEAM
  0
POLYLINE
  5
8F
  8
TEAM-HIDE
 66
     1
 10
0.0
 20
0.0
 30
0.0
 70
     1
  0
VERTEX
  5
1AD
  8
TEAM-HIDE
 10
-134.905863
 20
775.0
 30
0.0
 42
0.414214
  0
VERTEX
  5
1AE
  8
TEAM-HIDE
 10
-124.905863
 20
785.0
 30
0.0
 42
0.414214
  0
VERTEX
  5
1AF
  8
TEAM-HIDE
 10
-134.905863
 20
795.0
 30
0.0
  0
VERTEX
  5
1B0
  8
TEAM-HIDE
 10
-144.905863
 20
795.0
 30
0.0
 42
0.414214
  0
VERTEX
  5
1B1
  8
TEAM-HIDE
 10
-154.905863
 20
785.0
 30
0.0
 42
0.414214
  0
VERTEX
  5
1B2
  8
TEAM-HIDE
 10
-144.905863
 20
775.0
 30
0.0
  0
VERTEX
  5
1B3
  8
TEAM-HIDE
 10
-139.905863
 20
775.0
 30
0.0
  0
SEQEND
  5
1B4
  8
TEAM-HIDE
  0
POINT
  5
92
  8
TEAM-AXE
 10
-139.905863
 20
791.0
 30
0.0
  0
LINE
  5
95
  8
TEAM-AXE
 10
-139.905863
 20
799.0
 30
0.0
 11
-139.905863
 21
792.0
 31
0.0
  0
LINE
  5
96
  8
TEAM-AXE
 10
-127.905863
 20
785.0
 30
0.0
 11
-118.905863
 21
785.0
 31
0.0
  0
POINT
  5
97
  8
TEAM-AXE
 10
-129.905863
 20
785.0
 30
0.0
  0
LINE
  5
98
  8
TEAM-AXE
 10
-139.905863
 20
781.0
 30
0.0
 11
-139.905863
 21
790.0
 31
0.0
  0
POINT
  5
99
  8
TEAM-AXE
 10
-149.905863
 20
785.0
 30
0.0
  0
POINT
  5
9A
  8
TEAM-AXE
 10
-139.905863
 20
779.0
 30
0.0
  0
LINE
  5
9B
  8
TEAM-AXE
 10
-131.905863
 20
785.0
 30
0.0
 11
-147.905863
 21
785.0
 31
0.0
  0
LINE
  5
9C
  8
TEAM-AXE
 10
-151.905863
 20
785.0
 30
0.0
 11
-161.905863
 21
785.0
 31
0.0
  0
LINE
  5
9D
  8
TEAM-AXE
 10
-139.905863
 20
770.0
 30
0.0
 11
-139.905863
 21
778.0
 31
0.0
  0
DIMENSION
  5
9E
  8
TEAM-MAS
  2
*D6
 10
460.974598
 20
849.997355
 30
0.0
 11
460.974598
 21
694.997355
 31
0.0
 12
-4000.0
 22
-76000.0
 32
0.0
 13
0.0
 23
539.997355
 33
0.0
 14
319.983977
 24
849.997355
 34
0.0
 50
90.0
1001
ACAD
1000
DSTYLE
1002
{
1070
    40
1040
1.0
1002
}
  0
DIMENSION
  5
AC
  8
TEAM-MAS
  2
*D5
 10
507.148873
 20
849.997355
 30
0.0
 11
507.148873
 21
719.997355
 31
0.0
 12
-4000.0
 22
-76000.0
 32
0.0
 13
40.0
 23
589.997355
 33
0.0
 14
319.983977
 24
849.997355
 34
0.0
 50
90.0
1001
ACAD
1000
DSTYLE
1002
{
1070
    40
1040
1.0
1002
}
  0
DIMENSION
  5
BA
  8
TEAM-MAS
  2
*D4
 10
368.317774
 20
785.0
 30
0.0
 11
368.317774
 21
755.0
 31
0.0
 12
-4000.0
 22
-76000.0
 32
0.0
 70
   128
 13
319.983977
 23
849.997355
 33
0.0
 14
162.094137
 24
785.0
 34
0.0
 50
90.0
1001
ACAD
1000
DSTYLE
1002
{
1070
    40
1040
1.0
1002
}
  0
LINE
  5
C7
  8
TEAM-AXE
 10
-0.016023
 20
686.169812
 30
0.0
 11
-0.016023
 21
655.758164
 31
0.0
  0
LINE
  5
C8
  8
TEAM-AXE
 10
0.0
 20
539.997355
 30
0.0
 11
0.0
 21
559.997355
 31
0.0
  0
LINE
  5
C9
  8
TEAM-AXE
 10
0.0
 20
539.997355
 30
0.0
 11
-20.0
 21
539.997355
 31
0.0
  0
LINE
  5
CA
  8
TEAM-AXE
 10
0.0
 20
539.997355
 30
0.0
 11
0.0
 21
519.997355
 31
0.0
  0
CIRCLE
  5
CB
  8
TEAM-KAN
 10
0.0
 20
539.997355
 30
0.0
 40
20.0
  0
LINE
  5
CD
  8
TEAM-AXE
 10
0.0
 20
539.997355
 30
0.0
 11
20.0
 21
539.997355
 31
0.0
  0
LINE
  5
CE
  8
TEAM-AXE
 10
-40.0
 20
589.997355
 30
0.0
 11
-40.0
 21
599.997355
 31
0.0
  0
LINE
  5
CF
  8
TEAM-AXE
 10
-40.0
 20
589.997355
 30
0.0
 11
-30.0
 21
589.997355
 31
0.0
  0
LINE
  5
D0
  8
TEAM-AXE
 10
-40.0
 20
589.997355
 30
0.0
 11
-40.0
 21
579.997355
 31
0.0
  0
CIRCLE
  5
D1
  8
TEAM-WARM
 10
-40.0
 20
589.997355
 30
0.0
 40
10.0
  0
POINT
  5
D3
  8
TEAM-MAS
 10
-40.0
 20
569.997355
 30
0.0
  0
POINT
  5
D4
  8
TEAM-MAS
 10
-40.0
 20
569.997355
 30
0.0
  0
POINT
  5
D5
  8
TEAM-MAS
 10
-40.0
 20
569.997355
 30
0.0
  0
LINE
  5
D6
  8
TEAM-AXE
 10
-40.0
 20
589.997355
 30
0.0
 11
-50.0
 21
589.997355
 31
0.0
  0
LINE
  5
D7
  8
TEAM-AXE
 10
40.0
 20
589.997355
 30
0.0
 11
40.0
 21
599.997355
 31
0.0
  0
LINE
  5
D8
  8
TEAM-AXE
 10
40.0
 20
589.997355
 30
0.0
 11
40.0
 21
579.997355
 31
0.0
  0
POINT
  5
D9
  8
TEAM-MAS
 10
40.0
 20
569.997355
 30
0.0
  0
POINT
  5
DA
  8
TEAM-MAS
 10
40.0
 20
569.997355
 30
0.0
  0
POINT
  5
DB
  8
TEAM-MAS
 10
40.0
 20
569.997355
 30
0.0
  0
LINE
  5
DC
  8
TEAM-AXE
 10
40.0
 20
589.997355
 30
0.0
 11
50.0
 21
589.997355
 31
0.0
  0
LINE
  5
DD
  8
TEAM-AXE
 10
40.0
 20
589.997355
 30
0.0
 11
30.0
 21
589.997355
 31
0.0
  0
CIRCLE
  5
DE
  8
TEAM-COLD
 10
40.0
 20
589.997355
 30
0.0
 40
10.0
  0
POINT
  5
E0
  8
TEAM-MAS
 10
40.0
 20
569.997355
 30
0.0
  0
POINT
  5
E1
  8
TEAM-MAS
 10
40.0
 20
569.997355
 30
0.0
  0
ARC
  5
E2
  8
TEAM-BODY
 10
44.483977
 20
672.997355
 30
0.0
 40
7.0
 50
90.0
 51
180.0
  0
LINE
  5
E3
  8
TEAM-BODY
 10
37.483977
 20
672.997355
 30
0.0
 11
37.483977
 21
659.997355
 31
0.0
  0
ARC
  5
E4
  8
TEAM-BODY
 10
-44.516023
 20
672.997355
 30
0.0
 40
7.0
 50
360.0
 51
90.0
  0
LINE
  5
E5
  8
TEAM-BODY
 10
-37.516023
 20
672.997355
 30
0.0
 11
-37.516023
 21
659.997355
 31
0.0
  0
LINE
  5
E6
  8
TEAM-BODY
 10
-37.516023
 20
659.997355
 30
0.0
 11
37.483977
 21
659.997355
 31
0.0
  0
POINT
  5
E7
  8
TEAM-MAS
 10
60.0
 20
589.997355
 30
0.0
  0
POINT
  5
E8
  8
TEAM-MAS
 10
60.0
 20
589.997355
 30
0.0
  0
POINT
  5
E9
  8
TEAM-MAS
 10
60.0
 20
589.997355
 30
0.0
  0
POLYLINE
  5
EA
  8
TEAM-HIDE
 66
     1
 10
0.0
 20
0.0
 30
0.0
 70
     1
  0
VERTEX
  5
1B5
  8
TEAM-HIDE
 10
135.094137
 20
775.0
 30
0.0
 42
-0.414214
  0
VERTEX
  5
1B6
  8
TEAM-HIDE
 10
125.094137
 20
785.0
 30
0.0
 42
-0.414214
  0
VERTEX
  5
1B7
  8
TEAM-HIDE
 10
135.094137
 20
795.0
 30
0.0
  0
VERTEX
  5
1B8
  8
TEAM-HIDE
 10
145.094137
 20
795.0
 30
0.0
 42
-0.414214
  0
VERTEX
  5
1B9
  8
TEAM-HIDE
 10
155.094137
 20
785.0
 30
0.0
 42
-0.414214
  0
VERTEX
  5
1BA
  8
TEAM-HIDE
 10
145.094137
 20
775.0
 30
0.0
  0
VERTEX
  5
1BB
  8
TEAM-HIDE
 10
140.094137
 20
775.0
 30
0.0
  0
SEQEND
  5
1BC
  8
TEAM-HIDE
  0
POINT
  5
EB
  8
TEAM-AXE
 10
140.094137
 20
791.0
 30
0.0
  0
LINE
  5
EC
  8
TEAM-AXE
 10
140.094137
 20
799.0
 30
0.0
 11
140.094137
 21
792.0
 31
0.0
  0
LINE
  5
ED
  8
TEAM-AXE
 10
128.094137
 20
785.0
 30
0.0
 11
119.094137
 21
785.0
 31
0.0
  0
LINE
  5
EE
  8
TEAM-AXE
 10
152.094137
 20
785.0
 30
0.0
 11
162.094137
 21
785.0
 31
0.0
  0
POINT
  5
EF
  8
TEAM-AXE
 10
150.094137
 20
785.0
 30
0.0
  0
POINT
  5
F0
  8
TEAM-AXE
 10
130.094137
 20
785.0
 30
0.0
  0
LINE
  5
F1
  8
TEAM-AXE
 10
140.094137
 20
781.0
 30
0.0
 11
140.094137
 21
790.0
 31
0.0
  0
POINT
  5
F2
  8
TEAM-AXE
 10
140.094137
 20
779.0
 30
0.0
  0
LINE
  5
F3
  8
TEAM-AXE
 10
132.094137
 20
785.0
 30
0.0
 11
148.094137
 21
785.0
 31
0.0
  0
LINE
  5
F4
  8
TEAM-AXE
 10
140.094137
 20
770.0
 30
0.0
 11
140.094137
 21
778.0
 31
0.0
  0
ENDSEC
  0
EOF
