  0
SECTION
  2
HEADER
  9
$ACADVER
  1
AC1009
  9
$INSBASE
 10
0.0
 20
0.0
 30
0.0
  9
$EXTMIN
 10
-502.131633
 20
-10.061623
 30
0.0
  9
$EXTMAX
 10
912.635105
 20
1045.822616
 30
0.0
  9
$LIMMIN
 10
-502.131633
 20
-10.061623
  9
$LIMMAX
 10
912.635105
 20
1045.822616
  9
$ORTHOMODE
 70
     1
  9
$REGENMODE
 70
     1
  9
$FILLMODE
 70
     1
  9
$QTEXTMODE
 70
     0
  9
$MIRRTEXT
 70
     0
  9
$DRAGMODE
 70
     2
  9
$LTSCALE
 40
25.0
  9
$OSMODE
 70
     0
  9
$ATTMODE
 70
     1
  9
$TEXTSIZE
 40
200.0
  9
$TRACEWID
 40
1.0
  9
$TEXTSTYLE
  7
STANDARD
  9
$CLAYER
  8
TEAM-MAS
  9
$CELTYPE
  6
BYLAYER
  9
$CECOLOR
 62
   256
  9
$DIMSCALE
 40
0.0
  9
$DIMASZ
 40
20.0
  9
$DIMEXO
 40
10.0
  9
$DIMDLI
 40
1.0
  9
$DIMRND
 40
0.0
  9
$DIMDLE
 40
0.0
  9
$DIMEXE
 40
1.0
  9
$DIMTP
 40
0.0
  9
$DIMTM
 40
0.0
  9
$DIMTXT
 40
35.0
  9
$DIMCEN
 40
1.0
  9
$DIMTSZ
 40
0.0
  9
$DIMTOL
 70
     0
  9
$DIMLIM
 70
     0
  9
$DIMTIH
 70
     0
  9
$DIMTOH
 70
     0
  9
$DIMSE1
 70
     0
  9
$DIMSE2
 70
     0
  9
$DIMTAD
 70
     0
  9
$DIMZIN
 70
     0
  9
$DIMBLK
  1

  9
$DIMASO
 70
     1
  9
$DIMSHO
 70
     0
  9
$DIMPOST
  1

  9
$DIMAPOST
  1

  9
$DIMALT
 70
     0
  9
$DIMALTD
 70
     2
  9
$DIMALTF
 40
25.4
  9
$DIMLFAC
 40
1.0
  9
$DIMTOFL
 70
     0
  9
$DIMTVP
 40
0.0
  9
$DIMTIX
 70
     0
  9
$DIMSOXD
 70
     0
  9
$DIMSAH
 70
     0
  9
$DIMBLK1
  1

  9
$DIMBLK2
  1

  9
$DIMSTYLE
  2
TEAM
  9
$DIMCLRD
 70
     9
  9
$DIMCLRE
 70
     9
  9
$DIMCLRT
 70
    11
  9
$DIMTFAC
 40
1.0
  9
$DIMGAP
 40
15.0
  9
$LUNITS
 70
     2
  9
$LUPREC
 70
     1
  9
$SKETCHINC
 40
1.0
  9
$FILLETRAD
 40
50.0
  9
$AUNITS
 70
     0
  9
$AUPREC
 70
     0
  9
$MENU
  1
ROPLANS
  9
$ELEVATION
 40
0.0
  9
$PELEVATION
 40
0.0
  9
$THICKNESS
 40
0.0
  9
$LIMCHECK
 70
     0
  9
$BLIPMODE
 70
     1
  9
$CHAMFERA
 40
0.0
  9
$CHAMFERB
 40
0.0
  9
$SKPOLY
 70
     0
  9
$TDCREATE
 40
2450392.957851
  9
$TDUPDATE
 40
2455498.928866
  9
$TDINDWG
 40
2.020593
  9
$TDUSRTIMER
 40
2.020593
  9
$USRTIMER
 70
     1
  9
$ANGBASE
 50
0.0
  9
$ANGDIR
 70
     0
  9
$PDMODE
 70
     0
  9
$PDSIZE
 40
0.0
  9
$PLINEWID
 40
0.0
  9
$COORDS
 70
     2
  9
$SPLFRAME
 70
     0
  9
$SPLINETYPE
 70
     6
  9
$SPLINESEGS
 70
     8
  9
$ATTDIA
 70
     0
  9
$ATTREQ
 70
     0
  9
$HANDLING
 70
     1
  9
$HANDSEED
  5
237
  9
$SURFTAB1
 70
    24
  9
$SURFTAB2
 70
    24
  9
$SURFTYPE
 70
     6
  9
$SURFU
 70
     6
  9
$SURFV
 70
     6
  9
$UCSNAME
  2

  9
$UCSORG
 10
0.0
 20
0.0
 30
0.0
  9
$UCSXDIR
 10
1.0
 20
0.0
 30
0.0
  9
$UCSYDIR
 10
0.0
 20
1.0
 30
0.0
  9
$PUCSNAME
  2

  9
$PUCSORG
 10
0.0
 20
0.0
 30
0.0
  9
$PUCSXDIR
 10
1.0
 20
0.0
 30
0.0
  9
$PUCSYDIR
 10
0.0
 20
1.0
 30
0.0
  9
$USERI1
 70
     0
  9
$USERI2
 70
     0
  9
$USERI3
 70
     0
  9
$USERI4
 70
     0
  9
$USERI5
 70
     0
  9
$USERR1
 40
0.0
  9
$USERR2
 40
0.0
  9
$USERR3
 40
0.0
  9
$USERR4
 40
0.0
  9
$USERR5
 40
0.0
  9
$WORLDVIEW
 70
     1
  9
$SHADEDGE
 70
     0
  9
$SHADEDIF
 70
    70
  9
$TILEMODE
 70
     1
  9
$MAXACTVP
 70
    16
  9
$PLIMCHECK
 70
     0
  9
$PEXTMIN
 10
-0.805942
 20
0.005011
 30
0.0
  9
$PEXTMAX
 10
20.250094
 20
11.356329
 30
0.0
  9
$PLIMMIN
 10
0.0
 20
0.0
  9
$PLIMMAX
 10
12.0
 20
9.0
  9
$UNITMODE
 70
     0
  9
$VISRETAIN
 70
     0
  9
$PLINEGEN
 70
     0
  9
$PSLTSCALE
 70
     0
  0
ENDSEC
  0
SECTION
  2
TABLES
  0
TABLE
  2
VPORT
 70
     2
  0
VPORT
  2
*ACTIVE
 70
     0
 10
0.0
 20
0.0
 11
1.0
 21
1.0
 12
205.251736
 22
517.880497
 13
0.0
 23
0.0
 14
1.0
 24
1.0
 15
50.0
 25
50.0
 16
0.0
 26
0.0
 36
1.0
 17
0.0
 27
0.0
 37
0.0
 40
1062.368687
 41
1.865779
 42
50.0
 43
0.0
 44
0.0
 50
0.0
 51
0.0
 71
     0
 72
   100
 73
     1
 74
     1
 75
     0
 76
     0
 77
     0
 78
     0
  0
ENDTAB
  0
TABLE
  2
LTYPE
 70
     3
  0
LTYPE
  2
CONTINUOUS
 70
     0
  3
Solid Line
 72
    65
 73
     0
 40
0.0
  0
LTYPE
  2
31
 70
     0
  3

 72
    65
 73
     4
 40
2.1
 49
1.5
 49
-0.3
 49
0.0
 49
-0.3
  0
LTYPE
  2
22
 70
     0
  3

 72
    65
 73
     2
 40
1.4
 49
1.2
 49
-0.2
  0
ENDTAB
  0
TABLE
  2
LAYER
 70
    11
  0
LAYER
  2
0
 70
     0
 62
     7
  6
CONTINUOUS
  0
LAYER
  2
DEFPOINTS
 70
     0
 62
     7
  6
CONTINUOUS
  0
LAYER
  2
TEAM-BODY
 70
     0
 62
     2
  6
CONTINUOUS
  0
LAYER
  2
TEAM-AXE
 70
     0
 62
    10
  6
31
  0
LAYER
  2
TEAM-MAS
 70
     0
 62
     9
  6
CONTINUOUS
  0
LAYER
  2
TEAM-TXT
 70
     0
 62
    11
  6
CONTINUOUS
  0
LAYER
  2
TEAM-COLD
 70
     0
 62
     3
  6
CONTINUOUS
  0
LAYER
  2
TEAM-HIDE
 70
     0
 62
     8
  6
22
  0
LAYER
  2
TEAM-KAN
 70
     0
 62
     6
  6
CONTINUOUS
  0
LAYER
  2
TEAM-WARM
 70
     0
 62
     1
  6
CONTINUOUS
  0
LAYER
  2
TEAM-INSP
 70
     0
 62
     5
  6
CONTINUOUS
  0
ENDTAB
  0
TABLE
  2
STYLE
 70
     2
  0
STYLE
  2
STANDARD
 70
     0
 40
0.0
 41
1.0
 50
0.0
 71
     0
 42
200.0
  3
txt
  4

  0
STYLE
  2
TEAM
 70
     0
 40
0.0
 41
0.8
 50
15.0
 71
     0
 42
7.0
  3
ROMANS.shx
  4

  0
ENDTAB
  0
TABLE
  2
VIEW
 70
     0
  0
ENDTAB
  0
TABLE
  2
UCS
 70
     0
  0
ENDTAB
  0
TABLE
  2
APPID
 70
     1
  0
APPID
  2
ACAD
 70
     0
  0
ENDTAB
  0
TABLE
  2
DIMSTYLE
 70
     1
  0
DIMSTYLE
  2
TEAM
 70
     0
  3

  4

  5

  6

  7

 40
0.0
 41
20.0
 42
10.0
 43
1.0
 44
1.0
 45
0.0
 46
0.0
 47
0.0
 48
0.0
140
35.0
141
1.0
142
0.0
143
25.4
144
1.0
145
0.0
146
1.0
147
15.0
 71
     0
 72
     0
 73
     0
 74
     0
 75
     0
 76
     0
 77
     0
 78
     0
170
     0
171
     2
172
     0
173
     0
174
     0
175
     0
176
     9
177
     9
178
    11
  0
ENDTAB
  0
ENDSEC
  0
SECTION
  2
BLOCKS
  0
BLOCK
  8
0
  2
$MODEL_SPACE
 70
     0
 10
0.0
 20
0.0
 30
0.0
  3
$MODEL_SPACE
  1

  0
ENDBLK
  5
216
  8
0
  0
BLOCK
 67
     1
  8
0
  2
$PAPER_SPACE
 70
     0
 10
0.0
 20
0.0
 30
0.0
  3
$PAPER_SPACE
  1

  0
ENDBLK
  5
214
 67
     1
  8
0
  0
BLOCK
  8
0
  2
*D0
 70
     1
 10
0.0
 20
0.0
 30
0.0
  3
*D0
  1

  0
LINE
  5
122
  8
0
  6
BYBLOCK
 62
     9
 10
11685.003464
 20
116825.0
 30
0.0
 11
11685.003464
 21
117029.426627
 31
0.0
  0
LINE
  5
123
  8
0
  6
BYBLOCK
 62
     9
 10
12315.003464
 20
116825.0
 30
0.0
 11
12315.003464
 21
117029.426627
 31
0.0
  0
LINE
  5
124
  8
0
  6
BYBLOCK
 62
     9
 10
11705.003464
 20
117028.426627
 30
0.0
 11
11952.44244
 21
117028.426627
 31
0.0
  0
LINE
  5
125
  8
0
  6
BYBLOCK
 62
     9
 10
12295.003464
 20
117028.426627
 30
0.0
 11
12047.564487
 21
117028.426627
 31
0.0
  0
SOLID
  5
126
  8
0
  6
BYBLOCK
 62
     9
 10
11705.003464
 20
117031.759961
 30
0.0
 11
11705.003464
 21
117025.093294
 31
0.0
 12
11685.003464
 22
117028.426627
 32
0.0
 13
11685.003464
 23
117028.426627
 33
0.0
  0
SOLID
  5
127
  8
0
  6
BYBLOCK
 62
     9
 10
12295.003464
 20
117031.759961
 30
0.0
 11
12295.003464
 21
117025.093294
 31
0.0
 12
12315.003464
 22
117028.426627
 32
0.0
 13
12315.003464
 23
117028.426627
 33
0.0
  0
TEXT
  5
128
  8
0
  6
BYBLOCK
 62
    11
 10
11964.286928
 20
117010.926627
 30
0.0
 40
35.0
  1
630
  0
POINT
  5
129
  8
DEFPOINTS
  6
BYBLOCK
 62
     0
 10
11685.003464
 20
116815.0
 30
0.0
  0
POINT
  5
12A
  8
DEFPOINTS
  6
BYBLOCK
 62
     0
 10
12315.003464
 20
116815.0
 30
0.0
  0
POINT
  5
12B
  8
DEFPOINTS
  6
BYBLOCK
 62
     0
 10
12315.003464
 20
117028.426627
 30
0.0
  0
ENDBLK
  5
12D
  8
0
  0
BLOCK
  8
0
  2
*D1
 70
     1
 10
0.0
 20
0.0
 30
0.0
  3
*D1
  1

  0
LINE
  5
114
  8
0
  6
BYBLOCK
 62
     9
 10
11692.5
 20
116595.0
 30
0.0
 11
11692.5
 21
116367.451047
 31
0.0
  0
LINE
  5
115
  8
0
  6
BYBLOCK
 62
     9
 10
11842.5
 20
116595.0
 30
0.0
 11
11842.5
 21
116367.451047
 31
0.0
  0
LINE
  5
116
  8
0
  6
BYBLOCK
 62
     9
 10
11712.5
 20
116368.451047
 30
0.0
 11
11727.5
 21
116368.451047
 31
0.0
  0
LINE
  5
117
  8
0
  6
BYBLOCK
 62
     9
 10
11822.5
 20
116368.451047
 30
0.0
 11
11807.5
 21
116368.451047
 31
0.0
  0
TEXT
  5
118
  8
0
  6
BYBLOCK
 62
    11
 10
11734.23622
 20
116376.007332
 30
0.0
 40
35.0
  1
150
  0
SOLID
  5
119
  8
0
  6
BYBLOCK
 62
     9
 10
11712.5
 20
116371.78438
 30
0.0
 11
11712.5
 21
116365.117713
 31
0.0
 12
11692.5
 22
116368.451047
 32
0.0
 13
11692.5
 23
116368.451047
 33
0.0
  0
SOLID
  5
11A
  8
0
  6
BYBLOCK
 62
     9
 10
11822.5
 20
116371.78438
 30
0.0
 11
11822.5
 21
116365.117713
 31
0.0
 12
11842.5
 22
116368.451047
 32
0.0
 13
11842.5
 23
116368.451047
 33
0.0
  0
POINT
  5
11B
  8
DEFPOINTS
  6
BYBLOCK
 62
     0
 10
11692.5
 20
116605.0
 30
0.0
  0
POINT
  5
11C
  8
DEFPOINTS
  6
BYBLOCK
 62
     0
 10
11842.5
 20
116605.0
 30
0.0
  0
POINT
  5
11D
  8
DEFPOINTS
  6
BYBLOCK
 62
     0
 10
11842.5
 20
116368.451047
 30
0.0
  0
ENDBLK
  5
11F
  8
0
  0
BLOCK
  8
0
  2
*D2
 70
     1
 10
0.0
 20
0.0
 30
0.0
  3
*D2
  1

  0
LINE
  5
FA
  8
0
  6
BYBLOCK
 62
     9
 10
11842.5
 20
116585.0
 30
0.0
 11
11842.5
 21
116367.451047
 31
0.0
  0
LINE
  5
FB
  8
0
  6
BYBLOCK
 62
     9
 10
12157.5
 20
116585.0
 30
0.0
 11
12157.5
 21
116367.451047
 31
0.0
  0
LINE
  5
FC
  8
0
  6
BYBLOCK
 62
     9
 10
11862.5
 20
116368.451047
 30
0.0
 11
11956.275126
 21
116368.451047
 31
0.0
  0
LINE
  5
FD
  8
0
  6
BYBLOCK
 62
     9
 10
12137.5
 20
116368.451047
 30
0.0
 11
12043.724874
 21
116368.451047
 31
0.0
  0
SOLID
  5
FE
  8
0
  6
BYBLOCK
 62
     9
 10
11862.5
 20
116371.78438
 30
0.0
 11
11862.5
 21
116365.117713
 31
0.0
 12
11842.5
 22
116368.451047
 32
0.0
 13
11842.5
 23
116368.451047
 33
0.0
  0
SOLID
  5
FF
  8
0
  6
BYBLOCK
 62
     9
 10
12137.5
 20
116371.78438
 30
0.0
 11
12137.5
 21
116365.117713
 31
0.0
 12
12157.5
 22
116368.451047
 32
0.0
 13
12157.5
 23
116368.451047
 33
0.0
  0
TEXT
  5
100
  8
0
  6
BYBLOCK
 62
    11
 10
11966.025126
 20
116350.951047
 30
0.0
 40
35.0
  1
315
  0
POINT
  5
101
  8
DEFPOINTS
  6
BYBLOCK
 62
     0
 10
11842.5
 20
116595.0
 30
0.0
  0
POINT
  5
102
  8
DEFPOINTS
  6
BYBLOCK
 62
     0
 10
12157.5
 20
116595.0
 30
0.0
  0
POINT
  5
103
  8
DEFPOINTS
  6
BYBLOCK
 62
     0
 10
12157.5
 20
116368.451047
 30
0.0
  0
ENDBLK
  5
105
  8
0
  0
BLOCK
  8
0
  2
*D3
 70
     1
 10
0.0
 20
0.0
 30
0.0
  3
*D3
  1

  0
LINE
  5
A4
  8
0
  6
BYBLOCK
 62
     9
 10
11767.5
 20
116837.024161
 30
0.0
 11
11767.5
 21
116972.972012
 31
0.0
  0
LINE
  5
A5
  8
0
  6
BYBLOCK
 62
     9
 10
12232.5
 20
116837.024161
 30
0.0
 11
12232.5
 21
116972.972012
 31
0.0
  0
LINE
  5
A6
  8
0
  6
BYBLOCK
 62
     9
 10
11787.5
 20
116971.972012
 30
0.0
 11
11951.025126
 21
116971.972012
 31
0.0
  0
LINE
  5
A7
  8
0
  6
BYBLOCK
 62
     9
 10
12212.5
 20
116971.972012
 30
0.0
 11
12048.974874
 21
116971.972012
 31
0.0
  0
SOLID
  5
A8
  8
0
  6
BYBLOCK
 62
     9
 10
11787.5
 20
116975.305345
 30
0.0
 11
11787.5
 21
116968.638679
 31
0.0
 12
11767.5
 22
116971.972012
 32
0.0
 13
11767.5
 23
116971.972012
 33
0.0
  0
SOLID
  5
A9
  8
0
  6
BYBLOCK
 62
     9
 10
12212.5
 20
116975.305345
 30
0.0
 11
12212.5
 21
116968.638679
 31
0.0
 12
12232.5
 22
116971.972012
 32
0.0
 13
12232.5
 23
116971.972012
 33
0.0
  0
TEXT
  5
AA
  8
0
  6
BYBLOCK
 62
    11
 10
11960.775126
 20
116954.472012
 30
0.0
 40
35.0
  1
465
  0
POINT
  5
AB
  8
DEFPOINTS
  6
BYBLOCK
 62
     0
 10
11767.5
 20
116827.024161
 30
0.0
  0
POINT
  5
AC
  8
DEFPOINTS
  6
BYBLOCK
 62
     0
 10
12232.5
 20
116827.024161
 30
0.0
  0
POINT
  5
AD
  8
DEFPOINTS
  6
BYBLOCK
 62
     0
 10
12232.5
 20
116971.972012
 30
0.0
  0
ENDBLK
  5
AF
  8
0
  0
BLOCK
  8
0
  2
*D4
 70
     1
 10
0.0
 20
0.0
 30
0.0
  3
*D4
  1

  0
LINE
  5
96
  8
0
  6
BYBLOCK
 62
     9
 10
12140.0
 20
116805.0
 30
0.0
 11
12140.0
 21
116918.470812
 31
0.0
  0
LINE
  5
97
  8
0
  6
BYBLOCK
 62
     9
 10
11860.0
 20
116810.0
 30
0.0
 11
11860.0
 21
116918.470812
 31
0.0
  0
LINE
  5
98
  8
0
  6
BYBLOCK
 62
     9
 10
12120.0
 20
116917.470812
 30
0.0
 11
12046.958169
 21
116917.470812
 31
0.0
  0
LINE
  5
99
  8
0
  6
BYBLOCK
 62
     9
 10
11880.0
 20
116917.470812
 30
0.0
 11
11953.041831
 21
116917.470812
 31
0.0
  0
SOLID
  5
9A
  8
0
  6
BYBLOCK
 62
     9
 10
12120.0
 20
116920.804145
 30
0.0
 11
12120.0
 21
116914.137479
 31
0.0
 12
12140.0
 22
116917.470812
 32
0.0
 13
12140.0
 23
116917.470812
 33
0.0
  0
SOLID
  5
9B
  8
0
  6
BYBLOCK
 62
     9
 10
11880.0
 20
116920.804145
 30
0.0
 11
11880.0
 21
116914.137479
 31
0.0
 12
11860.0
 22
116917.470812
 32
0.0
 13
11860.0
 23
116917.470812
 33
0.0
  0
TEXT
  5
9C
  8
0
  6
BYBLOCK
 62
    11
 10
11963.68061
 20
116899.970812
 30
0.0
 40
35.0
  1
280
  0
POINT
  5
9D
  8
DEFPOINTS
  6
BYBLOCK
 62
     0
 10
12140.0
 20
116795.0
 30
0.0
  0
POINT
  5
9E
  8
DEFPOINTS
  6
BYBLOCK
 62
     0
 10
11860.0
 20
116800.0
 30
0.0
  0
POINT
  5
9F
  8
DEFPOINTS
  6
BYBLOCK
 62
     0
 10
11860.0
 20
116917.470812
 30
0.0
  0
ENDBLK
  5
A1
  8
0
  0
BLOCK
  8
0
  2
*D5
 70
     1
 10
0.0
 20
0.0
 30
0.0
  3
*D5
  1

  0
LINE
  5
78
  8
0
  6
BYBLOCK
 62
     9
 10
12040.0
 20
116510.0
 30
0.0
 11
12818.70324
 21
116510.0
 31
0.0
  0
LINE
  5
79
  8
0
  6
BYBLOCK
 62
     9
 10
12578.249177
 20
116850.0
 30
0.0
 11
12818.70324
 21
116850.0
 31
0.0
  0
LINE
  5
7A
  8
0
  6
BYBLOCK
 62
     9
 10
12817.70324
 20
116530.0
 30
0.0
 11
12817.70324
 21
116631.73622
 31
0.0
  0
LINE
  5
7B
  8
0
  6
BYBLOCK
 62
     9
 10
12817.70324
 20
116830.0
 30
0.0
 11
12817.70324
 21
116728.26378
 31
0.0
  0
SOLID
  5
7C
  8
0
  6
BYBLOCK
 62
     9
 10
12814.369906
 20
116530.0
 30
0.0
 11
12821.036573
 21
116530.0
 31
0.0
 12
12817.70324
 22
116510.0
 32
0.0
 13
12817.70324
 23
116510.0
 33
0.0
  0
SOLID
  5
7D
  8
0
  6
BYBLOCK
 62
     9
 10
12814.369906
 20
116830.0
 30
0.0
 11
12821.036573
 21
116830.0
 31
0.0
 12
12817.70324
 22
116850.0
 32
0.0
 13
12817.70324
 23
116850.0
 33
0.0
  0
TEXT
  5
7E
  8
0
  6
BYBLOCK
 62
    11
 10
12835.20324
 20
116641.48622
 30
0.0
 40
35.0
  1
340
 50
90.0
  0
POINT
  5
7F
  8
DEFPOINTS
  6
BYBLOCK
 62
     0
 10
12030.0
 20
116510.0
 30
0.0
  0
POINT
  5
80
  8
DEFPOINTS
  6
BYBLOCK
 62
     0
 10
12568.249177
 20
116850.0
 30
0.0
  0
POINT
  5
81
  8
DEFPOINTS
  6
BYBLOCK
 62
     0
 10
12817.70324
 20
116850.0
 30
0.0
  0
ENDBLK
  5
83
  8
0
  0
BLOCK
  8
0
  2
*D6
 70
     1
 10
0.0
 20
0.0
 30
0.0
  3
*D6
  1

  0
LINE
  5
6A
  8
0
  6
BYBLOCK
 62
     9
 10
12342.5
 20
116620.0
 30
0.0
 11
12739.322566
 21
116620.0
 31
0.0
  0
LINE
  5
6B
  8
0
  6
BYBLOCK
 62
     9
 10
12501.60409
 20
116850.0
 30
0.0
 11
12739.322566
 21
116850.0
 31
0.0
  0
LINE
  5
6C
  8
0
  6
BYBLOCK
 62
     9
 10
12738.322566
 20
116640.0
 30
0.0
 11
12738.322566
 21
116688.041831
 31
0.0
  0
LINE
  5
6D
  8
0
  6
BYBLOCK
 62
     9
 10
12738.322566
 20
116830.0
 30
0.0
 11
12738.322566
 21
116781.958169
 31
0.0
  0
SOLID
  5
6E
  8
0
  6
BYBLOCK
 62
     9
 10
12734.989233
 20
116640.0
 30
0.0
 11
12741.655899
 21
116640.0
 31
0.0
 12
12738.322566
 22
116620.0
 32
0.0
 13
12738.322566
 23
116620.0
 33
0.0
  0
SOLID
  5
6F
  8
0
  6
BYBLOCK
 62
     9
 10
12734.989233
 20
116830.0
 30
0.0
 11
12741.655899
 21
116830.0
 31
0.0
 12
12738.322566
 22
116850.0
 32
0.0
 13
12738.322566
 23
116850.0
 33
0.0
  0
TEXT
  5
70
  8
0
  6
BYBLOCK
 62
    11
 10
12755.822566
 20
116698.68061
 30
0.0
 40
35.0
  1
230
 50
90.0
  0
POINT
  5
71
  8
DEFPOINTS
  6
BYBLOCK
 62
     0
 10
12332.5
 20
116620.0
 30
0.0
  0
POINT
  5
72
  8
DEFPOINTS
  6
BYBLOCK
 62
     0
 10
12491.60409
 20
116850.0
 30
0.0
  0
POINT
  5
73
  8
DEFPOINTS
  6
BYBLOCK
 62
     0
 10
12738.322566
 20
116850.0
 30
0.0
  0
ENDBLK
  5
75
  8
0
  0
BLOCK
  8
0
  2
*D7
 70
     1
 10
0.0
 20
0.0
 30
0.0
  3
*D7
  1

  0
LINE
  5
5C
  8
0
  6
BYBLOCK
 62
     9
 10
12501.60409
 20
116850.0
 30
0.0
 11
12659.971207
 21
116850.0
 31
0.0
  0
LINE
  5
5D
  8
0
  6
BYBLOCK
 62
     9
 10
12047.5
 20
116675.0
 30
0.0
 11
12659.971207
 21
116675.0
 31
0.0
  0
LINE
  5
5E
  8
0
  6
BYBLOCK
 62
     9
 10
12658.971207
 20
116830.0
 30
0.0
 11
12658.971207
 21
116806.224874
 31
0.0
  0
LINE
  5
5F
  8
0
  6
BYBLOCK
 62
     9
 10
12658.971207
 20
116695.0
 30
0.0
 11
12658.971207
 21
116718.775126
 31
0.0
  0
SOLID
  5
60
  8
0
  6
BYBLOCK
 62
     9
 10
12655.637874
 20
116830.0
 30
0.0
 11
12662.304541
 21
116830.0
 31
0.0
 12
12658.971207
 22
116850.0
 32
0.0
 13
12658.971207
 23
116850.0
 33
0.0
  0
SOLID
  5
61
  8
0
  6
BYBLOCK
 62
     9
 10
12655.637874
 20
116695.0
 30
0.0
 11
12662.304541
 21
116695.0
 31
0.0
 12
12658.971207
 22
116675.0
 32
0.0
 13
12658.971207
 23
116675.0
 33
0.0
  0
TEXT
  5
62
  8
0
  6
BYBLOCK
 62
    11
 10
12676.471207
 20
116728.525126
 30
0.0
 40
35.0
  1
175
 50
90.0
  0
POINT
  5
63
  8
DEFPOINTS
  6
BYBLOCK
 62
     0
 10
12491.60409
 20
116850.0
 30
0.0
  0
POINT
  5
64
  8
DEFPOINTS
  6
BYBLOCK
 62
     0
 10
12037.5
 20
116675.0
 30
0.0
  0
POINT
  5
65
  8
DEFPOINTS
  6
BYBLOCK
 62
     0
 10
12658.971207
 20
116675.0
 30
0.0
  0
ENDBLK
  5
67
  8
0
  0
BLOCK
  8
0
  2
*D8
 70
     1
 10
0.0
 20
0.0
 30
0.0
  3
*D8
  1

  0
LINE
  5
4D
  8
0
  6
BYBLOCK
 62
     9
 10
12501.60409
 20
116850.0
 30
0.0
 11
12585.54872
 21
116850.0
 31
0.0
  0
LINE
  5
4E
  8
0
  6
BYBLOCK
 62
     9
 10
12345.003464
 20
116795.0
 30
0.0
 11
12585.54872
 21
116795.0
 31
0.0
  0
LINE
  5
4F
  8
0
  6
BYBLOCK
 62
     9
 10
12584.54872
 20
116870.0
 30
0.0
 11
12584.54872
 21
116890.0
 31
0.0
  0
LINE
  5
50
  8
0
  6
BYBLOCK
 62
     9
 10
12584.54872
 20
116775.0
 30
0.0
 11
12584.54872
 21
116755.0
 31
0.0
  0
TEXT
  5
51
  8
0
  6
BYBLOCK
 62
    11
 10
12603.04872
 20
116738.408654
 30
0.0
 40
35.0
  1
55
 50
90.0
  0
LINE
  5
52
  8
0
  6
BYBLOCK
 62
     9
 10
12584.54872
 20
116850.0
 30
0.0
 11
12584.54872
 21
116795.0
 31
0.0
  0
SOLID
  5
53
  8
0
  6
BYBLOCK
 62
     9
 10
12581.215387
 20
116870.0
 30
0.0
 11
12587.882053
 21
116870.0
 31
0.0
 12
12584.54872
 22
116850.0
 32
0.0
 13
12584.54872
 23
116850.0
 33
0.0
  0
SOLID
  5
54
  8
0
  6
BYBLOCK
 62
     9
 10
12581.215387
 20
116775.0
 30
0.0
 11
12587.882053
 21
116775.0
 31
0.0
 12
12584.54872
 22
116795.0
 32
0.0
 13
12584.54872
 23
116795.0
 33
0.0
  0
POINT
  5
55
  8
DEFPOINTS
  6
BYBLOCK
 62
     0
 10
12491.60409
 20
116850.0
 30
0.0
  0
POINT
  5
56
  8
DEFPOINTS
  6
BYBLOCK
 62
     0
 10
12335.003464
 20
116795.0
 30
0.0
  0
POINT
  5
57
  8
DEFPOINTS
  6
BYBLOCK
 62
     0
 10
12584.54872
 20
116795.0
 30
0.0
  0
ENDBLK
  5
59
  8
0
  0
BLOCK
  8
0
  2
*D9
 70
     1
 10
0.0
 20
0.0
 30
0.0
  3
*D9
  1

  0
LINE
  5
3F
  8
0
  6
BYBLOCK
 62
     9
 10
12342.5
 20
116620.0
 30
0.0
 11
12739.322566
 21
116620.0
 31
0.0
  0
LINE
  5
40
  8
0
  6
BYBLOCK
 62
     9
 10
12010.0
 20
116000.0
 30
0.0
 11
12739.322566
 21
116000.0
 31
0.0
  0
LINE
  5
41
  8
0
  6
BYBLOCK
 62
     9
 10
12738.322566
 20
116600.0
 30
0.0
 11
12738.322566
 21
116357.561024
 31
0.0
  0
LINE
  5
42
  8
0
  6
BYBLOCK
 62
     9
 10
12738.322566
 20
116020.0
 30
0.0
 11
12738.322566
 21
116262.438976
 31
0.0
  0
SOLID
  5
43
  8
0
  6
BYBLOCK
 62
     9
 10
12734.989233
 20
116600.0
 30
0.0
 11
12741.655899
 21
116600.0
 31
0.0
 12
12738.322566
 22
116620.0
 32
0.0
 13
12738.322566
 23
116620.0
 33
0.0
  0
SOLID
  5
44
  8
0
  6
BYBLOCK
 62
     9
 10
12734.989233
 20
116020.0
 30
0.0
 11
12741.655899
 21
116020.0
 31
0.0
 12
12738.322566
 22
116000.0
 32
0.0
 13
12738.322566
 23
116000.0
 33
0.0
  0
TEXT
  5
45
  8
0
  6
BYBLOCK
 62
    11
 10
12755.822566
 20
116274.283465
 30
0.0
 40
35.0
  1
620
 50
90.0
  0
POINT
  5
46
  8
DEFPOINTS
  6
BYBLOCK
 62
     0
 10
12332.5
 20
116620.0
 30
0.0
  0
POINT
  5
47
  8
DEFPOINTS
  6
BYBLOCK
 62
     0
 10
12000.0
 20
116000.0
 30
0.0
  0
POINT
  5
48
  8
DEFPOINTS
  6
BYBLOCK
 62
     0
 10
12738.322566
 20
116000.0
 30
0.0
  0
ENDBLK
  5
4A
  8
0
  0
BLOCK
  8
0
  2
*D10
 70
     1
 10
0.0
 20
0.0
 30
0.0
  3
*D10
  1

  0
LINE
  5
31
  8
0
  6
BYBLOCK
 62
     9
 10
12040.0
 20
116510.0
 30
0.0
 11
12818.70324
 21
116510.0
 31
0.0
  0
LINE
  5
32
  8
0
  6
BYBLOCK
 62
     9
 10
12089.380674
 20
116000.0
 30
0.0
 11
12818.70324
 21
116000.0
 31
0.0
  0
LINE
  5
33
  8
0
  6
BYBLOCK
 62
     9
 10
12817.70324
 20
116490.0
 30
0.0
 11
12817.70324
 21
116298.01378
 31
0.0
  0
LINE
  5
34
  8
0
  6
BYBLOCK
 62
     9
 10
12817.70324
 20
116020.0
 30
0.0
 11
12817.70324
 21
116211.98622
 31
0.0
  0
SOLID
  5
35
  8
0
  6
BYBLOCK
 62
     9
 10
12814.369906
 20
116490.0
 30
0.0
 11
12821.036573
 21
116490.0
 31
0.0
 12
12817.70324
 22
116510.0
 32
0.0
 13
12817.70324
 23
116510.0
 33
0.0
  0
SOLID
  5
36
  8
0
  6
BYBLOCK
 62
     9
 10
12814.369906
 20
116020.0
 30
0.0
 11
12821.036573
 21
116020.0
 31
0.0
 12
12817.70324
 22
116000.0
 32
0.0
 13
12817.70324
 23
116000.0
 33
0.0
  0
TEXT
  5
37
  8
0
  6
BYBLOCK
 62
    11
 10
12835.20324
 20
116221.73622
 30
0.0
 40
35.0
  1
510
 50
90.0
  0
POINT
  5
38
  8
DEFPOINTS
  6
BYBLOCK
 62
     0
 10
12030.0
 20
116510.0
 30
0.0
  0
POINT
  5
39
  8
DEFPOINTS
  6
BYBLOCK
 62
     0
 10
12079.380674
 20
116000.0
 30
0.0
  0
POINT
  5
3A
  8
DEFPOINTS
  6
BYBLOCK
 62
     0
 10
12817.70324
 20
116000.0
 30
0.0
  0
ENDBLK
  5
3C
  8
0
  0
BLOCK
  8
0
  2
*D11
 70
     1
 10
0.0
 20
0.0
 30
0.0
  3
*D11
  1

  0
LINE
  5
22
  8
0
  6
BYBLOCK
 62
     9
 10
12501.60409
 20
116850.0
 30
0.0
 11
12896.394401
 21
116850.0
 31
0.0
  0
LINE
  5
23
  8
0
  6
BYBLOCK
 62
     9
 10
12010.0
 20
116000.0
 30
0.0
 11
12896.394401
 21
116000.0
 31
0.0
  0
LINE
  5
24
  8
0
  6
BYBLOCK
 62
     9
 10
12895.394401
 20
116830.0
 30
0.0
 11
12895.394401
 21
116471.51378
 31
0.0
  0
LINE
  5
25
  8
0
  6
BYBLOCK
 62
     9
 10
12895.394401
 20
116020.0
 30
0.0
 11
12895.394401
 21
116378.48622
 31
0.0
  0
SOLID
  5
26
  8
0
  6
BYBLOCK
 62
     9
 10
12892.061068
 20
116830.0
 30
0.0
 11
12898.727735
 21
116830.0
 31
0.0
 12
12895.394401
 22
116850.0
 32
0.0
 13
12895.394401
 23
116850.0
 33
0.0
  0
SOLID
  5
27
  8
0
  6
BYBLOCK
 62
     9
 10
12892.061068
 20
116020.0
 30
0.0
 11
12898.727735
 21
116020.0
 31
0.0
 12
12895.394401
 22
116000.0
 32
0.0
 13
12895.394401
 23
116000.0
 33
0.0
  0
TEXT
  5
28
  8
0
  6
BYBLOCK
 62
    11
 10
12912.894401
 20
116388.23622
 30
0.0
 40
35.0
  1
850
 50
90.0
  0
POINT
  5
29
  8
DEFPOINTS
  6
BYBLOCK
 62
     0
 10
12491.60409
 20
116850.0
 30
0.0
  0
POINT
  5
2B
  8
DEFPOINTS
  6
BYBLOCK
 62
     0
 10
12000.0
 20
116000.0
 30
0.0
  0
POINT
  5
2C
  8
DEFPOINTS
  6
BYBLOCK
 62
     0
 10
12895.394401
 20
116000.0
 30
0.0
  0
ENDBLK
  5
2E
  8
0
  0
BLOCK
  8
0
  2
*D12
 70
     1
 10
0.0
 20
0.0
 30
0.0
  3
*D12
  1

  0
LINE
  5
86
  8
0
  6
BYBLOCK
 62
     9
 10
12157.5
 20
116595.0
 30
0.0
 11
12157.5
 21
116367.451047
 31
0.0
  0
LINE
  5
87
  8
0
  6
BYBLOCK
 62
     9
 10
12307.5
 20
116595.0
 30
0.0
 11
12307.5
 21
116367.451047
 31
0.0
  0
LINE
  5
88
  8
0
  6
BYBLOCK
 62
     9
 10
12177.5
 20
116368.451047
 30
0.0
 11
12192.5
 21
116368.451047
 31
0.0
  0
LINE
  5
89
  8
0
  6
BYBLOCK
 62
     9
 10
12287.5
 20
116368.451047
 30
0.0
 11
12272.5
 21
116368.451047
 31
0.0
  0
TEXT
  5
8A
  8
0
  6
BYBLOCK
 62
    11
 10
12199.23622
 20
116376.007332
 30
0.0
 40
35.0
  1
150
  0
SOLID
  5
8B
  8
0
  6
BYBLOCK
 62
     9
 10
12177.5
 20
116371.78438
 30
0.0
 11
12177.5
 21
116365.117713
 31
0.0
 12
12157.5
 22
116368.451047
 32
0.0
 13
12157.5
 23
116368.451047
 33
0.0
  0
SOLID
  5
8C
  8
0
  6
BYBLOCK
 62
     9
 10
12287.5
 20
116371.78438
 30
0.0
 11
12287.5
 21
116365.117713
 31
0.0
 12
12307.5
 22
116368.451047
 32
0.0
 13
12307.5
 23
116368.451047
 33
0.0
  0
POINT
  5
8D
  8
DEFPOINTS
  6
BYBLOCK
 62
     0
 10
12157.5
 20
116605.0
 30
0.0
  0
POINT
  5
8E
  8
DEFPOINTS
  6
BYBLOCK
 62
     0
 10
12307.5
 20
116605.0
 30
0.0
  0
POINT
  5
8F
  8
DEFPOINTS
  6
BYBLOCK
 62
     0
 10
12307.5
 20
116368.451047
 30
0.0
  0
ENDBLK
  5
91
  8
0
  0
ENDSEC
  0
SECTION
  2
ENTITIES
  0
DIMENSION
  5
20
  8
TEAM-MAS
  2
*D11
 10
895.394401
 20
0.0
 30
0.0
 11
895.394401
 21
425.0
 31
0.0
 12
-12000.0
 22
-116000.0
 32
0.0
 13
491.60409
 23
850.0
 33
0.0
 14
0.0
 24
0.0
 34
0.0
 50
90.0
1001
ACAD
1000
DSTYLE
1002
{
1070
    40
1040
1.0
1002
}
  0
DIMENSION
  5
2F
  8
TEAM-MAS
  2
*D10
 10
817.70324
 20
0.0
 30
0.0
 11
817.70324
 21
255.0
 31
0.0
 12
-12000.0
 22
-116000.0
 32
0.0
 13
30.0
 23
510.0
 33
0.0
 14
79.380674
 24
0.0
 34
0.0
 50
90.0
1001
ACAD
1000
DSTYLE
1002
{
1070
    40
1040
1.0
1002
}
  0
DIMENSION
  5
3D
  8
TEAM-MAS
  2
*D9
 10
738.322566
 20
0.0
 30
0.0
 11
738.322566
 21
310.0
 31
0.0
 12
-12000.0
 22
-116000.0
 32
0.0
 13
332.5
 23
620.0
 33
0.0
 14
0.0
 24
0.0
 34
0.0
 50
90.0
1001
ACAD
1000
DSTYLE
1002
{
1070
    40
1040
1.0
1002
}
  0
DIMENSION
  5
4B
  8
TEAM-MAS
  2
*D8
 10
584.54872
 20
795.0
 30
0.0
 11
585.54872
 21
763.633527
 31
0.0
 12
-12000.0
 22
-116000.0
 32
0.0
 70
   128
 13
491.60409
 23
850.0
 33
0.0
 14
335.003464
 24
795.0
 34
0.0
 50
90.0
1001
ACAD
1000
DSTYLE
1002
{
1070
    40
1040
1.0
1002
}
  0
DIMENSION
  5
5A
  8
TEAM-MAS
  2
*D7
 10
658.971207
 20
675.0
 30
0.0
 11
658.971207
 21
762.5
 31
0.0
 12
-12000.0
 22
-116000.0
 32
0.0
 13
491.60409
 23
850.0
 33
0.0
 14
37.5
 24
675.0
 34
0.0
 50
90.0
1001
ACAD
1000
DSTYLE
1002
{
1070
    40
1040
1.0
1002
}
  0
DIMENSION
  5
68
  8
TEAM-MAS
  2
*D6
 10
738.322566
 20
850.0
 30
0.0
 11
738.322566
 21
735.0
 31
0.0
 12
-12000.0
 22
-116000.0
 32
0.0
 13
332.5
 23
620.0
 33
0.0
 14
491.60409
 24
850.0
 34
0.0
 50
90.0
1001
ACAD
1000
DSTYLE
1002
{
1070
    40
1040
1.0
1002
}
  0
DIMENSION
  5
76
  8
TEAM-MAS
  2
*D5
 10
817.70324
 20
850.0
 30
0.0
 11
817.70324
 21
680.0
 31
0.0
 12
-12000.0
 22
-116000.0
 32
0.0
 13
30.0
 23
510.0
 33
0.0
 14
568.249177
 24
850.0
 34
0.0
 50
90.0
1001
ACAD
1000
DSTYLE
1002
{
1070
    40
1040
1.0
1002
}
  0
DIMENSION
  5
84
  8
TEAM-MAS
  2
*D12
 10
307.5
 20
368.451047
 30
0.0
 11
232.5
 21
393.507332
 31
0.0
 12
-12000.0
 22
-116000.0
 32
0.0
 70
   128
 13
157.5
 23
605.0
 33
0.0
 14
307.5
 24
605.0
 34
0.0
1001
ACAD
1000
DSTYLE
1002
{
1070
    40
1040
1.0
1002
}
  0
CIRCLE
  5
92
  8
TEAM-INSP
 10
0.0
 20
0.0
 30
0.0
 40
10.0
  0
DIMENSION
  5
94
  8
TEAM-MAS
  2
*D4
 10
-140.0
 20
917.470812
 30
0.0
 11
0.0
 21
917.470812
 31
0.0
 12
-12000.0
 22
-116000.0
 32
0.0
 13
140.0
 23
795.0
 33
0.0
 14
-140.0
 24
800.0
 34
0.0
1001
ACAD
1000
DSTYLE
1002
{
1070
    40
1040
1.0
1002
}
  0
DIMENSION
  5
A2
  8
TEAM-MAS
  2
*D3
 10
232.5
 20
971.972012
 30
0.0
 11
0.0
 21
971.972012
 31
0.0
 12
-12000.0
 22
-116000.0
 32
0.0
 13
-232.5
 23
827.024161
 33
0.0
 14
232.5
 24
827.024161
 34
0.0
1001
ACAD
1000
DSTYLE
1002
{
1070
    40
1040
1.0
1002
}
  0
TEXT
  5
B0
  8
TEAM-TXT
 10
-100.812859
 20
732.549041
 30
0.0
 40
30.0
  1
team 212222
 41
0.8
 51
15.0
  7
TEAM
  0
CIRCLE
  5
B3
  8
TEAM-WARM
 10
-307.5
 20
620.0
 30
0.0
 40
12.0
  0
LINE
  5
B5
  8
TEAM-AXE
 10
-307.5
 20
620.0
 30
0.0
 11
-332.5
 21
620.0
 31
0.0
  0
LINE
  5
B8
  8
TEAM-BODY
 10
-161.736952
 20
715.0
 30
0.0
 11
-95.471951
 21
715.0
 31
0.0
  0
LINE
  5
BA
  8
TEAM-HIDE
 10
-137.016536
 20
805.0
 30
0.0
 11
-134.016536
 21
805.0
 31
0.0
  0
LINE
  5
BD
  8
TEAM-HIDE
 10
-146.016536
 20
805.0
 30
0.0
 11
-143.016536
 21
805.0
 31
0.0
  0
LINE
  5
BE
  8
TEAM-HIDE
 10
-137.016536
 20
785.0
 30
0.0
 11
-134.016536
 21
785.0
 31
0.0
  0
LINE
  5
BF
  8
TEAM-HIDE
 10
-146.016536
 20
785.0
 30
0.0
 11
-143.016536
 21
785.0
 31
0.0
  0
ARC
  5
C0
  8
TEAM-HIDE
 10
-146.016536
 20
795.0
 30
0.0
 40
10.0
 50
90.0
 51
270.0
  0
LINE
  5
C1
  8
TEAM-AXE
 10
-140.016536
 20
795.0
 30
0.0
 11
-120.016536
 21
795.0
 31
0.0
  0
ARC
  5
C2
  8
TEAM-HIDE
 10
-134.016536
 20
795.0
 30
0.0
 40
10.0
 50
270.0
 51
90.0
  0
LINE
  5
C3
  8
TEAM-AXE
 10
-140.016536
 20
795.0
 30
0.0
 11
-140.016536
 21
815.0
 31
0.0
  0
LINE
  5
C4
  8
TEAM-AXE
 10
-140.016536
 20
795.0
 30
0.0
 11
-160.016536
 21
795.0
 31
0.0
  0
LINE
  5
C5
  8
TEAM-AXE
 10
-140.016536
 20
795.0
 30
0.0
 11
-140.016536
 21
775.0
 31
0.0
  0
LINE
  5
C6
  8
TEAM-HIDE
 10
-311.996536
 20
805.0
 30
0.0
 11
-308.996536
 21
805.0
 31
0.0
  0
LINE
  5
C7
  8
TEAM-HIDE
 10
-320.996536
 20
805.0
 30
0.0
 11
-317.996536
 21
805.0
 31
0.0
  0
LINE
  5
C8
  8
TEAM-HIDE
 10
-311.996536
 20
785.0
 30
0.0
 11
-308.996536
 21
785.0
 31
0.0
  0
LINE
  5
C9
  8
TEAM-HIDE
 10
-320.996536
 20
785.0
 30
0.0
 11
-317.996536
 21
785.0
 31
0.0
  0
ARC
  5
CA
  8
TEAM-HIDE
 10
-320.996536
 20
795.0
 30
0.0
 40
10.0
 50
90.0
 51
270.0
  0
LINE
  5
CB
  8
TEAM-AXE
 10
-314.996536
 20
795.0
 30
0.0
 11
-294.996536
 21
795.0
 31
0.0
  0
ARC
  5
CC
  8
TEAM-HIDE
 10
-308.996536
 20
795.0
 30
0.0
 40
10.0
 50
270.0
 51
90.0
  0
LINE
  5
CD
  8
TEAM-AXE
 10
-314.996536
 20
795.0
 30
0.0
 11
-314.996536
 21
815.0
 31
0.0
  0
LINE
  5
CE
  8
TEAM-AXE
 10
-314.996536
 20
795.0
 30
0.0
 11
-334.996536
 21
795.0
 31
0.0
  0
LINE
  5
CF
  8
TEAM-AXE
 10
-314.996536
 20
795.0
 30
0.0
 11
-314.996536
 21
775.0
 31
0.0
  0
LINE
  5
D0
  8
TEAM-HIDE
 10
318.003464
 20
805.0
 30
0.0
 11
321.003464
 21
805.0
 31
0.0
  0
LINE
  5
D1
  8
TEAM-HIDE
 10
309.003464
 20
805.0
 30
0.0
 11
312.003464
 21
805.0
 31
0.0
  0
LINE
  5
D2
  8
TEAM-HIDE
 10
318.003464
 20
785.0
 30
0.0
 11
321.003464
 21
785.0
 31
0.0
  0
LINE
  5
D3
  8
TEAM-HIDE
 10
309.003464
 20
785.0
 30
0.0
 11
312.003464
 21
785.0
 31
0.0
  0
ARC
  5
D4
  8
TEAM-HIDE
 10
309.003464
 20
795.0
 30
0.0
 40
10.0
 50
90.0
 51
270.0
  0
LINE
  5
D5
  8
TEAM-AXE
 10
315.003464
 20
795.0
 30
0.0
 11
335.003464
 21
795.0
 31
0.0
  0
ARC
  5
D6
  8
TEAM-HIDE
 10
321.003464
 20
795.0
 30
0.0
 40
10.0
 50
270.0
 51
90.0
  0
LINE
  5
D7
  8
TEAM-AXE
 10
315.003464
 20
795.0
 30
0.0
 11
315.003464
 21
815.0
 31
0.0
  0
LINE
  5
D8
  8
TEAM-AXE
 10
315.003464
 20
795.0
 30
0.0
 11
295.003464
 21
795.0
 31
0.0
  0
LINE
  5
D9
  8
TEAM-AXE
 10
315.003464
 20
795.0
 30
0.0
 11
315.003464
 21
775.0
 31
0.0
  0
POLYLINE
  5
DA
  8
TEAM-AXE
 66
     1
 10
0.0
 20
0.0
 30
0.0
  0
VERTEX
  5
21C
  8
TEAM-AXE
 10
-0.016536
 20
750.663628
 30
0.0
  0
VERTEX
  5
21D
  8
TEAM-AXE
 10
-0.016536
 20
648.776997
 30
0.0
  0
SEQEND
  5
21E
  8
TEAM-AXE
  0
LINE
  5
DB
  8
TEAM-BODY
 10
-49.971938
 20
715.0
 30
0.0
 11
49.938865
 21
715.0
 31
0.0
  0
LINE
  5
DC
  8
TEAM-AXE
 10
0.0
 20
687.914932
 30
0.0
 11
0.0
 21
850.0
 31
0.0
  0
LINE
  5
DD
  8
TEAM-AXE
 10
-157.5
 20
620.0
 30
0.0
 11
-157.5
 21
595.0
 31
0.0
  0
LINE
  5
DE
  8
TEAM-AXE
 10
-157.5
 20
620.0
 30
0.0
 11
-182.5
 21
620.0
 31
0.0
  0
LINE
  5
DF
  8
TEAM-AXE
 10
-157.5
 20
620.0
 30
0.0
 11
-157.5
 21
645.0
 31
0.0
  0
CIRCLE
  5
E0
  8
TEAM-COLD
 10
-157.5
 20
620.0
 30
0.0
 40
12.0
  0
LINE
  5
E2
  8
TEAM-AXE
 10
-157.5
 20
620.0
 30
0.0
 11
-132.5
 21
620.0
 31
0.0
  0
LINE
  5
E3
  8
TEAM-AXE
 10
-307.5
 20
620.0
 30
0.0
 11
-307.5
 21
595.0
 31
0.0
  0
LINE
  5
E4
  8
TEAM-AXE
 10
-307.5
 20
620.0
 30
0.0
 11
-307.5
 21
645.0
 31
0.0
  0
CIRCLE
  5
E5
  8
TEAM-KAN
 10
0.0
 20
510.0
 30
0.0
 40
20.0
  0
LINE
  5
E7
  8
TEAM-AXE
 10
0.0
 20
510.0
 30
0.0
 11
30.0
 21
510.0
 31
0.0
  0
LINE
  5
E8
  8
TEAM-AXE
 10
0.0
 20
510.0
 30
0.0
 11
0.0
 21
535.0
 31
0.0
  0
LINE
  5
E9
  8
TEAM-AXE
 10
0.0
 20
510.0
 30
0.0
 11
-30.0
 21
510.0
 31
0.0
  0
LINE
  5
EA
  8
TEAM-AXE
 10
0.0
 20
510.0
 30
0.0
 11
0.0
 21
480.0
 31
0.0
  0
LINE
  5
EB
  8
TEAM-AXE
 10
-307.5
 20
620.0
 30
0.0
 11
-282.5
 21
620.0
 31
0.0
  0
LINE
  5
EC
  8
TEAM-HIDE
 10
142.983464
 20
805.0
 30
0.0
 11
145.983464
 21
805.0
 31
0.0
  0
LINE
  5
ED
  8
TEAM-HIDE
 10
133.983464
 20
805.0
 30
0.0
 11
136.983464
 21
805.0
 31
0.0
  0
LINE
  5
EE
  8
TEAM-HIDE
 10
142.983464
 20
785.0
 30
0.0
 11
145.983464
 21
785.0
 31
0.0
  0
LINE
  5
EF
  8
TEAM-HIDE
 10
133.983464
 20
785.0
 30
0.0
 11
136.983464
 21
785.0
 31
0.0
  0
ARC
  5
F0
  8
TEAM-HIDE
 10
133.983464
 20
795.0
 30
0.0
 40
10.0
 50
90.0
 51
270.0
  0
ARC
  5
F1
  8
TEAM-HIDE
 10
145.983464
 20
795.0
 30
0.0
 40
10.0
 50
270.0
 51
90.0
  0
LINE
  5
F2
  8
TEAM-AXE
 10
139.983464
 20
795.0
 30
0.0
 11
139.983464
 21
815.0
 31
0.0
  0
LINE
  5
F3
  8
TEAM-AXE
 10
139.983464
 20
795.0
 30
0.0
 11
119.983464
 21
795.0
 31
0.0
  0
LINE
  5
F4
  8
TEAM-AXE
 10
139.983464
 20
795.0
 30
0.0
 11
139.983464
 21
775.0
 31
0.0
  0
LINE
  5
F5
  8
TEAM-BODY
 10
95.505024
 20
715.0
 30
0.0
 11
161.770025
 21
715.0
 31
0.0
  0
LINE
  5
F6
  8
TEAM-AXE
 10
139.983464
 20
795.0
 30
0.0
 11
159.983464
 21
795.0
 31
0.0
  0
POLYLINE
  5
F7
  8
TEAM-BODY
 66
     1
 10
0.0
 20
0.0
 30
0.0
 70
   129
  0
VERTEX
  5
21F
  8
TEAM-BODY
 10
500.0
 20
840.0
 30
0.0
 42
0.414214
  0
VERTEX
  5
220
  8
TEAM-BODY
 10
490.0
 20
850.0
 30
0.0
  0
VERTEX
  5
221
  8
TEAM-BODY
 10
-490.0
 20
850.0
 30
0.0
 42
0.414214
  0
VERTEX
  5
222
  8
TEAM-BODY
 10
-500.0
 20
840.0
 30
0.0
  0
VERTEX
  5
223
  8
TEAM-BODY
 10
-500.0
 20
725.0
 30
0.0
 42
0.414214
  0
VERTEX
  5
224
  8
TEAM-BODY
 10
-490.0
 20
715.0
 30
0.0
  0
VERTEX
  5
225
  8
TEAM-BODY
 10
-161.736952
 20
715.0
 30
0.0
 42
0.107719
  0
VERTEX
  5
226
  8
TEAM-BODY
 10
-108.625978
 20
698.030269
 30
0.0
 42
0.304269
  0
VERTEX
  5
227
  8
TEAM-BODY
 10
-98.829331
 20
703.332512
 30
0.0
 42
0.102248
  0
VERTEX
  5
228
  8
TEAM-BODY
 10
-95.471951
 20
715.0
 30
0.0
  0
VERTEX
  5
229
  8
TEAM-BODY
 10
-49.971938
 20
715.0
 30
0.0
 42
-0.372902
  0
VERTEX
  5
22A
  8
TEAM-BODY
 10
-45.023028
 20
710.712944
 30
0.0
  0
VERTEX
  5
22B
  8
TEAM-BODY
 10
-39.87819
 20
675.0
 30
0.0
  0
VERTEX
  5
22C
  8
TEAM-BODY
 10
39.845117
 20
675.0
 30
0.0
  0
VERTEX
  5
22D
  8
TEAM-BODY
 10
44.989955
 20
710.712944
 30
0.0
 42
-0.372902
  0
VERTEX
  5
22E
  8
TEAM-BODY
 10
49.938865
 20
715.0
 30
0.0
  0
VERTEX
  5
22F
  8
TEAM-BODY
 10
95.505024
 20
715.0
 30
0.0
 42
0.102248
  0
VERTEX
  5
230
  8
TEAM-BODY
 10
98.862404
 20
703.332512
 30
0.0
 42
0.304269
  0
VERTEX
  5
231
  8
TEAM-BODY
 10
108.65905
 20
698.030269
 30
0.0
 42
0.107719
  0
VERTEX
  5
232
  8
TEAM-BODY
 10
161.770025
 20
715.0
 30
0.0
  0
VERTEX
  5
233
  8
TEAM-BODY
 10
489.299872
 20
715.0
 30
0.0
 42
0.394544
  0
VERTEX
  5
234
  8
TEAM-BODY
 10
500.0
 20
725.0
 30
0.0
  0
SEQEND
  5
235
  8
TEAM-BODY
  0
DIMENSION
  5
F8
  8
TEAM-MAS
  2
*D2
 10
157.5
 20
368.451047
 30
0.0
 11
0.0
 21
368.451047
 31
0.0
 12
-12000.0
 22
-116000.0
 32
0.0
 13
-157.5
 23
595.0
 33
0.0
 14
157.5
 24
595.0
 34
0.0
1001
ACAD
1000
DSTYLE
1002
{
1070
    40
1040
1.0
1002
}
  0
LINE
  5
106
  8
TEAM-AXE
 10
-232.5
 20
827.024161
 30
0.0
 11
-232.5
 21
766.11252
 31
0.0
  0
LINE
  5
107
  8
TEAM-AXE
 10
232.5
 20
827.024161
 30
0.0
 11
232.5
 21
766.11252
 31
0.0
  0
LINE
  5
108
  8
TEAM-AXE
 10
157.5
 20
620.0
 30
0.0
 11
182.5
 21
620.0
 31
0.0
  0
LINE
  5
109
  8
TEAM-AXE
 10
157.5
 20
620.0
 30
0.0
 11
157.5
 21
645.0
 31
0.0
  0
LINE
  5
10A
  8
TEAM-AXE
 10
157.5
 20
620.0
 30
0.0
 11
157.5
 21
595.0
 31
0.0
  0
LINE
  5
10B
  8
TEAM-AXE
 10
307.5
 20
620.0
 30
0.0
 11
332.5
 21
620.0
 31
0.0
  0
CIRCLE
  5
10C
  8
TEAM-COLD
 10
307.5
 20
620.0
 30
0.0
 40
12.0
  0
LINE
  5
10D
  8
TEAM-AXE
 10
307.5
 20
620.0
 30
0.0
 11
307.5
 21
645.0
 31
0.0
  0
LINE
  5
10E
  8
TEAM-AXE
 10
307.5
 20
620.0
 30
0.0
 11
282.5
 21
620.0
 31
0.0
  0
LINE
  5
10F
  8
TEAM-AXE
 10
307.5
 20
620.0
 30
0.0
 11
307.5
 21
595.0
 31
0.0
  0
LINE
  5
110
  8
TEAM-AXE
 10
157.5
 20
620.0
 30
0.0
 11
132.5
 21
620.0
 31
0.0
  0
CIRCLE
  5
111
  8
TEAM-WARM
 10
157.5
 20
620.0
 30
0.0
 40
12.0
  0
DIMENSION
  5
112
  8
TEAM-MAS
  2
*D1
 10
-157.5
 20
368.451047
 30
0.0
 11
-232.5
 21
393.507332
 31
0.0
 12
-12000.0
 22
-116000.0
 32
0.0
 70
   128
 13
-307.5
 23
605.0
 33
0.0
 14
-157.5
 24
605.0
 34
0.0
1001
ACAD
1000
DSTYLE
1002
{
1070
    40
1040
1.0
1002
}
  0
DIMENSION
  5
120
  8
TEAM-MAS
  2
*D0
 10
315.003464
 20
1028.426627
 30
0.0
 11
0.003464
 21
1028.426627
 31
0.0
 12
-12000.0
 22
-116000.0
 32
0.0
 13
-314.996536
 23
815.0
 33
0.0
 14
315.003464
 24
815.0
 34
0.0
1001
ACAD
1000
DSTYLE
1002
{
1070
    40
1040
1.0
1002
}
  0
ENDSEC
  0
EOF
