  0
SECTION
  2
HEADER
  9
$ACADVER
  1
AC1009
  9
$INSBASE
 10
0.0
 20
0.0
 30
0.0
  9
$EXTMIN
 10
-567.934305
 20
-541.276754
 30
-0.000002
  9
$EXTMAX
 10
574.383154
 20
40.034481
 30
0.000003
  9
$LIMMIN
 10
-567.934305
 20
-541.276754
  9
$LIMMAX
 10
574.383154
 20
40.034481
  9
$ORTHOMODE
 70
     0
  9
$REGENMODE
 70
     1
  9
$FILLMODE
 70
     1
  9
$QTEXTMODE
 70
     0
  9
$MIRRTEXT
 70
     0
  9
$DRAGMODE
 70
     2
  9
$LTSCALE
 40
25.0
  9
$OSMODE
 70
     0
  9
$ATTMODE
 70
     1
  9
$TEXTSIZE
 40
200.0
  9
$TRACEWID
 40
1.0
  9
$TEXTSTYLE
  7
STANDARD
  9
$CLAYER
  8
TEAM-MAS
  9
$CELTYPE
  6
BYLAYER
  9
$CECOLOR
 62
   256
  9
$DIMSCALE
 40
0.0
  9
$DIMASZ
 40
20.0
  9
$DIMEXO
 40
10.0
  9
$DIMDLI
 40
1.0
  9
$DIMRND
 40
0.0
  9
$DIMDLE
 40
0.0
  9
$DIMEXE
 40
1.0
  9
$DIMTP
 40
0.0
  9
$DIMTM
 40
0.0
  9
$DIMTXT
 40
35.0
  9
$DIMCEN
 40
1.0
  9
$DIMTSZ
 40
0.0
  9
$DIMTOL
 70
     0
  9
$DIMLIM
 70
     0
  9
$DIMTIH
 70
     0
  9
$DIMTOH
 70
     0
  9
$DIMSE1
 70
     0
  9
$DIMSE2
 70
     0
  9
$DIMTAD
 70
     0
  9
$DIMZIN
 70
     0
  9
$DIMBLK
  1

  9
$DIMASO
 70
     1
  9
$DIMSHO
 70
     0
  9
$DIMPOST
  1

  9
$DIMAPOST
  1

  9
$DIMALT
 70
     0
  9
$DIMALTD
 70
     2
  9
$DIMALTF
 40
25.4
  9
$DIMLFAC
 40
1.0
  9
$DIMTOFL
 70
     0
  9
$DIMTVP
 40
0.0
  9
$DIMTIX
 70
     0
  9
$DIMSOXD
 70
     0
  9
$DIMSAH
 70
     0
  9
$DIMBLK1
  1

  9
$DIMBLK2
  1

  9
$DIMSTYLE
  2
TEAM
  9
$DIMCLRD
 70
     9
  9
$DIMCLRE
 70
     9
  9
$DIMCLRT
 70
    11
  9
$DIMTFAC
 40
1.0
  9
$DIMGAP
 40
15.0
  9
$LUNITS
 70
     2
  9
$LUPREC
 70
     1
  9
$SKETCHINC
 40
1.0
  9
$FILLETRAD
 40
20.0
  9
$AUNITS
 70
     0
  9
$AUPREC
 70
     0
  9
$MENU
  1
ROPLANS
  9
$ELEVATION
 40
0.0
  9
$PELEVATION
 40
0.0
  9
$THICKNESS
 40
0.0
  9
$LIMCHECK
 70
     0
  9
$BLIPMODE
 70
     1
  9
$CHAMFERA
 40
0.0
  9
$CHAMFERB
 40
0.0
  9
$SKPOLY
 70
     0
  9
$TDCREATE
 40
2450392.957851
  9
$TDUPDATE
 40
2455551.693537
  9
$TDINDWG
 40
2.106856
  9
$TDUSRTIMER
 40
2.106856
  9
$USRTIMER
 70
     1
  9
$ANGBASE
 50
0.0
  9
$ANGDIR
 70
     0
  9
$PDMODE
 70
     0
  9
$PDSIZE
 40
0.0
  9
$PLINEWID
 40
0.0
  9
$COORDS
 70
     2
  9
$SPLFRAME
 70
     0
  9
$SPLINETYPE
 70
     6
  9
$SPLINESEGS
 70
     8
  9
$ATTDIA
 70
     0
  9
$ATTREQ
 70
     0
  9
$HANDLING
 70
     1
  9
$HANDSEED
  5
B9
  9
$SURFTAB1
 70
    48
  9
$SURFTAB2
 70
    48
  9
$SURFTYPE
 70
     6
  9
$SURFU
 70
     6
  9
$SURFV
 70
     6
  9
$UCSNAME
  2

  9
$UCSORG
 10
0.0
 20
0.0
 30
0.0
  9
$UCSXDIR
 10
1.0
 20
0.0
 30
0.0
  9
$UCSYDIR
 10
0.0
 20
1.0
 30
0.0
  9
$PUCSNAME
  2

  9
$PUCSORG
 10
0.0
 20
0.0
 30
0.0
  9
$PUCSXDIR
 10
1.0
 20
0.0
 30
0.0
  9
$PUCSYDIR
 10
0.0
 20
1.0
 30
0.0
  9
$USERI1
 70
     0
  9
$USERI2
 70
     0
  9
$USERI3
 70
     0
  9
$USERI4
 70
     0
  9
$USERI5
 70
     0
  9
$USERR1
 40
0.0
  9
$USERR2
 40
0.0
  9
$USERR3
 40
0.0
  9
$USERR4
 40
0.0
  9
$USERR5
 40
0.0
  9
$WORLDVIEW
 70
     1
  9
$SHADEDGE
 70
     0
  9
$SHADEDIF
 70
    70
  9
$TILEMODE
 70
     1
  9
$MAXACTVP
 70
    16
  9
$PLIMCHECK
 70
     0
  9
$PEXTMIN
 10
-0.805942
 20
0.005011
 30
0.0
  9
$PEXTMAX
 10
20.250094
 20
11.356329
 30
0.0
  9
$PLIMMIN
 10
0.0
 20
0.0
  9
$PLIMMAX
 10
12.0
 20
9.0
  9
$UNITMODE
 70
     0
  9
$VISRETAIN
 70
     0
  9
$PLINEGEN
 70
     0
  9
$PSLTSCALE
 70
     0
  0
ENDSEC
  0
SECTION
  2
TABLES
  0
TABLE
  2
VPORT
 70
     2
  0
VPORT
  2
*ACTIVE
 70
     0
 10
0.0
 20
0.0
 11
1.0
 21
1.0
 12
3.224425
 22
-250.621136
 13
0.0
 23
0.0
 14
1.0
 24
1.0
 15
50.0
 25
50.0
 16
0.0
 26
0.0
 36
1.0
 17
0.0
 27
0.0
 37
0.0
 40
614.262252
 41
1.865779
 42
50.0
 43
0.0
 44
0.0
 50
0.0
 51
0.0
 71
     0
 72
   100
 73
     1
 74
     1
 75
     0
 76
     0
 77
     0
 78
     0
  0
ENDTAB
  0
TABLE
  2
LTYPE
 70
     2
  0
LTYPE
  2
CONTINUOUS
 70
     0
  3
Solid Line
 72
    65
 73
     0
 40
0.0
  0
LTYPE
  2
31
 70
     0
  3

 72
    65
 73
     4
 40
2.1
 49
1.5
 49
-0.3
 49
0.0
 49
-0.3
  0
ENDTAB
  0
TABLE
  2
LAYER
 70
     9
  0
LAYER
  2
0
 70
     0
 62
     7
  6
CONTINUOUS
  0
LAYER
  2
DEFPOINTS
 70
     0
 62
     7
  6
CONTINUOUS
  0
LAYER
  2
TEAM-BODY
 70
     0
 62
     2
  6
CONTINUOUS
  0
LAYER
  2
TEAM-AXE
 70
     0
 62
    10
  6
31
  0
LAYER
  2
TEAM-MAS
 70
     0
 62
     9
  6
CONTINUOUS
  0
LAYER
  2
TEAM-TXT
 70
     0
 62
    11
  6
CONTINUOUS
  0
LAYER
  2
TEAM-DET1
 70
     0
 62
     4
  6
CONTINUOUS
  0
LAYER
  2
TEAM-KAN
 70
     0
 62
     6
  6
CONTINUOUS
  0
LAYER
  2
TEAM-INSP
 70
     0
 62
     5
  6
CONTINUOUS
  0
ENDTAB
  0
TABLE
  2
STYLE
 70
     2
  0
STYLE
  2
STANDARD
 70
     0
 40
0.0
 41
1.0
 50
0.0
 71
     0
 42
200.0
  3
txt
  4

  0
STYLE
  2
TEAM
 70
     0
 40
0.0
 41
0.8
 50
15.0
 71
     0
 42
7.0
  3
ROMANS.shx
  4

  0
ENDTAB
  0
TABLE
  2
VIEW
 70
     0
  0
ENDTAB
  0
TABLE
  2
UCS
 70
     0
  0
ENDTAB
  0
TABLE
  2
APPID
 70
     1
  0
APPID
  2
ACAD
 70
     0
  0
ENDTAB
  0
TABLE
  2
DIMSTYLE
 70
     1
  0
DIMSTYLE
  2
TEAM
 70
     0
  3

  4

  5

  6

  7

 40
0.0
 41
20.0
 42
10.0
 43
1.0
 44
1.0
 45
0.0
 46
0.0
 47
0.0
 48
0.0
140
35.0
141
1.0
142
0.0
143
25.4
144
1.0
145
0.0
146
1.0
147
15.0
 71
     0
 72
     0
 73
     0
 74
     0
 75
     0
 76
     0
 77
     0
 78
     0
170
     0
171
     2
172
     0
173
     0
174
     0
175
     0
176
     9
177
     9
178
    11
  0
ENDTAB
  0
ENDSEC
  0
SECTION
  2
BLOCKS
  0
BLOCK
  8
0
  2
$MODEL_SPACE
 70
     0
 10
0.0
 20
0.0
 30
0.0
  3
$MODEL_SPACE
  1

  0
ENDBLK
  5
A9
  8
0
  0
BLOCK
 67
     1
  8
0
  2
$PAPER_SPACE
 70
     0
 10
0.0
 20
0.0
 30
0.0
  3
$PAPER_SPACE
  1

  0
ENDBLK
  5
A7
 67
     1
  8
0
  0
BLOCK
  8
0
  2
*D0
 70
     1
 10
0.0
 20
0.0
 30
0.0
  3
*D0
  1

  0
LINE
  5
33
  8
0
  6
BYBLOCK
 62
     9
 10
3475.0
 20
139513.003129
 30
0.0
 11
3475.0
 21
139474.96387
 31
0.0
  0
LINE
  5
34
  8
0
  6
BYBLOCK
 62
     9
 10
4525.0
 20
139513.003129
 30
0.0
 11
4525.0
 21
139474.96387
 31
0.0
  0
LINE
  5
35
  8
0
  6
BYBLOCK
 62
     9
 10
3495.0
 20
139475.96387
 30
0.0
 11
3914.98622
 21
139475.96387
 31
0.0
  0
LINE
  5
36
  8
0
  6
BYBLOCK
 62
     9
 10
4505.0
 20
139475.96387
 30
0.0
 11
4085.01378
 21
139475.96387
 31
0.0
  0
SOLID
  5
37
  8
0
  6
BYBLOCK
 62
     9
 10
3495.0
 20
139479.297203
 30
0.0
 11
3495.0
 21
139472.630537
 31
0.0
 12
3475.0
 22
139475.96387
 32
0.0
 13
3475.0
 23
139475.96387
 33
0.0
  0
SOLID
  5
38
  8
0
  6
BYBLOCK
 62
     9
 10
4505.0
 20
139479.297203
 30
0.0
 11
4505.0
 21
139472.630537
 31
0.0
 12
4525.0
 22
139475.96387
 32
0.0
 13
4525.0
 23
139475.96387
 33
0.0
  0
TEXT
  5
39
  8
0
  6
BYBLOCK
 62
    11
 10
3924.73622
 20
139458.46387
 30
0.0
 40
35.0
  1
1050.00
  0
POINT
  5
3A
  8
DEFPOINTS
  6
BYBLOCK
 62
     0
 10
3475.0
 20
139523.003129
 30
0.0
  0
POINT
  5
3B
  8
DEFPOINTS
  6
BYBLOCK
 62
     0
 10
4525.0
 20
139523.003129
 30
0.0
  0
POINT
  5
3C
  8
DEFPOINTS
  6
BYBLOCK
 62
     0
 10
4525.0
 20
139475.96387
 30
0.0
  0
ENDBLK
  5
3E
  8
0
  0
BLOCK
  8
0
  2
*D1
 70
     1
 10
0.0
 20
0.0
 30
0.0
  3
*D1
  1

  0
LINE
  5
59
  8
0
  6
BYBLOCK
 62
     9
 10
4530.0
 20
140000.0
 30
0.0
 11
4557.90542
 21
140000.0
 31
0.0
  0
LINE
  5
5A
  8
0
  6
BYBLOCK
 62
     9
 10
4010.0
 20
139510.0
 30
0.0
 11
4557.90542
 21
139510.0
 31
0.0
  0
LINE
  5
5B
  8
0
  6
BYBLOCK
 62
     9
 10
4556.90542
 20
139980.0
 30
0.0
 11
4556.90542
 21
139833.07493
 31
0.0
  0
LINE
  5
5C
  8
0
  6
BYBLOCK
 62
     9
 10
4556.90542
 20
139530.0
 30
0.0
 11
4556.90542
 21
139676.92507
 31
0.0
  0
SOLID
  5
5D
  8
0
  6
BYBLOCK
 62
     9
 10
4553.572087
 20
139980.0
 30
0.0
 11
4560.238754
 21
139980.0
 31
0.0
 12
4556.90542
 22
140000.0
 32
0.0
 13
4556.90542
 23
140000.0
 33
0.0
  0
SOLID
  5
5E
  8
0
  6
BYBLOCK
 62
     9
 10
4553.572087
 20
139530.0
 30
0.0
 11
4560.238754
 21
139530.0
 31
0.0
 12
4556.90542
 22
139510.0
 32
0.0
 13
4556.90542
 23
139510.0
 33
0.0
  0
TEXT
  5
5F
  8
0
  6
BYBLOCK
 62
    11
 10
4574.40542
 20
139686.67507
 30
0.0
 40
35.0
  1
490.00
 50
90.0
  0
POINT
  5
60
  8
DEFPOINTS
  6
BYBLOCK
 62
     0
 10
4520.0
 20
140000.0
 30
0.0
  0
POINT
  5
61
  8
DEFPOINTS
  6
BYBLOCK
 62
     0
 10
4000.0
 20
139510.0
 30
0.0
  0
POINT
  5
62
  8
DEFPOINTS
  6
BYBLOCK
 62
     0
 10
4556.90542
 20
139510.0
 30
0.0
  0
ENDBLK
  5
64
  8
0
  0
BLOCK
  8
0
  2
*D2
 70
     1
 10
0.0
 20
0.0
 30
0.0
  3
*D2
  1

  0
LINE
  5
22
  8
0
  6
BYBLOCK
 62
     9
 10
3990.0
 20
140000.0
 30
0.0
 11
3446.87176
 21
140000.0
 31
0.0
  0
LINE
  5
23
  8
0
  6
BYBLOCK
 62
     9
 10
3990.0
 20
139810.0
 30
0.0
 11
3446.87176
 21
139810.0
 31
0.0
  0
LINE
  5
24
  8
0
  6
BYBLOCK
 62
     9
 10
3447.87176
 20
140020.0
 30
0.0
 11
3447.87176
 21
140040.0
 31
0.0
  0
LINE
  5
25
  8
0
  6
BYBLOCK
 62
     9
 10
3447.87176
 20
139790.0
 30
0.0
 11
3447.87176
 21
139770.0
 31
0.0
  0
SOLID
  5
26
  8
0
  6
BYBLOCK
 62
     9
 10
3444.538426
 20
140020.0
 30
0.0
 11
3451.205093
 21
140020.0
 31
0.0
 12
3447.87176
 22
140000.0
 32
0.0
 13
3447.87176
 23
140000.0
 33
0.0
  0
SOLID
  5
27
  8
0
  6
BYBLOCK
 62
     9
 10
3444.538426
 20
139790.0
 30
0.0
 11
3451.205093
 21
139790.0
 31
0.0
 12
3447.87176
 22
139810.0
 32
0.0
 13
3447.87176
 23
139810.0
 33
0.0
  0
TEXT
  5
28
  8
0
  6
BYBLOCK
 62
    11
 10
3465.37176
 20
139841.92507
 30
0.0
 40
35.0
  1
190.00
 50
90.0
  0
POINT
  5
29
  8
DEFPOINTS
  6
BYBLOCK
 62
     0
 10
4000.0
 20
140000.0
 30
0.0
  0
POINT
  5
2B
  8
DEFPOINTS
  6
BYBLOCK
 62
     0
 10
4000.0
 20
139810.0
 30
0.0
  0
POINT
  5
2C
  8
DEFPOINTS
  6
BYBLOCK
 62
     0
 10
3447.87176
 20
139810.0
 30
0.0
  0
ENDBLK
  5
2E
  8
0
  0
ENDSEC
  0
SECTION
  2
ENTITIES
  0
DIMENSION
  5
20
  8
TEAM-MAS
  2
*D2
 10
-552.12824
 20
-190.0
 30
0.0
 11
-552.12824
 21
-95.0
 31
0.0
 12
-4000.0
 22
-140000.0
 32
0.0
 13
0.0
 23
0.0
 33
0.0
 14
0.0
 24
-190.0
 34
0.0
 50
90.0
1001
ACAD
1000
DSTYLE
1002
{
1070
    40
1040
1.0
1002
}
  0
POLYLINE
  5
2F
  8
TEAM-BODY
 66
     1
 10
0.0
 20
0.0
 30
0.0
 70
   129
  0
VERTEX
  5
AF
  8
TEAM-BODY
 10
525.0
 20
-5.0
 30
0.0
 42
0.414214
  0
VERTEX
  5
B0
  8
TEAM-BODY
 10
520.0
 20
0.0
 30
0.0
  0
VERTEX
  5
B1
  8
TEAM-BODY
 10
-520.0
 20
0.0
 30
0.0
 42
0.414214
  0
VERTEX
  5
B2
  8
TEAM-BODY
 10
-525.0
 20
-5.0
 30
0.0
  0
VERTEX
  5
B3
  8
TEAM-BODY
 10
-525.0
 20
-476.996871
 30
0.0
 42
0.406903
  0
VERTEX
  5
B4
  8
TEAM-BODY
 10
-515.250222
 20
-486.99374
 30
0.0
 42
0.005835
  0
VERTEX
  5
B5
  8
TEAM-BODY
 10
515.250222
 20
-486.99374
 30
0.0
 42
0.406903
  0
VERTEX
  5
B6
  8
TEAM-BODY
 10
525.0
 20
-476.996871
 30
0.0
  0
SEQEND
  5
B7
  8
TEAM-BODY
  0
DIMENSION
  5
31
  8
TEAM-MAS
  2
*D0
 10
525.0
 20
-524.03613
 30
0.0
 11
0.0
 21
-524.03613
 31
0.0
 12
-4000.0
 22
-140000.0
 32
0.0
 13
-525.0
 23
-476.996871
 33
0.0
 14
525.0
 24
-476.996871
 34
0.0
1001
ACAD
1000
DSTYLE
1002
{
1070
    40
1040
1.0
1002
}
  0
TEXT
  5
3F
  8
TEAM-TXT
 10
-91.544186
 20
-419.207707
 30
0.0
 40
24.999999
  1
team 212224
 41
0.8
 51
15.0
  7
TEAM
  0
CIRCLE
  5
42
  8
TEAM-INSP
 10
0.0
 20
0.0
 30
0.0
 40
10.0
  0
LINE
  5
44
  8
TEAM-BODY
 10
-265.0
 20
-450.746571
 30
0.0
 11
265.0
 21
-450.746571
 31
0.0
  0
LINE
  5
45
  8
TEAM-BODY
 10
-275.0
 20
-135.0
 30
0.0
 11
-275.0
 21
-440.746571
 31
0.0
  0
ARC
  5
46
  8
TEAM-BODY
 10
-265.0
 20
-440.746571
 30
0.0
 40
10.0
 50
180.0
 51
270.0
  0
CIRCLE
  5
47
  8
TEAM-DET1
 10
0.0
 20
-190.0
 30
0.0
 40
37.5
  0
LINE
  5
49
  8
TEAM-AXE
 10
-50.731992
 20
-190.0
 30
0.0
 11
49.261078
 21
-190.0
 31
0.0
  0
LINE
  5
4C
  8
TEAM-AXE
 10
0.0
 20
-140.738922
 30
0.0
 11
0.0
 21
-239.261078
 31
0.0
  0
CIRCLE
  5
4D
  8
TEAM-KAN
 10
0.0
 20
-190.0
 30
0.0
 40
26.0
  0
LINE
  5
4F
  8
TEAM-AXE
 10
26.0
 20
-62.5
 30
0.0
 11
-26.0
 21
-62.5
 31
0.0
  0
LINE
  5
50
  8
TEAM-AXE
 10
0.0
 20
-88.5
 30
0.0
 11
0.0
 21
-36.5
 31
0.0
  0
LINE
  5
51
  8
TEAM-BODY
 10
275.0
 20
-135.0
 30
0.0
 11
275.0
 21
-440.746571
 31
0.0
  0
ARC
  5
52
  8
TEAM-BODY
 10
265.0
 20
-440.746571
 30
0.0
 40
10.0
 50
270.0
 51
0.0
  0
LINE
  5
53
  8
TEAM-BODY
 10
265.0
 20
-125.0
 30
0.0
 11
-265.0
 21
-125.0
 31
0.0
  0
ARC
  5
54
  8
TEAM-BODY
 10
-265.0
 20
-135.0
 30
0.0
 40
10.0
 50
90.0
 51
180.0
  0
ARC
  5
55
  8
TEAM-BODY
 10
265.0
 20
-135.0
 30
0.0
 40
10.0
 50
0.0
 51
90.0
  0
CIRCLE
  5
56
  8
TEAM-DET1
 10
0.0
 20
-62.5
 30
0.0
 40
17.5
  0
DIMENSION
  5
57
  8
TEAM-MAS
  2
*D1
 10
556.90542
 20
-490.0
 30
0.0
 11
556.90542
 21
-245.0
 31
0.0
 12
-4000.0
 22
-140000.0
 32
0.0
 13
520.0
 23
0.0
 33
0.0
 14
0.0
 24
-490.0
 34
0.0
 50
270.0
1001
ACAD
1000
DSTYLE
1002
{
1070
    40
1040
1.0
1002
}
  0
ENDSEC
  0
EOF
