  0
SECTION
  2
HEADER
  9
$ACADVER
  1
AC1009
  9
$INSBASE
 10
0.0
 20
0.0
 30
0.0
  9
$EXTMIN
 10
-527.114528
 20
-10.001041
 30
-0.000002
  9
$EXTMAX
 10
747.772158
 20
970.531444
 30
0.000003
  9
$LIMMIN
 10
-527.114528
 20
-10.001041
  9
$LIMMAX
 10
747.772158
 20
970.531444
  9
$ORTHOMODE
 70
     0
  9
$REGENMODE
 70
     1
  9
$FILLMODE
 70
     1
  9
$QTEXTMODE
 70
     0
  9
$MIRRTEXT
 70
     0
  9
$DRAGMODE
 70
     2
  9
$LTSCALE
 40
25.0
  9
$OSMODE
 70
     0
  9
$ATTMODE
 70
     1
  9
$TEXTSIZE
 40
200.0
  9
$TRACEWID
 40
1.0
  9
$TEXTSTYLE
  7
STANDARD
  9
$CLAYER
  8
TEAM-MAS
  9
$CELTYPE
  6
BYLAYER
  9
$CECOLOR
 62
   256
  9
$DIMSCALE
 40
0.0
  9
$DIMASZ
 40
20.0
  9
$DIMEXO
 40
10.0
  9
$DIMDLI
 40
1.0
  9
$DIMRND
 40
0.0
  9
$DIMDLE
 40
0.0
  9
$DIMEXE
 40
1.0
  9
$DIMTP
 40
0.0
  9
$DIMTM
 40
0.0
  9
$DIMTXT
 40
35.0
  9
$DIMCEN
 40
1.0
  9
$DIMTSZ
 40
0.0
  9
$DIMTOL
 70
     0
  9
$DIMLIM
 70
     0
  9
$DIMTIH
 70
     0
  9
$DIMTOH
 70
     0
  9
$DIMSE1
 70
     0
  9
$DIMSE2
 70
     0
  9
$DIMTAD
 70
     0
  9
$DIMZIN
 70
     0
  9
$DIMBLK
  1

  9
$DIMASO
 70
     1
  9
$DIMSHO
 70
     0
  9
$DIMPOST
  1

  9
$DIMAPOST
  1

  9
$DIMALT
 70
     0
  9
$DIMALTD
 70
     2
  9
$DIMALTF
 40
25.4
  9
$DIMLFAC
 40
1.0
  9
$DIMTOFL
 70
     0
  9
$DIMTVP
 40
0.0
  9
$DIMTIX
 70
     0
  9
$DIMSOXD
 70
     0
  9
$DIMSAH
 70
     0
  9
$DIMBLK1
  1

  9
$DIMBLK2
  1

  9
$DIMSTYLE
  2
TEAM
  9
$DIMCLRD
 70
     9
  9
$DIMCLRE
 70
     9
  9
$DIMCLRT
 70
    11
  9
$DIMTFAC
 40
1.0
  9
$DIMGAP
 40
15.0
  9
$LUNITS
 70
     2
  9
$LUPREC
 70
     1
  9
$SKETCHINC
 40
1.0
  9
$FILLETRAD
 40
20.0
  9
$AUNITS
 70
     0
  9
$AUPREC
 70
     0
  9
$MENU
  1
ROPLANS
  9
$ELEVATION
 40
0.0
  9
$PELEVATION
 40
0.0
  9
$THICKNESS
 40
0.0
  9
$LIMCHECK
 70
     0
  9
$BLIPMODE
 70
     1
  9
$CHAMFERA
 40
0.0
  9
$CHAMFERB
 40
0.0
  9
$SKPOLY
 70
     0
  9
$TDCREATE
 40
2450392.957851
  9
$TDUPDATE
 40
2455551.693537
  9
$TDINDWG
 40
2.106856
  9
$TDUSRTIMER
 40
2.106856
  9
$USRTIMER
 70
     1
  9
$ANGBASE
 50
0.0
  9
$ANGDIR
 70
     0
  9
$PDMODE
 70
     0
  9
$PDSIZE
 40
0.0
  9
$PLINEWID
 40
0.0
  9
$COORDS
 70
     2
  9
$SPLFRAME
 70
     0
  9
$SPLINETYPE
 70
     6
  9
$SPLINESEGS
 70
     8
  9
$ATTDIA
 70
     0
  9
$ATTREQ
 70
     0
  9
$HANDLING
 70
     1
  9
$HANDSEED
  5
1B5
  9
$SURFTAB1
 70
    48
  9
$SURFTAB2
 70
    48
  9
$SURFTYPE
 70
     6
  9
$SURFU
 70
     6
  9
$SURFV
 70
     6
  9
$UCSNAME
  2

  9
$UCSORG
 10
0.0
 20
0.0
 30
0.0
  9
$UCSXDIR
 10
1.0
 20
0.0
 30
0.0
  9
$UCSYDIR
 10
0.0
 20
1.0
 30
0.0
  9
$PUCSNAME
  2

  9
$PUCSORG
 10
0.0
 20
0.0
 30
0.0
  9
$PUCSXDIR
 10
1.0
 20
0.0
 30
0.0
  9
$PUCSYDIR
 10
0.0
 20
1.0
 30
0.0
  9
$USERI1
 70
     0
  9
$USERI2
 70
     0
  9
$USERI3
 70
     0
  9
$USERI4
 70
     0
  9
$USERI5
 70
     0
  9
$USERR1
 40
0.0
  9
$USERR2
 40
0.0
  9
$USERR3
 40
0.0
  9
$USERR4
 40
0.0
  9
$USERR5
 40
0.0
  9
$WORLDVIEW
 70
     1
  9
$SHADEDGE
 70
     0
  9
$SHADEDIF
 70
    70
  9
$TILEMODE
 70
     1
  9
$MAXACTVP
 70
    16
  9
$PLIMCHECK
 70
     0
  9
$PEXTMIN
 10
-0.805942
 20
0.005011
 30
0.0
  9
$PEXTMAX
 10
20.250094
 20
11.356329
 30
0.0
  9
$PLIMMIN
 10
0.0
 20
0.0
  9
$PLIMMAX
 10
12.0
 20
9.0
  9
$UNITMODE
 70
     0
  9
$VISRETAIN
 70
     0
  9
$PLINEGEN
 70
     0
  9
$PSLTSCALE
 70
     0
  0
ENDSEC
  0
SECTION
  2
TABLES
  0
TABLE
  2
VPORT
 70
     2
  0
VPORT
  2
*ACTIVE
 70
     0
 10
0.0
 20
0.0
 11
1.0
 21
1.0
 12
110.328815
 22
480.265201
 13
0.0
 23
0.0
 14
1.0
 24
1.0
 15
50.0
 25
50.0
 16
0.0
 26
0.0
 36
1.0
 17
0.0
 27
0.0
 37
0.0
 40
986.554178
 41
1.865779
 42
50.0
 43
0.0
 44
0.0
 50
0.0
 51
0.0
 71
     0
 72
   100
 73
     1
 74
     1
 75
     0
 76
     0
 77
     0
 78
     0
  0
ENDTAB
  0
TABLE
  2
LTYPE
 70
     3
  0
LTYPE
  2
CONTINUOUS
 70
     0
  3
Solid Line
 72
    65
 73
     0
 40
0.0
  0
LTYPE
  2
31
 70
     0
  3

 72
    65
 73
     4
 40
2.1
 49
1.5
 49
-0.3
 49
0.0
 49
-0.3
  0
LTYPE
  2
22
 70
     0
  3

 72
    65
 73
     2
 40
1.4
 49
1.2
 49
-0.2
  0
ENDTAB
  0
TABLE
  2
LAYER
 70
    11
  0
LAYER
  2
0
 70
     0
 62
     7
  6
CONTINUOUS
  0
LAYER
  2
DEFPOINTS
 70
     0
 62
     7
  6
CONTINUOUS
  0
LAYER
  2
TEAM-BODY
 70
     0
 62
     2
  6
CONTINUOUS
  0
LAYER
  2
TEAM-AXE
 70
     0
 62
    10
  6
31
  0
LAYER
  2
TEAM-MAS
 70
     0
 62
     9
  6
CONTINUOUS
  0
LAYER
  2
TEAM-TXT
 70
     0
 62
    11
  6
CONTINUOUS
  0
LAYER
  2
TEAM-COLD
 70
     0
 62
     3
  6
CONTINUOUS
  0
LAYER
  2
TEAM-HIDE
 70
     0
 62
     8
  6
22
  0
LAYER
  2
TEAM-KAN
 70
     0
 62
     6
  6
CONTINUOUS
  0
LAYER
  2
TEAM-WARM
 70
     0
 62
     1
  6
CONTINUOUS
  0
LAYER
  2
TEAM-INSP
 70
     0
 62
     5
  6
CONTINUOUS
  0
ENDTAB
  0
TABLE
  2
STYLE
 70
     2
  0
STYLE
  2
STANDARD
 70
     0
 40
0.0
 41
1.0
 50
0.0
 71
     0
 42
200.0
  3
txt
  4

  0
STYLE
  2
TEAM
 70
     0
 40
0.0
 41
0.8
 50
15.0
 71
     0
 42
7.0
  3
ROMANS.shx
  4

  0
ENDTAB
  0
TABLE
  2
VIEW
 70
     0
  0
ENDTAB
  0
TABLE
  2
UCS
 70
     0
  0
ENDTAB
  0
TABLE
  2
APPID
 70
     1
  0
APPID
  2
ACAD
 70
     0
  0
ENDTAB
  0
TABLE
  2
DIMSTYLE
 70
     1
  0
DIMSTYLE
  2
TEAM
 70
     0
  3

  4

  5

  6

  7

 40
0.0
 41
20.0
 42
10.0
 43
1.0
 44
1.0
 45
0.0
 46
0.0
 47
0.0
 48
0.0
140
35.0
141
1.0
142
0.0
143
25.4
144
1.0
145
0.0
146
1.0
147
15.0
 71
     0
 72
     0
 73
     0
 74
     0
 75
     0
 76
     0
 77
     0
 78
     0
170
     0
171
     2
172
     0
173
     0
174
     0
175
     0
176
     9
177
     9
178
    11
  0
ENDTAB
  0
ENDSEC
  0
SECTION
  2
BLOCKS
  0
BLOCK
  8
0
  2
$MODEL_SPACE
 70
     0
 10
0.0
 20
0.0
 30
0.0
  3
$MODEL_SPACE
  1

  0
ENDBLK
  5
19C
  8
0
  0
BLOCK
 67
     1
  8
0
  2
$PAPER_SPACE
 70
     0
 10
0.0
 20
0.0
 30
0.0
  3
$PAPER_SPACE
  1

  0
ENDBLK
  5
19A
 67
     1
  8
0
  0
BLOCK
  8
0
  2
*D0
 70
     1
 10
0.0
 20
0.0
 30
0.0
  3
*D0
  1

  0
LINE
  5
98
  8
0
  6
BYBLOCK
 62
     9
 10
8525.0
 20
140850.0
 30
0.0
 11
8525.0
 21
140955.723064
 31
0.0
  0
LINE
  5
99
  8
0
  6
BYBLOCK
 62
     9
 10
7475.0
 20
140850.0
 30
0.0
 11
7475.0
 21
140955.723064
 31
0.0
  0
LINE
  5
9A
  8
0
  6
BYBLOCK
 62
     9
 10
8505.0
 20
140954.723064
 30
0.0
 11
8085.01378
 21
140954.723064
 31
0.0
  0
LINE
  5
9B
  8
0
  6
BYBLOCK
 62
     9
 10
7495.0
 20
140954.723064
 30
0.0
 11
7914.98622
 21
140954.723064
 31
0.0
  0
SOLID
  5
9C
  8
0
  6
BYBLOCK
 62
     9
 10
8505.0
 20
140958.056397
 30
0.0
 11
8505.0
 21
140951.38973
 31
0.0
 12
8525.0
 22
140954.723064
 32
0.0
 13
8525.0
 23
140954.723064
 33
0.0
  0
SOLID
  5
9D
  8
0
  6
BYBLOCK
 62
     9
 10
7495.0
 20
140958.056397
 30
0.0
 11
7495.0
 21
140951.38973
 31
0.0
 12
7475.0
 22
140954.723064
 32
0.0
 13
7475.0
 23
140954.723064
 33
0.0
  0
TEXT
  5
9E
  8
0
  6
BYBLOCK
 62
    11
 10
7924.73622
 20
140937.223064
 30
0.0
 40
35.0
  1
1050.00
  0
POINT
  5
9F
  8
DEFPOINTS
  6
BYBLOCK
 62
     0
 10
8525.0
 20
140840.0
 30
0.0
  0
POINT
  5
A0
  8
DEFPOINTS
  6
BYBLOCK
 62
     0
 10
7475.0
 20
140840.0
 30
0.0
  0
POINT
  5
A1
  8
DEFPOINTS
  6
BYBLOCK
 62
     0
 10
7475.0
 20
140954.723064
 30
0.0
  0
ENDBLK
  5
A3
  8
0
  0
BLOCK
  8
0
  2
*D1
 70
     1
 10
0.0
 20
0.0
 30
0.0
  3
*D1
  1

  0
LINE
  5
8A
  8
0
  6
BYBLOCK
 62
     9
 10
7654.983464
 20
140830.0
 30
0.0
 11
7654.983464
 21
140918.502979
 31
0.0
  0
LINE
  5
8B
  8
0
  6
BYBLOCK
 62
     9
 10
8344.983464
 20
140830.0
 30
0.0
 11
8344.983464
 21
140918.502979
 31
0.0
  0
LINE
  5
8C
  8
0
  6
BYBLOCK
 62
     9
 10
7674.983464
 20
140917.502979
 30
0.0
 11
7922.611289
 21
140917.502979
 31
0.0
  0
LINE
  5
8D
  8
0
  6
BYBLOCK
 62
     9
 10
8324.983464
 20
140917.502979
 30
0.0
 11
8077.355638
 21
140917.502979
 31
0.0
  0
SOLID
  5
8E
  8
0
  6
BYBLOCK
 62
     9
 10
7674.983464
 20
140920.836312
 30
0.0
 11
7674.983464
 21
140914.169645
 31
0.0
 12
7654.983464
 22
140917.502979
 32
0.0
 13
7654.983464
 23
140917.502979
 33
0.0
  0
SOLID
  5
8F
  8
0
  6
BYBLOCK
 62
     9
 10
8324.983464
 20
140920.836312
 30
0.0
 11
8324.983464
 21
140914.169645
 31
0.0
 12
8344.983464
 22
140917.502979
 32
0.0
 13
8344.983464
 23
140917.502979
 33
0.0
  0
TEXT
  5
90
  8
0
  6
BYBLOCK
 62
    11
 10
7934.455777
 20
140900.002979
 30
0.0
 40
35.0
  1
690.00
  0
POINT
  5
91
  8
DEFPOINTS
  6
BYBLOCK
 62
     0
 10
7654.983464
 20
140820.0
 30
0.0
  0
POINT
  5
92
  8
DEFPOINTS
  6
BYBLOCK
 62
     0
 10
8344.983464
 20
140820.0
 30
0.0
  0
POINT
  5
93
  8
DEFPOINTS
  6
BYBLOCK
 62
     0
 10
8344.983464
 20
140917.502979
 30
0.0
  0
ENDBLK
  5
95
  8
0
  0
BLOCK
  8
0
  2
*D2
 70
     1
 10
0.0
 20
0.0
 30
0.0
  3
*D2
  1

  0
LINE
  5
7C
  8
0
  6
BYBLOCK
 62
     9
 10
8140.0
 20
140810.0
 30
0.0
 11
8140.0
 21
140879.050263
 31
0.0
  0
LINE
  5
7D
  8
0
  6
BYBLOCK
 62
     9
 10
7860.0
 20
140815.0
 30
0.0
 11
7860.0
 21
140879.050263
 31
0.0
  0
LINE
  5
7E
  8
0
  6
BYBLOCK
 62
     9
 10
8120.0
 20
140878.050263
 30
0.0
 11
8076.708169
 21
140878.050263
 31
0.0
  0
LINE
  5
7F
  8
0
  6
BYBLOCK
 62
     9
 10
7880.0
 20
140878.050263
 30
0.0
 11
7923.291831
 21
140878.050263
 31
0.0
  0
SOLID
  5
80
  8
0
  6
BYBLOCK
 62
     9
 10
8120.0
 20
140881.383597
 30
0.0
 11
8120.0
 21
140874.71693
 31
0.0
 12
8140.0
 22
140878.050263
 32
0.0
 13
8140.0
 23
140878.050263
 33
0.0
  0
SOLID
  5
81
  8
0
  6
BYBLOCK
 62
     9
 10
7880.0
 20
140881.383597
 30
0.0
 11
7880.0
 21
140874.71693
 31
0.0
 12
7860.0
 22
140878.050263
 32
0.0
 13
7860.0
 23
140878.050263
 33
0.0
  0
TEXT
  5
82
  8
0
  6
BYBLOCK
 62
    11
 10
7933.93061
 20
140860.550263
 30
0.0
 40
35.0
  1
280.00
  0
POINT
  5
83
  8
DEFPOINTS
  6
BYBLOCK
 62
     0
 10
8140.0
 20
140800.0
 30
0.0
  0
POINT
  5
84
  8
DEFPOINTS
  6
BYBLOCK
 62
     0
 10
7860.0
 20
140805.0
 30
0.0
  0
POINT
  5
85
  8
DEFPOINTS
  6
BYBLOCK
 62
     0
 10
7860.0
 20
140878.050263
 30
0.0
  0
ENDBLK
  5
87
  8
0
  0
BLOCK
  8
0
  2
*D3
 70
     1
 10
0.0
 20
0.0
 30
0.0
  3
*D3
  1

  0
LINE
  5
6E
  8
0
  6
BYBLOCK
 62
     9
 10
7925.0
 20
140590.0
 30
0.0
 11
7925.0
 21
140387.358251
 31
0.0
  0
LINE
  5
6F
  8
0
  6
BYBLOCK
 62
     9
 10
8075.0
 20
140590.0
 30
0.0
 11
8075.0
 21
140387.358251
 31
0.0
  0
LINE
  5
70
  8
0
  6
BYBLOCK
 62
     9
 10
7945.0
 20
140388.358251
 30
0.0
 11
7960.0
 21
140388.358251
 31
0.0
  0
LINE
  5
71
  8
0
  6
BYBLOCK
 62
     9
 10
8055.0
 20
140388.358251
 30
0.0
 11
8040.0
 21
140388.358251
 31
0.0
  0
TEXT
  5
72
  8
0
  6
BYBLOCK
 62
    11
 10
7936.98622
 20
140395.914536
 30
0.0
 40
35.0
  1
150.00
  0
SOLID
  5
73
  8
0
  6
BYBLOCK
 62
     9
 10
7945.0
 20
140391.691584
 30
0.0
 11
7945.0
 21
140385.024917
 31
0.0
 12
7925.0
 22
140388.358251
 32
0.0
 13
7925.0
 23
140388.358251
 33
0.0
  0
SOLID
  5
74
  8
0
  6
BYBLOCK
 62
     9
 10
8055.0
 20
140391.691584
 30
0.0
 11
8055.0
 21
140385.024917
 31
0.0
 12
8075.0
 22
140388.358251
 32
0.0
 13
8075.0
 23
140388.358251
 33
0.0
  0
POINT
  5
75
  8
DEFPOINTS
  6
BYBLOCK
 62
     0
 10
7925.0
 20
140600.0
 30
0.0
  0
POINT
  5
76
  8
DEFPOINTS
  6
BYBLOCK
 62
     0
 10
8075.0
 20
140600.0
 30
0.0
  0
POINT
  5
77
  8
DEFPOINTS
  6
BYBLOCK
 62
     0
 10
8075.0
 20
140388.358251
 30
0.0
  0
ENDBLK
  5
79
  8
0
  0
BLOCK
  8
0
  2
*D4
 70
     1
 10
0.0
 20
0.0
 30
0.0
  3
*D4
  1

  0
LINE
  5
60
  8
0
  6
BYBLOCK
 62
     9
 10
8525.0
 20
140850.0
 30
0.0
 11
8599.119447
 21
140850.0
 31
0.0
  0
LINE
  5
61
  8
0
  6
BYBLOCK
 62
     9
 10
8049.845117
 20
140680.0
 30
0.0
 11
8599.119447
 21
140680.0
 31
0.0
  0
LINE
  5
62
  8
0
  6
BYBLOCK
 62
     9
 10
8598.119447
 20
140870.0
 30
0.0
 11
8598.119447
 21
140890.0
 31
0.0
  0
LINE
  5
63
  8
0
  6
BYBLOCK
 62
     9
 10
8598.119447
 20
140660.0
 30
0.0
 11
8598.119447
 21
140640.0
 31
0.0
  0
SOLID
  5
64
  8
0
  6
BYBLOCK
 62
     9
 10
8594.786114
 20
140870.0
 30
0.0
 11
8601.45278
 21
140870.0
 31
0.0
 12
8598.119447
 22
140850.0
 32
0.0
 13
8598.119447
 23
140850.0
 33
0.0
  0
SOLID
  5
65
  8
0
  6
BYBLOCK
 62
     9
 10
8594.786114
 20
140660.0
 30
0.0
 11
8601.45278
 21
140660.0
 31
0.0
 12
8598.119447
 22
140680.0
 32
0.0
 13
8598.119447
 23
140680.0
 33
0.0
  0
TEXT
  5
66
  8
0
  6
BYBLOCK
 62
    11
 10
8615.619447
 20
140701.98622
 30
0.0
 40
35.0
  1
170.00
 50
90.0
  0
POINT
  5
67
  8
DEFPOINTS
  6
BYBLOCK
 62
     0
 10
8515.0
 20
140850.0
 30
0.0
  0
POINT
  5
68
  8
DEFPOINTS
  6
BYBLOCK
 62
     0
 10
8039.845117
 20
140680.0
 30
0.0
  0
POINT
  5
69
  8
DEFPOINTS
  6
BYBLOCK
 62
     0
 10
8598.119447
 20
140680.0
 30
0.0
  0
ENDBLK
  5
6B
  8
0
  0
BLOCK
  8
0
  2
*D5
 70
     1
 10
0.0
 20
0.0
 30
0.0
  3
*D5
  1

  0
LINE
  5
52
  8
0
  6
BYBLOCK
 62
     9
 10
8040.0
 20
140520.0
 30
0.0
 11
8686.680057
 21
140520.0
 31
0.0
  0
LINE
  5
53
  8
0
  6
BYBLOCK
 62
     9
 10
8089.380674
 20
140000.0
 30
0.0
 11
8686.680057
 21
140000.0
 31
0.0
  0
LINE
  5
54
  8
0
  6
BYBLOCK
 62
     9
 10
8685.680057
 20
140500.0
 30
0.0
 11
8685.680057
 21
140336.26378
 31
0.0
  0
LINE
  5
55
  8
0
  6
BYBLOCK
 62
     9
 10
8685.680057
 20
140020.0
 30
0.0
 11
8685.680057
 21
140183.73622
 31
0.0
  0
SOLID
  5
56
  8
0
  6
BYBLOCK
 62
     9
 10
8682.346724
 20
140500.0
 30
0.0
 11
8689.013391
 21
140500.0
 31
0.0
 12
8685.680057
 22
140520.0
 32
0.0
 13
8685.680057
 23
140520.0
 33
0.0
  0
SOLID
  5
57
  8
0
  6
BYBLOCK
 62
     9
 10
8682.346724
 20
140020.0
 30
0.0
 11
8689.013391
 21
140020.0
 31
0.0
 12
8685.680057
 22
140000.0
 32
0.0
 13
8685.680057
 23
140000.0
 33
0.0
  0
TEXT
  5
58
  8
0
  6
BYBLOCK
 62
    11
 10
8703.180057
 20
140193.48622
 30
0.0
 40
35.0
  1
520.00
 50
90.0
  0
POINT
  5
59
  8
DEFPOINTS
  6
BYBLOCK
 62
     0
 10
8030.0
 20
140520.0
 30
0.0
  0
POINT
  5
5A
  8
DEFPOINTS
  6
BYBLOCK
 62
     0
 10
8079.380674
 20
140000.0
 30
0.0
  0
POINT
  5
5B
  8
DEFPOINTS
  6
BYBLOCK
 62
     0
 10
8685.680057
 20
140000.0
 30
0.0
  0
ENDBLK
  5
5D
  8
0
  0
BLOCK
  8
0
  2
*D6
 70
     1
 10
0.0
 20
0.0
 30
0.0
  3
*D6
  1

  0
LINE
  5
44
  8
0
  6
BYBLOCK
 62
     9
 10
8040.0
 20
140520.0
 30
0.0
 11
8686.680057
 21
140520.0
 31
0.0
  0
LINE
  5
45
  8
0
  6
BYBLOCK
 62
     9
 10
8525.0
 20
140850.0
 30
0.0
 11
8686.680057
 21
140850.0
 31
0.0
  0
LINE
  5
46
  8
0
  6
BYBLOCK
 62
     9
 10
8685.680057
 20
140540.0
 30
0.0
 11
8685.680057
 21
140608.73622
 31
0.0
  0
LINE
  5
47
  8
0
  6
BYBLOCK
 62
     9
 10
8685.680057
 20
140830.0
 30
0.0
 11
8685.680057
 21
140761.26378
 31
0.0
  0
SOLID
  5
48
  8
0
  6
BYBLOCK
 62
     9
 10
8682.346724
 20
140540.0
 30
0.0
 11
8689.013391
 21
140540.0
 31
0.0
 12
8685.680057
 22
140520.0
 32
0.0
 13
8685.680057
 23
140520.0
 33
0.0
  0
SOLID
  5
49
  8
0
  6
BYBLOCK
 62
     9
 10
8682.346724
 20
140830.0
 30
0.0
 11
8689.013391
 21
140830.0
 31
0.0
 12
8685.680057
 22
140850.0
 32
0.0
 13
8685.680057
 23
140850.0
 33
0.0
  0
TEXT
  5
4A
  8
0
  6
BYBLOCK
 62
    11
 10
8703.180057
 20
140618.48622
 30
0.0
 40
35.0
  1
330.00
 50
90.0
  0
POINT
  5
4B
  8
DEFPOINTS
  6
BYBLOCK
 62
     0
 10
8030.0
 20
140520.0
 30
0.0
  0
POINT
  5
4C
  8
DEFPOINTS
  6
BYBLOCK
 62
     0
 10
8515.0
 20
140850.0
 30
0.0
  0
POINT
  5
4D
  8
DEFPOINTS
  6
BYBLOCK
 62
     0
 10
8685.680057
 20
140850.0
 30
0.0
  0
ENDBLK
  5
4F
  8
0
  0
BLOCK
  8
0
  2
*D7
 70
     1
 10
0.0
 20
0.0
 30
0.0
  3
*D7
  1

  0
LINE
  5
36
  8
0
  6
BYBLOCK
 62
     9
 10
8110.0
 20
140625.0
 30
0.0
 11
8645.622561
 21
140625.0
 31
0.0
  0
LINE
  5
37
  8
0
  6
BYBLOCK
 62
     9
 10
8010.0
 20
140000.0
 30
0.0
 11
8645.622561
 21
140000.0
 31
0.0
  0
LINE
  5
38
  8
0
  6
BYBLOCK
 62
     9
 10
8644.622561
 20
140605.0
 30
0.0
 11
8644.622561
 21
140389.811024
 31
0.0
  0
LINE
  5
39
  8
0
  6
BYBLOCK
 62
     9
 10
8644.622561
 20
140020.0
 30
0.0
 11
8644.622561
 21
140235.188976
 31
0.0
  0
SOLID
  5
3A
  8
0
  6
BYBLOCK
 62
     9
 10
8641.289228
 20
140605.0
 30
0.0
 11
8647.955894
 21
140605.0
 31
0.0
 12
8644.622561
 22
140625.0
 32
0.0
 13
8644.622561
 23
140625.0
 33
0.0
  0
SOLID
  5
3B
  8
0
  6
BYBLOCK
 62
     9
 10
8641.289228
 20
140020.0
 30
0.0
 11
8647.955894
 21
140020.0
 31
0.0
 12
8644.622561
 22
140000.0
 32
0.0
 13
8644.622561
 23
140000.0
 33
0.0
  0
TEXT
  5
3C
  8
0
  6
BYBLOCK
 62
    11
 10
8662.122561
 20
140247.033465
 30
0.0
 40
35.0
  1
625.00
 50
90.0
  0
POINT
  5
3D
  8
DEFPOINTS
  6
BYBLOCK
 62
     0
 10
8100.0
 20
140625.0
 30
0.0
  0
POINT
  5
3E
  8
DEFPOINTS
  6
BYBLOCK
 62
     0
 10
8000.0
 20
140000.0
 30
0.0
  0
POINT
  5
3F
  8
DEFPOINTS
  6
BYBLOCK
 62
     0
 10
8644.622561
 20
140000.0
 30
0.0
  0
ENDBLK
  5
41
  8
0
  0
BLOCK
  8
0
  2
*D8
 70
     1
 10
0.0
 20
0.0
 30
0.0
  3
*D8
  1

  0
LINE
  5
27
  8
0
  6
BYBLOCK
 62
     9
 10
8525.0
 20
140850.0
 30
0.0
 11
8731.522974
 21
140850.0
 31
0.0
  0
LINE
  5
28
  8
0
  6
BYBLOCK
 62
     9
 10
8010.0
 20
140000.0
 30
0.0
 11
8731.522974
 21
140000.0
 31
0.0
  0
LINE
  5
29
  8
0
  6
BYBLOCK
 62
     9
 10
8730.522974
 20
140830.0
 30
0.0
 11
8730.522974
 21
140501.26378
 31
0.0
  0
LINE
  5
2A
  8
0
  6
BYBLOCK
 62
     9
 10
8730.522974
 20
140020.0
 30
0.0
 11
8730.522974
 21
140348.73622
 31
0.0
  0
SOLID
  5
2B
  8
0
  6
BYBLOCK
 62
     9
 10
8727.189641
 20
140830.0
 30
0.0
 11
8733.856308
 21
140830.0
 31
0.0
 12
8730.522974
 22
140850.0
 32
0.0
 13
8730.522974
 23
140850.0
 33
0.0
  0
SOLID
  5
2C
  8
0
  6
BYBLOCK
 62
     9
 10
8727.189641
 20
140020.0
 30
0.0
 11
8733.856308
 21
140020.0
 31
0.0
 12
8730.522974
 22
140000.0
 32
0.0
 13
8730.522974
 23
140000.0
 33
0.0
  0
TEXT
  5
2D
  8
0
  6
BYBLOCK
 62
    11
 10
8748.022974
 20
140358.48622
 30
0.0
 40
35.0
  1
850.00
 50
90.0
  0
POINT
  5
2E
  8
DEFPOINTS
  6
BYBLOCK
 62
     0
 10
8515.0
 20
140850.0
 30
0.0
  0
POINT
  5
30
  8
DEFPOINTS
  6
BYBLOCK
 62
     0
 10
8000.0
 20
140000.0
 30
0.0
  0
POINT
  5
31
  8
DEFPOINTS
  6
BYBLOCK
 62
     0
 10
8730.522974
 20
140000.0
 30
0.0
  0
ENDBLK
  5
33
  8
0
  0
BLOCK
  8
0
  2
*D9
 70
     1
 10
0.0
 20
0.0
 30
0.0
  3
*D9
  1

  0
LINE
  5
12D
  8
0
  6
BYBLOCK
 62
     9
 10
8110.0
 20
140625.0
 30
0.0
 11
8645.622561
 21
140625.0
 31
0.0
  0
LINE
  5
12E
  8
0
  6
BYBLOCK
 62
     9
 10
8525.0
 20
140850.0
 30
0.0
 11
8645.622561
 21
140850.0
 31
0.0
  0
LINE
  5
12F
  8
0
  6
BYBLOCK
 62
     9
 10
8644.622561
 20
140645.0
 30
0.0
 11
8644.622561
 21
140660.791831
 31
0.0
  0
LINE
  5
130
  8
0
  6
BYBLOCK
 62
     9
 10
8644.622561
 20
140830.0
 30
0.0
 11
8644.622561
 21
140814.208169
 31
0.0
  0
SOLID
  5
131
  8
0
  6
BYBLOCK
 62
     9
 10
8641.289228
 20
140645.0
 30
0.0
 11
8647.955894
 21
140645.0
 31
0.0
 12
8644.622561
 22
140625.0
 32
0.0
 13
8644.622561
 23
140625.0
 33
0.0
  0
SOLID
  5
132
  8
0
  6
BYBLOCK
 62
     9
 10
8641.289228
 20
140830.0
 30
0.0
 11
8647.955894
 21
140830.0
 31
0.0
 12
8644.622561
 22
140850.0
 32
0.0
 13
8644.622561
 23
140850.0
 33
0.0
  0
TEXT
  5
133
  8
0
  6
BYBLOCK
 62
    11
 10
8662.122561
 20
140671.43061
 30
0.0
 40
35.0
  1
225.00
 50
90.0
  0
POINT
  5
134
  8
DEFPOINTS
  6
BYBLOCK
 62
     0
 10
8100.0
 20
140625.0
 30
0.0
  0
POINT
  5
135
  8
DEFPOINTS
  6
BYBLOCK
 62
     0
 10
8515.0
 20
140850.0
 30
0.0
  0
POINT
  5
136
  8
DEFPOINTS
  6
BYBLOCK
 62
     0
 10
8644.622561
 20
140850.0
 30
0.0
  0
ENDBLK
  5
138
  8
0
  0
BLOCK
  8
0
  2
*D10
 70
     1
 10
0.0
 20
0.0
 30
0.0
  3
*D10
  1

  0
LINE
  5
11E
  8
0
  6
BYBLOCK
 62
     9
 10
8525.0
 20
140850.0
 30
0.0
 11
8557.545204
 21
140850.0
 31
0.0
  0
LINE
  5
11F
  8
0
  6
BYBLOCK
 62
     9
 10
8374.983464
 20
140800.0
 30
0.0
 11
8557.545204
 21
140800.0
 31
0.0
  0
LINE
  5
120
  8
0
  6
BYBLOCK
 62
     9
 10
8556.545204
 20
140870.0
 30
0.0
 11
8556.545204
 21
140890.0
 31
0.0
  0
LINE
  5
121
  8
0
  6
BYBLOCK
 62
     9
 10
8556.545204
 20
140780.0
 30
0.0
 11
8556.545204
 21
140760.0
 31
0.0
  0
TEXT
  5
122
  8
0
  6
BYBLOCK
 62
    11
 10
8575.045204
 20
140671.50327
 30
0.0
 40
35.0
  1
50.00
 50
90.0
  0
LINE
  5
123
  8
0
  6
BYBLOCK
 62
     9
 10
8556.545204
 20
140850.0
 30
0.0
 11
8556.545204
 21
140800.0
 31
0.0
  0
SOLID
  5
124
  8
0
  6
BYBLOCK
 62
     9
 10
8553.211871
 20
140870.0
 30
0.0
 11
8559.878538
 21
140870.0
 31
0.0
 12
8556.545204
 22
140850.0
 32
0.0
 13
8556.545204
 23
140850.0
 33
0.0
  0
SOLID
  5
125
  8
0
  6
BYBLOCK
 62
     9
 10
8553.211871
 20
140780.0
 30
0.0
 11
8559.878538
 21
140780.0
 31
0.0
 12
8556.545204
 22
140800.0
 32
0.0
 13
8556.545204
 23
140800.0
 33
0.0
  0
POINT
  5
126
  8
DEFPOINTS
  6
BYBLOCK
 62
     0
 10
8515.0
 20
140850.0
 30
0.0
  0
POINT
  5
127
  8
DEFPOINTS
  6
BYBLOCK
 62
     0
 10
8364.983464
 20
140800.0
 30
0.0
  0
POINT
  5
128
  8
DEFPOINTS
  6
BYBLOCK
 62
     0
 10
8556.545204
 20
140800.0
 30
0.0
  0
ENDBLK
  5
12A
  8
0
  0
ENDSEC
  0
SECTION
  2
ENTITIES
  0
POLYLINE
  5
20
  8
TEAM-BODY
 66
     1
 10
0.0
 20
0.0
 30
0.0
 70
   129
  0
VERTEX
  5
1A2
  8
TEAM-BODY
 10
525.0
 20
840.0
 30
0.0
 42
0.414214
  0
VERTEX
  5
1A3
  8
TEAM-BODY
 10
515.0
 20
850.0
 30
0.0
  0
VERTEX
  5
1A4
  8
TEAM-BODY
 10
-515.0
 20
850.0
 30
0.0
 42
0.414214
  0
VERTEX
  5
1A5
  8
TEAM-BODY
 10
-525.0
 20
840.0
 30
0.0
  0
VERTEX
  5
1A6
  8
TEAM-BODY
 10
-525.0
 20
735.0
 30
0.0
 42
0.414214
  0
VERTEX
  5
1A7
  8
TEAM-BODY
 10
-515.0
 20
725.0
 30
0.0
  0
VERTEX
  5
1A8
  8
TEAM-BODY
 10
-49.971938
 20
725.0
 30
0.0
 42
-0.372902
  0
VERTEX
  5
1A9
  8
TEAM-BODY
 10
-45.023028
 20
720.712944
 30
0.0
  0
VERTEX
  5
1AA
  8
TEAM-BODY
 10
-39.87819
 20
680.0
 30
0.0
  0
VERTEX
  5
1AB
  8
TEAM-BODY
 10
39.845117
 20
680.0
 30
0.0
  0
VERTEX
  5
1AC
  8
TEAM-BODY
 10
44.989955
 20
720.712944
 30
0.0
 42
-0.372902
  0
VERTEX
  5
1AD
  8
TEAM-BODY
 10
49.938865
 20
725.0
 30
0.0
  0
VERTEX
  5
1AE
  8
TEAM-BODY
 10
514.299872
 20
725.0
 30
0.0
 42
0.394544
  0
VERTEX
  5
1AF
  8
TEAM-BODY
 10
525.0
 20
735.0
 30
0.0
  0
SEQEND
  5
1B0
  8
TEAM-BODY
  0
LINE
  5
22
  8
TEAM-AXE
 10
75.0
 20
625.0
 30
0.0
 11
50.0
 21
625.0
 31
0.0
  0
DIMENSION
  5
25
  8
TEAM-MAS
  2
*D8
 10
730.522974
 20
0.0
 30
0.0
 11
730.522974
 21
425.0
 31
0.0
 12
-8000.0
 22
-140000.0
 32
0.0
 13
515.0
 23
850.0
 33
0.0
 14
0.0
 24
0.0
 34
0.0
 50
90.0
1001
ACAD
1000
DSTYLE
1002
{
1070
    40
1040
1.0
1002
}
  0
DIMENSION
  5
34
  8
TEAM-MAS
  2
*D7
 10
644.622561
 20
0.0
 30
0.0
 11
644.622561
 21
312.5
 31
0.0
 12
-8000.0
 22
-140000.0
 32
0.0
 13
100.0
 23
625.0
 33
0.0
 14
0.0
 24
0.0
 34
0.0
 50
90.0
1001
ACAD
1000
DSTYLE
1002
{
1070
    40
1040
1.0
1002
}
  0
DIMENSION
  5
42
  8
TEAM-MAS
  2
*D6
 10
685.680057
 20
850.0
 30
0.0
 11
685.680057
 21
685.0
 31
0.0
 12
-8000.0
 22
-140000.0
 32
0.0
 13
30.0
 23
520.0
 33
0.0
 14
515.0
 24
850.0
 34
0.0
 50
90.0
1001
ACAD
1000
DSTYLE
1002
{
1070
    40
1040
1.0
1002
}
  0
DIMENSION
  5
50
  8
TEAM-MAS
  2
*D5
 10
685.680057
 20
0.0
 30
0.0
 11
685.680057
 21
260.0
 31
0.0
 12
-8000.0
 22
-140000.0
 32
0.0
 13
30.0
 23
520.0
 33
0.0
 14
79.380674
 24
0.0
 34
0.0
 50
90.0
1001
ACAD
1000
DSTYLE
1002
{
1070
    40
1040
1.0
1002
}
  0
DIMENSION
  5
5E
  8
TEAM-MAS
  2
*D4
 10
598.119447
 20
680.0
 30
0.0
 11
598.119447
 21
765.0
 31
0.0
 12
-8000.0
 22
-140000.0
 32
0.0
 13
515.0
 23
850.0
 33
0.0
 14
39.845117
 24
680.0
 34
0.0
 50
90.0
1001
ACAD
1000
DSTYLE
1002
{
1070
    40
1040
1.0
1002
}
  0
DIMENSION
  5
6C
  8
TEAM-MAS
  2
*D3
 10
75.0
 20
388.358251
 30
0.0
 11
0.0
 21
413.414536
 31
0.0
 12
-8000.0
 22
-140000.0
 32
0.0
 70
   128
 13
-75.0
 23
600.0
 33
0.0
 14
75.0
 24
600.0
 34
0.0
1001
ACAD
1000
DSTYLE
1002
{
1070
    40
1040
1.0
1002
}
  0
DIMENSION
  5
7A
  8
TEAM-MAS
  2
*D2
 10
-140.0
 20
878.050263
 30
0.0
 11
0.0
 21
878.050263
 31
0.0
 12
-8000.0
 22
-140000.0
 32
0.0
 13
140.0
 23
800.0
 33
0.0
 14
-140.0
 24
805.0
 34
0.0
1001
ACAD
1000
DSTYLE
1002
{
1070
    40
1040
1.0
1002
}
  0
DIMENSION
  5
88
  8
TEAM-MAS
  2
*D1
 10
344.983464
 20
917.502979
 30
0.0
 11
-0.016536
 21
917.502979
 31
0.0
 12
-8000.0
 22
-140000.0
 32
0.0
 13
-345.016536
 23
820.0
 33
0.0
 14
344.983464
 24
820.0
 34
0.0
1001
ACAD
1000
DSTYLE
1002
{
1070
    40
1040
1.0
1002
}
  0
DIMENSION
  5
96
  8
TEAM-MAS
  2
*D0
 10
-525.0
 20
954.723064
 30
0.0
 11
0.0
 21
954.723064
 31
0.0
 12
-8000.0
 22
-140000.0
 32
0.0
 13
525.0
 23
840.0
 33
0.0
 14
-525.0
 24
840.0
 34
0.0
1001
ACAD
1000
DSTYLE
1002
{
1070
    40
1040
1.0
1002
}
  0
ARC
  5
A4
  8
TEAM-HIDE
 10
-406.491454
 20
740.0
 30
0.0
 40
5.0
 50
190.0
 51
270.0
  0
ARC
  5
A7
  8
TEAM-HIDE
 10
-405.061005
 20
723.395588
 30
0.0
 40
121.399005
 50
80.286184
 51
99.713816
  0
LINE
  5
A8
  8
TEAM-HIDE
 10
-410.686953
 20
730.0
 30
0.0
 11
-399.435058
 21
730.0
 31
0.0
  0
LINE
  5
A9
  8
TEAM-HIDE
 10
-520.653498
 20
838.054073
 30
0.0
 11
-520.653498
 21
740.0
 31
0.0
  0
LINE
  5
AA
  8
TEAM-HIDE
 10
-480.800674
 20
837.618294
 30
0.0
 11
-490.25418
 21
739.564221
 31
0.0
  0
LINE
  5
AB
  8
TEAM-HIDE
 10
-476.191607
 20
832.931599
 30
0.0
 11
-485.672525
 21
734.564221
 31
0.0
  0
LINE
  5
AC
  8
TEAM-HIDE
 10
-485.781647
 20
843.054073
 30
0.0
 11
-515.653498
 21
843.054073
 31
0.0
  0
ARC
  5
AD
  8
TEAM-HIDE
 10
-485.781647
 20
838.054073
 30
0.0
 40
5.0
 50
355.0
 51
90.0
  0
ARC
  5
AE
  8
TEAM-HIDE
 10
-515.653498
 20
838.054073
 30
0.0
 40
5.0
 50
90.0
 51
180.0
  0
LINE
  5
AF
  8
TEAM-HIDE
 10
-515.653498
 20
735.0
 30
0.0
 11
-495.235154
 21
735.0
 31
0.0
  0
ARC
  5
B0
  8
TEAM-HIDE
 10
-515.653498
 20
740.0
 30
0.0
 40
5.0
 50
180.0
 51
270.0
  0
ARC
  5
B1
  8
TEAM-HIDE
 10
-495.235154
 20
740.0
 30
0.0
 40
5.0
 50
270.0
 51
355.0
  0
LINE
  5
B2
  8
TEAM-HIDE
 10
-517.154913
 20
728.088755
 30
0.0
 11
-519.100028
 21
725.612698
 31
0.0
  0
ARC
  5
B3
  8
TEAM-HIDE
 10
-471.210634
 20
832.495821
 30
0.0
 40
5.0
 50
90.0
 51
175.0
  0
LINE
  5
B4
  8
TEAM-HIDE
 10
-513.223045
 20
730.0
 30
0.0
 11
-490.653498
 21
730.0
 31
0.0
  0
ARC
  5
B5
  8
TEAM-HIDE
 10
-490.653498
 20
735.0
 30
0.0
 40
5.0
 50
270.0
 51
355.0
  0
ARC
  5
B6
  8
TEAM-HIDE
 10
-513.223045
 20
725.0
 30
0.0
 40
5.0
 50
90.0
 51
141.847909
  0
LINE
  5
B7
  8
TEAM-HIDE
 10
-434.871593
 20
833.364062
 30
0.0
 11
-415.610991
 21
734.131759
 31
0.0
  0
LINE
  5
B8
  8
TEAM-HIDE
 10
-430.468342
 20
837.185832
 30
0.0
 11
-411.415493
 21
739.131759
 31
0.0
  0
ARC
  5
B9
  8
TEAM-HIDE
 10
-410.686953
 20
735.0
 30
0.0
 40
5.0
 50
190.0
 51
270.0
  0
ARC
  5
BA
  8
TEAM-HIDE
 10
-439.795632
 20
832.495821
 30
0.0
 40
5.0
 50
10.0
 51
90.0
  0
ARC
  5
BB
  8
TEAM-HIDE
 10
-425.544303
 20
838.054073
 30
0.0
 40
5.0
 50
90.0
 51
190.0
  0
ARC
  5
BC
  8
TEAM-HIDE
 10
-455.503133
 20
792.478914
 30
0.0
 40
47.678585
 50
70.76487
 51
109.23513
  0
POLYLINE
  5
BD
  8
TEAM-AXE
 66
     1
 10
0.0
 20
0.0
 30
0.0
  0
VERTEX
  5
1B1
  8
TEAM-AXE
 10
-0.016536
 20
760.663628
 30
0.0
  0
VERTEX
  5
1B2
  8
TEAM-AXE
 10
-0.016536
 20
648.776997
 30
0.0
  0
SEQEND
  5
1B3
  8
TEAM-AXE
  0
LINE
  5
BE
  8
TEAM-BODY
 10
-49.988474
 20
725.0
 30
0.0
 11
49.922329
 21
725.0
 31
0.0
  0
LINE
  5
BF
  8
TEAM-HIDE
 10
-32.008314
 20
745.314016
 30
0.0
 11
-0.016536
 21
745.314016
 31
0.0
  0
LINE
  5
C0
  8
TEAM-HIDE
 10
-26.016536
 20
739.0
 30
0.0
 11
-0.016536
 21
739.0
 31
0.0
  0
LINE
  5
C1
  8
TEAM-HIDE
 10
-32.008314
 20
745.314016
 30
0.0
 11
-26.016536
 21
739.0
 31
0.0
  0
LINE
  5
C2
  8
TEAM-HIDE
 10
-26.016536
 20
739.0
 30
0.0
 11
-26.016536
 21
680.0
 31
0.0
  0
LINE
  5
C3
  8
TEAM-AXE
 10
-75.0
 20
625.0
 30
0.0
 11
-50.0
 21
625.0
 31
0.0
  0
LINE
  5
C4
  8
TEAM-AXE
 10
-75.0
 20
625.0
 30
0.0
 11
-75.0
 21
650.0
 31
0.0
  0
CIRCLE
  5
C5
  8
TEAM-WARM
 10
-75.0
 20
625.0
 30
0.0
 40
12.0
  0
LINE
  5
C7
  8
TEAM-AXE
 10
-75.0
 20
625.0
 30
0.0
 11
-75.0
 21
600.0
 31
0.0
  0
CIRCLE
  5
C8
  8
TEAM-KAN
 10
0.0
 20
520.0
 30
0.0
 40
20.0
  0
LINE
  5
CA
  8
TEAM-AXE
 10
0.0
 20
520.0
 30
0.0
 11
30.0
 21
520.0
 31
0.0
  0
LINE
  5
CB
  8
TEAM-AXE
 10
0.0
 20
520.0
 30
0.0
 11
0.0
 21
545.0
 31
0.0
  0
LINE
  5
CC
  8
TEAM-AXE
 10
0.0
 20
520.0
 30
0.0
 11
-30.0
 21
520.0
 31
0.0
  0
LINE
  5
CD
  8
TEAM-AXE
 10
0.0
 20
520.0
 30
0.0
 11
0.0
 21
490.0
 31
0.0
  0
LINE
  5
CE
  8
TEAM-AXE
 10
0.0
 20
682.914932
 30
0.0
 11
0.0
 21
850.0
 31
0.0
  0
CIRCLE
  5
CF
  8
TEAM-INSP
 10
0.0
 20
0.0
 30
0.0
 40
10.0
  0
LINE
  5
D1
  8
TEAM-HIDE
 10
-273.99658
 20
844.215537
 30
0.0
 11
-258.253509
 21
764.93215
 31
0.0
  0
ARC
  5
D2
  8
TEAM-HIDE
 10
-248.405432
 20
766.668632
 30
0.0
 40
10.0
 50
190.0
 51
267.0
  0
ARC
  5
D3
  8
TEAM-HIDE
 10
-248.405432
 20
766.668632
 30
0.0
 40
15.0
 50
190.0
 51
267.0
  0
LINE
  5
D4
  8
TEAM-HIDE
 10
-278.140375
 20
838.922314
 30
0.0
 11
-263.177548
 21
764.063909
 31
0.0
  0
LINE
  5
D5
  8
TEAM-HIDE
 10
-308.296984
 20
837.185832
 30
0.0
 11
-289.244136
 21
739.131759
 31
0.0
  0
LINE
  5
D6
  8
TEAM-HIDE
 10
-312.700236
 20
833.364062
 30
0.0
 11
-293.439634
 21
734.131759
 31
0.0
  0
LINE
  5
D7
  8
TEAM-HIDE
 10
-288.515595
 20
730.0
 30
0.0
 11
-269.498251
 21
730.0
 31
0.0
  0
LINE
  5
D8
  8
TEAM-HIDE
 10
-303.372946
 20
843.054073
 30
0.0
 11
-283.064413
 21
843.054073
 31
0.0
  0
ARC
  5
D9
  8
TEAM-HIDE
 10
-283.064413
 20
838.054073
 30
0.0
 40
5.0
 50
10.0
 51
90.0
  0
ARC
  5
DA
  8
TEAM-HIDE
 10
-303.372946
 20
838.054073
 30
0.0
 40
5.0
 50
90.0
 51
190.0
  0
ARC
  5
DB
  8
TEAM-HIDE
 10
-317.624275
 20
832.495821
 30
0.0
 40
5.0
 50
10.0
 51
90.0
  0
ARC
  5
DC
  8
TEAM-HIDE
 10
-280.890234
 20
843.0
 30
0.0
 40
7.0
 50
10.0
 51
90.0
  0
LINE
  5
DD
  8
TEAM-HIDE
 10
-284.320097
 20
735.0
 30
0.0
 11
-272.465456
 21
735.0
 31
0.0
  0
LINE
  5
DE
  8
TEAM-HIDE
 10
-258.344733
 20
755.434296
 30
0.0
 11
-268.076659
 21
737.604491
 31
0.0
  0
ARC
  5
DF
  8
TEAM-HIDE
 10
-284.320097
 20
740.0
 30
0.0
 40
5.0
 50
190.0
 51
270.0
  0
ARC
  5
E0
  8
TEAM-HIDE
 10
-272.465456
 20
740.0
 30
0.0
 40
5.0
 50
270.0
 51
331.373251
  0
ARC
  5
E1
  8
TEAM-HIDE
 10
-288.515595
 20
735.0
 30
0.0
 40
5.0
 50
190.0
 51
270.0
  0
LINE
  5
E2
  8
TEAM-HIDE
 10
-253.955936
 20
753.038787
 30
0.0
 11
-265.109454
 21
732.604491
 31
0.0
  0
ARC
  5
E3
  8
TEAM-HIDE
 10
-269.498251
 20
735.0
 30
0.0
 40
5.0
 50
270.0
 51
331.373251
  0
LINE
  5
E4
  8
TEAM-HIDE
 10
-379.653669
 20
837.185832
 30
0.0
 11
-398.706518
 21
739.131759
 31
0.0
  0
LINE
  5
E5
  8
TEAM-HIDE
 10
-375.250417
 20
833.364062
 30
0.0
 11
-394.511019
 21
734.131759
 31
0.0
  0
ARC
  5
E6
  8
TEAM-HIDE
 10
-403.630556
 20
740.0
 30
0.0
 40
5.0
 50
270.0
 51
350.0
  0
ARC
  5
E7
  8
TEAM-HIDE
 10
-399.435058
 20
735.0
 30
0.0
 40
5.0
 50
270.0
 51
350.0
  0
ARC
  5
E8
  8
TEAM-HIDE
 10
-370.326379
 20
832.495821
 30
0.0
 40
5.0
 50
90.0
 51
170.0
  0
ARC
  5
E9
  8
TEAM-HIDE
 10
-384.577708
 20
838.054073
 30
0.0
 40
5.0
 50
350.0
 51
90.0
  0
ARC
  5
EA
  8
TEAM-HIDE
 10
-343.975327
 20
700.180939
 30
0.0
 40
139.820437
 50
79.136869
 51
100.863131
  0
LINE
  5
EB
  8
TEAM-HIDE
 10
-342.016536
 20
810.0
 30
0.0
 11
-339.016536
 21
810.0
 31
0.0
  0
LINE
  5
EC
  8
TEAM-HIDE
 10
-351.016536
 20
810.0
 30
0.0
 11
-348.016536
 21
810.0
 31
0.0
  0
LINE
  5
ED
  8
TEAM-HIDE
 10
-342.016536
 20
790.0
 30
0.0
 11
-339.016536
 21
790.0
 31
0.0
  0
LINE
  5
EE
  8
TEAM-HIDE
 10
-351.016536
 20
790.0
 30
0.0
 11
-348.016536
 21
790.0
 31
0.0
  0
ARC
  5
EF
  8
TEAM-HIDE
 10
-351.016536
 20
800.0
 30
0.0
 40
10.0
 50
90.0
 51
270.0
  0
LINE
  5
F0
  8
TEAM-AXE
 10
-345.016536
 20
800.0
 30
0.0
 11
-325.016536
 21
800.0
 31
0.0
  0
ARC
  5
F1
  8
TEAM-HIDE
 10
-339.016536
 20
800.0
 30
0.0
 40
10.0
 50
270.0
 51
90.0
  0
LINE
  5
F2
  8
TEAM-AXE
 10
-345.016536
 20
800.0
 30
0.0
 11
-345.016536
 21
820.0
 31
0.0
  0
LINE
  5
F3
  8
TEAM-AXE
 10
-345.016536
 20
800.0
 30
0.0
 11
-365.016536
 21
800.0
 31
0.0
  0
LINE
  5
F4
  8
TEAM-AXE
 10
-345.016536
 20
800.0
 30
0.0
 11
-345.016536
 21
780.0
 31
0.0
  0
LINE
  5
F5
  8
TEAM-AXE
 10
-140.016536
 20
800.0
 30
0.0
 11
-140.016536
 21
780.0
 31
0.0
  0
LINE
  5
F6
  8
TEAM-AXE
 10
-140.016536
 20
800.0
 30
0.0
 11
-160.016536
 21
800.0
 31
0.0
  0
LINE
  5
F7
  8
TEAM-AXE
 10
-140.016536
 20
800.0
 30
0.0
 11
-140.016536
 21
820.0
 31
0.0
  0
ARC
  5
F8
  8
TEAM-HIDE
 10
-134.016536
 20
800.0
 30
0.0
 40
10.0
 50
270.0
 51
90.0
  0
LINE
  5
F9
  8
TEAM-AXE
 10
-140.016536
 20
800.0
 30
0.0
 11
-120.016536
 21
800.0
 31
0.0
  0
ARC
  5
FA
  8
TEAM-HIDE
 10
-146.016536
 20
800.0
 30
0.0
 40
10.0
 50
90.0
 51
270.0
  0
LINE
  5
FB
  8
TEAM-HIDE
 10
-146.016536
 20
790.0
 30
0.0
 11
-143.016536
 21
790.0
 31
0.0
  0
LINE
  5
FC
  8
TEAM-HIDE
 10
-137.016536
 20
790.0
 30
0.0
 11
-134.016536
 21
790.0
 31
0.0
  0
LINE
  5
FD
  8
TEAM-HIDE
 10
-146.016536
 20
810.0
 30
0.0
 11
-143.016536
 21
810.0
 31
0.0
  0
LINE
  5
FE
  8
TEAM-HIDE
 10
-137.016536
 20
810.0
 30
0.0
 11
-134.016536
 21
810.0
 31
0.0
  0
LINE
  5
FF
  8
TEAM-HIDE
 10
-248.928792
 20
756.682336
 30
0.0
 11
-32.008314
 21
745.314016
 31
0.0
  0
LINE
  5
100
  8
TEAM-HIDE
 10
-249.190471
 20
751.689189
 30
0.0
 11
-27.008314
 21
740.045115
 31
0.0
  0
LINE
  5
101
  8
TEAM-AXE
 10
-75.0
 20
625.0
 30
0.0
 11
-100.0
 21
625.0
 31
0.0
  0
LINE
  5
102
  8
TEAM-HIDE
 10
347.983464
 20
810.0
 30
0.0
 11
350.983464
 21
810.0
 31
0.0
  0
LINE
  5
103
  8
TEAM-HIDE
 10
338.983464
 20
810.0
 30
0.0
 11
341.983464
 21
810.0
 31
0.0
  0
LINE
  5
104
  8
TEAM-HIDE
 10
347.983464
 20
790.0
 30
0.0
 11
350.983464
 21
790.0
 31
0.0
  0
LINE
  5
105
  8
TEAM-HIDE
 10
338.983464
 20
790.0
 30
0.0
 11
341.983464
 21
790.0
 31
0.0
  0
ARC
  5
106
  8
TEAM-HIDE
 10
338.983464
 20
800.0
 30
0.0
 40
10.0
 50
90.0
 51
270.0
  0
LINE
  5
107
  8
TEAM-AXE
 10
344.983464
 20
800.0
 30
0.0
 11
364.983464
 21
800.0
 31
0.0
  0
ARC
  5
108
  8
TEAM-HIDE
 10
350.983464
 20
800.0
 30
0.0
 40
10.0
 50
270.0
 51
90.0
  0
LINE
  5
109
  8
TEAM-AXE
 10
344.983464
 20
800.0
 30
0.0
 11
344.983464
 21
820.0
 31
0.0
  0
LINE
  5
10A
  8
TEAM-AXE
 10
344.983464
 20
800.0
 30
0.0
 11
324.983464
 21
800.0
 31
0.0
  0
LINE
  5
10B
  8
TEAM-AXE
 10
344.983464
 20
800.0
 30
0.0
 11
344.983464
 21
780.0
 31
0.0
  0
LINE
  5
10C
  8
TEAM-AXE
 10
75.0
 20
625.0
 30
0.0
 11
100.0
 21
625.0
 31
0.0
  0
LINE
  5
10D
  8
TEAM-AXE
 10
75.0
 20
625.0
 30
0.0
 11
75.0
 21
650.0
 31
0.0
  0
LINE
  5
10E
  8
TEAM-AXE
 10
75.0
 20
625.0
 30
0.0
 11
75.0
 21
600.0
 31
0.0
  0
LINE
  5
10F
  8
TEAM-AXE
 10
139.983464
 20
800.0
 30
0.0
 11
139.983464
 21
780.0
 31
0.0
  0
LINE
  5
110
  8
TEAM-AXE
 10
139.983464
 20
800.0
 30
0.0
 11
119.983464
 21
800.0
 31
0.0
  0
LINE
  5
111
  8
TEAM-AXE
 10
139.983464
 20
800.0
 30
0.0
 11
139.983464
 21
820.0
 31
0.0
  0
ARC
  5
112
  8
TEAM-HIDE
 10
145.983464
 20
800.0
 30
0.0
 40
10.0
 50
270.0
 51
90.0
  0
ARC
  5
113
  8
TEAM-HIDE
 10
133.983464
 20
800.0
 30
0.0
 40
10.0
 50
90.0
 51
270.0
  0
LINE
  5
114
  8
TEAM-HIDE
 10
133.983464
 20
790.0
 30
0.0
 11
136.983464
 21
790.0
 31
0.0
  0
LINE
  5
115
  8
TEAM-HIDE
 10
142.983464
 20
790.0
 30
0.0
 11
145.983464
 21
790.0
 31
0.0
  0
LINE
  5
116
  8
TEAM-HIDE
 10
133.983464
 20
810.0
 30
0.0
 11
136.983464
 21
810.0
 31
0.0
  0
LINE
  5
117
  8
TEAM-HIDE
 10
142.983464
 20
810.0
 30
0.0
 11
145.983464
 21
810.0
 31
0.0
  0
TEXT
  5
118
  8
TEAM-TXT
 10
55.330053
 20
732.549041
 30
0.0
 40
30.0
  1
team 212224
 41
0.8
 51
15.0
  7
TEAM
  0
LINE
  5
11B
  8
TEAM-AXE
 10
139.983464
 20
800.0
 30
0.0
 11
159.983464
 21
800.0
 31
0.0
  0
DIMENSION
  5
11C
  8
TEAM-MAS
  2
*D10
 10
556.545204
 20
800.0
 30
0.0
 11
557.545204
 21
725.767049
 31
0.0
 12
-8000.0
 22
-140000.0
 32
0.0
 70
   128
 13
515.0
 23
850.0
 33
0.0
 14
364.983464
 24
800.0
 34
0.0
 50
90.0
1001
ACAD
1000
DSTYLE
1002
{
1070
    40
1040
1.0
1002
}
  0
DIMENSION
  5
12B
  8
TEAM-MAS
  2
*D9
 10
644.622561
 20
850.0
 30
0.0
 11
644.622561
 21
737.5
 31
0.0
 12
-8000.0
 22
-140000.0
 32
0.0
 13
100.0
 23
625.0
 33
0.0
 14
515.0
 24
850.0
 34
0.0
 50
90.0
1001
ACAD
1000
DSTYLE
1002
{
1070
    40
1040
1.0
1002
}
  0
CIRCLE
  5
139
  8
TEAM-COLD
 10
75.0
 20
625.0
 30
0.0
 40
12.0
  0
ENDSEC
  0
EOF
