  0
SECTION
  2
HEADER
  9
$ACADVER
  1
AC1009
  9
$INSBASE
 10
0.0
 20
0.0
 30
0.0
  9
$EXTMIN
 10
-666.40379
 20
-540.330507
 30
-0.000002
  9
$EXTMAX
 10
673.806348
 20
40.034481
 30
0.000003
  9
$LIMMIN
 10
-666.40379
 20
-540.330507
  9
$LIMMAX
 10
673.806348
 20
40.034481
  9
$ORTHOMODE
 70
     0
  9
$REGENMODE
 70
     1
  9
$FILLMODE
 70
     1
  9
$QTEXTMODE
 70
     0
  9
$MIRRTEXT
 70
     0
  9
$DRAGMODE
 70
     2
  9
$LTSCALE
 40
25.0
  9
$OSMODE
 70
     0
  9
$ATTMODE
 70
     1
  9
$TEXTSIZE
 40
200.0
  9
$TRACEWID
 40
1.0
  9
$TEXTSTYLE
  7
STANDARD
  9
$CLAYER
  8
TEAM-MAS
  9
$CELTYPE
  6
BYLAYER
  9
$CECOLOR
 62
   256
  9
$DIMSCALE
 40
0.0
  9
$DIMASZ
 40
20.0
  9
$DIMEXO
 40
10.0
  9
$DIMDLI
 40
1.0
  9
$DIMRND
 40
0.0
  9
$DIMDLE
 40
0.0
  9
$DIMEXE
 40
1.0
  9
$DIMTP
 40
0.0
  9
$DIMTM
 40
0.0
  9
$DIMTXT
 40
35.0
  9
$DIMCEN
 40
1.0
  9
$DIMTSZ
 40
0.0
  9
$DIMTOL
 70
     0
  9
$DIMLIM
 70
     0
  9
$DIMTIH
 70
     0
  9
$DIMTOH
 70
     0
  9
$DIMSE1
 70
     0
  9
$DIMSE2
 70
     0
  9
$DIMTAD
 70
     0
  9
$DIMZIN
 70
     0
  9
$DIMBLK
  1

  9
$DIMASO
 70
     1
  9
$DIMSHO
 70
     0
  9
$DIMPOST
  1

  9
$DIMAPOST
  1

  9
$DIMALT
 70
     0
  9
$DIMALTD
 70
     2
  9
$DIMALTF
 40
25.4
  9
$DIMLFAC
 40
1.0
  9
$DIMTOFL
 70
     0
  9
$DIMTVP
 40
0.0
  9
$DIMTIX
 70
     0
  9
$DIMSOXD
 70
     0
  9
$DIMSAH
 70
     0
  9
$DIMBLK1
  1

  9
$DIMBLK2
  1

  9
$DIMSTYLE
  2
TEAM
  9
$DIMCLRD
 70
     9
  9
$DIMCLRE
 70
     9
  9
$DIMCLRT
 70
    11
  9
$DIMTFAC
 40
1.0
  9
$DIMGAP
 40
15.0
  9
$LUNITS
 70
     2
  9
$LUPREC
 70
     1
  9
$SKETCHINC
 40
1.0
  9
$FILLETRAD
 40
20.0
  9
$AUNITS
 70
     0
  9
$AUPREC
 70
     0
  9
$MENU
  1
ROPLANS
  9
$ELEVATION
 40
0.0
  9
$PELEVATION
 40
0.0
  9
$THICKNESS
 40
0.0
  9
$LIMCHECK
 70
     0
  9
$BLIPMODE
 70
     1
  9
$CHAMFERA
 40
0.0
  9
$CHAMFERB
 40
0.0
  9
$SKPOLY
 70
     0
  9
$TDCREATE
 40
2450392.957851
  9
$TDUPDATE
 40
2455551.693537
  9
$TDINDWG
 40
2.106856
  9
$TDUSRTIMER
 40
2.106856
  9
$USRTIMER
 70
     1
  9
$ANGBASE
 50
0.0
  9
$ANGDIR
 70
     0
  9
$PDMODE
 70
     0
  9
$PDSIZE
 40
0.0
  9
$PLINEWID
 40
0.0
  9
$COORDS
 70
     2
  9
$SPLFRAME
 70
     0
  9
$SPLINETYPE
 70
     6
  9
$SPLINESEGS
 70
     8
  9
$ATTDIA
 70
     0
  9
$ATTREQ
 70
     0
  9
$HANDLING
 70
     1
  9
$HANDSEED
  5
B9
  9
$SURFTAB1
 70
    48
  9
$SURFTAB2
 70
    48
  9
$SURFTYPE
 70
     6
  9
$SURFU
 70
     6
  9
$SURFV
 70
     6
  9
$UCSNAME
  2

  9
$UCSORG
 10
0.0
 20
0.0
 30
0.0
  9
$UCSXDIR
 10
1.0
 20
0.0
 30
0.0
  9
$UCSYDIR
 10
0.0
 20
1.0
 30
0.0
  9
$PUCSNAME
  2

  9
$PUCSORG
 10
0.0
 20
0.0
 30
0.0
  9
$PUCSXDIR
 10
1.0
 20
0.0
 30
0.0
  9
$PUCSYDIR
 10
0.0
 20
1.0
 30
0.0
  9
$USERI1
 70
     0
  9
$USERI2
 70
     0
  9
$USERI3
 70
     0
  9
$USERI4
 70
     0
  9
$USERI5
 70
     0
  9
$USERR1
 40
0.0
  9
$USERR2
 40
0.0
  9
$USERR3
 40
0.0
  9
$USERR4
 40
0.0
  9
$USERR5
 40
0.0
  9
$WORLDVIEW
 70
     1
  9
$SHADEDGE
 70
     0
  9
$SHADEDIF
 70
    70
  9
$TILEMODE
 70
     1
  9
$MAXACTVP
 70
    16
  9
$PLIMCHECK
 70
     0
  9
$PEXTMIN
 10
-0.805942
 20
0.005011
 30
0.0
  9
$PEXTMAX
 10
20.250094
 20
11.356329
 30
0.0
  9
$PLIMMIN
 10
0.0
 20
0.0
  9
$PLIMMAX
 10
12.0
 20
9.0
  9
$UNITMODE
 70
     0
  9
$VISRETAIN
 70
     0
  9
$PLINEGEN
 70
     0
  9
$PSLTSCALE
 70
     0
  0
ENDSEC
  0
SECTION
  2
TABLES
  0
TABLE
  2
VPORT
 70
     2
  0
VPORT
  2
*ACTIVE
 70
     0
 10
0.0
 20
0.0
 11
1.0
 21
1.0
 12
3.701279
 22
-250.148013
 13
0.0
 23
0.0
 14
1.0
 24
1.0
 15
50.0
 25
50.0
 16
0.0
 26
0.0
 36
1.0
 17
0.0
 27
0.0
 37
0.0
 40
720.675756
 41
1.865779
 42
50.0
 43
0.0
 44
0.0
 50
0.0
 51
0.0
 71
     0
 72
   100
 73
     1
 74
     1
 75
     0
 76
     0
 77
     0
 78
     0
  0
ENDTAB
  0
TABLE
  2
LTYPE
 70
     2
  0
LTYPE
  2
CONTINUOUS
 70
     0
  3
Solid Line
 72
    65
 73
     0
 40
0.0
  0
LTYPE
  2
31
 70
     0
  3

 72
    65
 73
     4
 40
2.1
 49
1.5
 49
-0.3
 49
0.0
 49
-0.3
  0
ENDTAB
  0
TABLE
  2
LAYER
 70
     9
  0
LAYER
  2
0
 70
     0
 62
     7
  6
CONTINUOUS
  0
LAYER
  2
DEFPOINTS
 70
     0
 62
     7
  6
CONTINUOUS
  0
LAYER
  2
TEAM-BODY
 70
     0
 62
     2
  6
CONTINUOUS
  0
LAYER
  2
TEAM-AXE
 70
     0
 62
    10
  6
31
  0
LAYER
  2
TEAM-MAS
 70
     0
 62
     9
  6
CONTINUOUS
  0
LAYER
  2
TEAM-TXT
 70
     0
 62
    11
  6
CONTINUOUS
  0
LAYER
  2
TEAM-DET1
 70
     0
 62
     4
  6
CONTINUOUS
  0
LAYER
  2
TEAM-KAN
 70
     0
 62
     6
  6
CONTINUOUS
  0
LAYER
  2
TEAM-INSP
 70
     0
 62
     5
  6
CONTINUOUS
  0
ENDTAB
  0
TABLE
  2
STYLE
 70
     2
  0
STYLE
  2
STANDARD
 70
     0
 40
0.0
 41
1.0
 50
0.0
 71
     0
 42
200.0
  3
txt
  4

  0
STYLE
  2
TEAM
 70
     0
 40
0.0
 41
0.8
 50
15.0
 71
     0
 42
7.0
  3
ROMANS.shx
  4

  0
ENDTAB
  0
TABLE
  2
VIEW
 70
     0
  0
ENDTAB
  0
TABLE
  2
UCS
 70
     0
  0
ENDTAB
  0
TABLE
  2
APPID
 70
     1
  0
APPID
  2
ACAD
 70
     0
  0
ENDTAB
  0
TABLE
  2
DIMSTYLE
 70
     1
  0
DIMSTYLE
  2
TEAM
 70
     0
  3

  4

  5

  6

  7

 40
0.0
 41
20.0
 42
10.0
 43
1.0
 44
1.0
 45
0.0
 46
0.0
 47
0.0
 48
0.0
140
35.0
141
1.0
142
0.0
143
25.4
144
1.0
145
0.0
146
1.0
147
15.0
 71
     0
 72
     0
 73
     0
 74
     0
 75
     0
 76
     0
 77
     0
 78
     0
170
     0
171
     2
172
     0
173
     0
174
     0
175
     0
176
     9
177
     9
178
    11
  0
ENDTAB
  0
ENDSEC
  0
SECTION
  2
BLOCKS
  0
BLOCK
  8
0
  2
$MODEL_SPACE
 70
     0
 10
0.0
 20
0.0
 30
0.0
  3
$MODEL_SPACE
  1

  0
ENDBLK
  5
A9
  8
0
  0
BLOCK
 67
     1
  8
0
  2
$PAPER_SPACE
 70
     0
 10
0.0
 20
0.0
 30
0.0
  3
$PAPER_SPACE
  1

  0
ENDBLK
  5
A7
 67
     1
  8
0
  0
BLOCK
  8
0
  2
*D0
 70
     1
 10
0.0
 20
0.0
 30
0.0
  3
*D0
  1

  0
LINE
  5
37
  8
0
  6
BYBLOCK
 62
     9
 10
7377.5
 20
159512.911591
 30
0.0
 11
7377.5
 21
159475.887565
 31
0.0
  0
LINE
  5
38
  8
0
  6
BYBLOCK
 62
     9
 10
8627.5
 20
159513.065337
 30
0.0
 11
8627.5
 21
159475.887565
 31
0.0
  0
LINE
  5
39
  8
0
  6
BYBLOCK
 62
     9
 10
7397.5
 20
159476.887565
 30
0.0
 11
7917.48622
 21
159476.887565
 31
0.0
  0
LINE
  5
3A
  8
0
  6
BYBLOCK
 62
     9
 10
8607.5
 20
159476.887565
 30
0.0
 11
8087.51378
 21
159476.887565
 31
0.0
  0
SOLID
  5
3B
  8
0
  6
BYBLOCK
 62
     9
 10
7397.5
 20
159480.220899
 30
0.0
 11
7397.5
 21
159473.554232
 31
0.0
 12
7377.5
 22
159476.887565
 32
0.0
 13
7377.5
 23
159476.887565
 33
0.0
  0
SOLID
  5
3C
  8
0
  6
BYBLOCK
 62
     9
 10
8607.5
 20
159480.220899
 30
0.0
 11
8607.5
 21
159473.554232
 31
0.0
 12
8627.5
 22
159476.887565
 32
0.0
 13
8627.5
 23
159476.887565
 33
0.0
  0
TEXT
  5
3D
  8
0
  6
BYBLOCK
 62
    11
 10
7927.23622
 20
159459.387565
 30
0.0
 40
35.0
  1
1250.00
  0
POINT
  5
3E
  8
DEFPOINTS
  6
BYBLOCK
 62
     0
 10
7377.5
 20
159522.911591
 30
0.0
  0
POINT
  5
3F
  8
DEFPOINTS
  6
BYBLOCK
 62
     0
 10
8627.5
 20
159523.065337
 30
0.0
  0
POINT
  5
40
  8
DEFPOINTS
  6
BYBLOCK
 62
     0
 10
8627.5
 20
159476.887565
 30
0.0
  0
ENDBLK
  5
42
  8
0
  0
BLOCK
  8
0
  2
*D1
 70
     1
 10
0.0
 20
0.0
 30
0.0
  3
*D1
  1

  0
LINE
  5
22
  8
0
  6
BYBLOCK
 62
     9
 10
8627.5
 20
160000.0
 30
0.0
 11
8657.324998
 21
160000.0
 31
0.0
  0
LINE
  5
23
  8
0
  6
BYBLOCK
 62
     9
 10
8012.501623
 20
159510.000495
 30
0.0
 11
8657.324998
 21
159510.000495
 31
0.0
  0
LINE
  5
24
  8
0
  6
BYBLOCK
 62
     9
 10
8656.324998
 20
159980.0
 30
0.0
 11
8656.324998
 21
159833.075178
 31
0.0
  0
LINE
  5
25
  8
0
  6
BYBLOCK
 62
     9
 10
8656.324998
 20
159530.000495
 30
0.0
 11
8656.324998
 21
159676.925317
 31
0.0
  0
SOLID
  5
26
  8
0
  6
BYBLOCK
 62
     9
 10
8652.991665
 20
159980.0
 30
0.0
 11
8659.658331
 21
159980.0
 31
0.0
 12
8656.324998
 22
160000.0
 32
0.0
 13
8656.324998
 23
160000.0
 33
0.0
  0
SOLID
  5
27
  8
0
  6
BYBLOCK
 62
     9
 10
8652.991665
 20
159530.000495
 30
0.0
 11
8659.658331
 21
159530.000495
 31
0.0
 12
8656.324998
 22
159510.000495
 32
0.0
 13
8656.324998
 23
159510.000495
 33
0.0
  0
TEXT
  5
28
  8
0
  6
BYBLOCK
 62
    11
 10
8673.824998
 20
159686.675317
 30
0.0
 40
35.0
  1
490.00
 50
90.0
  0
POINT
  5
29
  8
DEFPOINTS
  6
BYBLOCK
 62
     0
 10
8617.5
 20
160000.0
 30
0.0
  0
POINT
  5
2B
  8
DEFPOINTS
  6
BYBLOCK
 62
     0
 10
8002.501623
 20
159510.000495
 30
0.0
  0
POINT
  5
2C
  8
DEFPOINTS
  6
BYBLOCK
 62
     0
 10
8656.324998
 20
159510.000495
 30
0.0
  0
ENDBLK
  5
2E
  8
0
  0
BLOCK
  8
0
  2
*D2
 70
     1
 10
0.0
 20
0.0
 30
0.0
  3
*D2
  1

  0
LINE
  5
46
  8
0
  6
BYBLOCK
 62
     9
 10
7990.0
 20
160000.0
 30
0.0
 11
7348.447166
 21
160000.0
 31
0.0
  0
LINE
  5
47
  8
0
  6
BYBLOCK
 62
     9
 10
7992.5
 20
159810.0
 30
0.0
 11
7348.447166
 21
159810.0
 31
0.0
  0
LINE
  5
48
  8
0
  6
BYBLOCK
 62
     9
 10
7349.447166
 20
160020.0
 30
0.0
 11
7349.447166
 21
160040.0
 31
0.0
  0
LINE
  5
49
  8
0
  6
BYBLOCK
 62
     9
 10
7349.447166
 20
159790.0
 30
0.0
 11
7349.447166
 21
159770.0
 31
0.0
  0
SOLID
  5
4A
  8
0
  6
BYBLOCK
 62
     9
 10
7346.113833
 20
160020.0
 30
0.0
 11
7352.780499
 21
160020.0
 31
0.0
 12
7349.447166
 22
160000.0
 32
0.0
 13
7349.447166
 23
160000.0
 33
0.0
  0
SOLID
  5
4B
  8
0
  6
BYBLOCK
 62
     9
 10
7346.113833
 20
159790.0
 30
0.0
 11
7352.780499
 21
159790.0
 31
0.0
 12
7349.447166
 22
159810.0
 32
0.0
 13
7349.447166
 23
159810.0
 33
0.0
  0
TEXT
  5
4C
  8
0
  6
BYBLOCK
 62
    11
 10
7366.947166
 20
159841.92507
 30
0.0
 40
35.0
  1
190.00
 50
90.0
  0
POINT
  5
4D
  8
DEFPOINTS
  6
BYBLOCK
 62
     0
 10
8000.0
 20
160000.0
 30
0.0
  0
POINT
  5
4E
  8
DEFPOINTS
  6
BYBLOCK
 62
     0
 10
8002.5
 20
159810.0
 30
0.0
  0
POINT
  5
4F
  8
DEFPOINTS
  6
BYBLOCK
 62
     0
 10
7349.447166
 20
159810.0
 30
0.0
  0
ENDBLK
  5
51
  8
0
  0
ENDSEC
  0
SECTION
  2
ENTITIES
  0
DIMENSION
  5
20
  8
TEAM-MAS
  2
*D1
 10
656.324998
 20
-489.999505
 30
0.0
 11
656.324998
 21
-244.999753
 31
0.0
 12
-8000.0
 22
-160000.0
 32
0.0
 13
617.5
 23
0.0
 33
0.0
 14
2.501623
 24
-489.999505
 34
0.0
 50
270.0
1001
ACAD
1000
DSTYLE
1002
{
1070
    40
1040
1.0
1002
}
  0
LINE
  5
2F
  8
TEAM-BODY
 10
-262.5
 20
-450.746571
 30
0.0
 11
267.5
 21
-450.746571
 31
0.0
  0
LINE
  5
31
  8
TEAM-BODY
 10
267.5
 20
-140.0
 30
0.0
 11
-262.5
 21
-140.0
 31
0.0
  0
TEXT
  5
32
  8
TEAM-TXT
 10
-91.544186
 20
-419.207707
 30
0.0
 40
24.999999
  1
team 212225
 41
0.8
 51
15.0
  7
TEAM
  0
DIMENSION
  5
35
  8
TEAM-MAS
  2
*D0
 10
627.5
 20
-523.112435
 30
0.0
 11
2.5
 21
-523.112435
 31
0.0
 12
-8000.0
 22
-160000.0
 32
0.0
 13
-622.5
 23
-477.088409
 33
0.0
 14
627.5
 24
-476.934663
 34
0.0
1001
ACAD
1000
DSTYLE
1002
{
1070
    40
1040
1.0
1002
}
  0
POLYLINE
  5
43
  8
TEAM-BODY
 66
     1
 10
0.0
 20
0.0
 30
0.0
 70
     1
  0
VERTEX
  5
AF
  8
TEAM-BODY
 10
627.5
 20
-476.934663
 30
0.0
  0
VERTEX
  5
B0
  8
TEAM-BODY
 10
627.5
 20
-10.0
 30
0.0
 42
0.414214
  0
VERTEX
  5
B1
  8
TEAM-BODY
 10
617.5
 20
0.0
 30
0.0
  0
VERTEX
  5
B2
  8
TEAM-BODY
 10
-617.5
 20
0.0
 30
0.0
 42
0.414214
  0
VERTEX
  5
B3
  8
TEAM-BODY
 10
-622.5
 20
-5.0
 30
0.0
  0
VERTEX
  5
B4
  8
TEAM-BODY
 10
-622.5
 20
-477.088409
 30
0.0
 42
0.411407
  0
VERTEX
  5
B5
  8
TEAM-BODY
 10
-612.595918
 20
-487.087949
 30
0.0
 42
0.004858
  0
VERTEX
  5
B6
  8
TEAM-BODY
 10
617.598417
 20
-486.934179
 30
0.0
 42
0.411334
  0
SEQEND
  5
B7
  8
TEAM-BODY
  0
DIMENSION
  5
44
  8
TEAM-MAS
  2
*D2
 10
-650.552834
 20
-190.0
 30
0.0
 11
-650.552834
 21
-95.0
 31
0.0
 12
-8000.0
 22
-160000.0
 32
0.0
 13
0.0
 23
0.0
 33
0.0
 14
2.5
 24
-190.0
 34
0.0
 50
90.0
1001
ACAD
1000
DSTYLE
1002
{
1070
    40
1040
1.0
1002
}
  0
CIRCLE
  5
52
  8
TEAM-INSP
 10
0.0
 20
0.0
 30
0.0
 40
10.0
  0
CIRCLE
  5
54
  8
TEAM-DET1
 10
2.5
 20
-70.0
 30
0.0
 40
17.5
  0
LINE
  5
56
  8
TEAM-AXE
 10
2.5
 20
-96.0
 30
0.0
 11
2.5
 21
-44.0
 31
0.0
  0
LINE
  5
59
  8
TEAM-AXE
 10
2.5
 20
-140.738922
 30
0.0
 11
2.5
 21
-239.261078
 31
0.0
  0
CIRCLE
  5
5A
  8
TEAM-DET1
 10
2.5
 20
-190.0
 30
0.0
 40
37.5
  0
LINE
  5
5B
  8
TEAM-AXE
 10
-48.231992
 20
-190.0
 30
0.0
 11
51.761078
 21
-190.0
 31
0.0
  0
CIRCLE
  5
5C
  8
TEAM-KAN
 10
2.5
 20
-190.0
 30
0.0
 40
26.0
  0
LINE
  5
5E
  8
TEAM-AXE
 10
28.5
 20
-70.0
 30
0.0
 11
-23.5
 21
-70.0
 31
0.0
  0
LINE
  5
5F
  8
TEAM-BODY
 10
-272.5
 20
-150.0
 30
0.0
 11
-272.5
 21
-440.746571
 31
0.0
  0
ARC
  5
60
  8
TEAM-BODY
 10
-262.5
 20
-440.746571
 30
0.0
 40
10.0
 50
180.0
 51
270.0
  0
ARC
  5
61
  8
TEAM-BODY
 10
-262.5
 20
-150.0
 30
0.0
 40
10.0
 50
90.0
 51
180.0
  0
LINE
  5
62
  8
TEAM-BODY
 10
277.5
 20
-150.0
 30
0.0
 11
277.5
 21
-440.746571
 31
0.0
  0
ARC
  5
63
  8
TEAM-BODY
 10
267.5
 20
-440.746571
 30
0.0
 40
10.0
 50
270.0
 51
0.0
  0
ARC
  5
64
  8
TEAM-BODY
 10
267.5
 20
-150.0
 30
0.0
 40
10.0
 50
0.0
 51
90.0
  0
ENDSEC
  0
EOF
