  0
SECTION
  2
HEADER
  9
$ACADVER
  1
AC1009
  9
$INSBASE
 10
0.0
 20
0.0
 30
0.0
  9
$EXTMIN
 10
-205.547698
 20
-449.515988
 30
-0.000008
  9
$EXTMAX
 10
272.552312
 20
66.909637
 30
0.000001
  9
$LIMMIN
 10
-205.547698
 20
-449.515988
  9
$LIMMAX
 10
272.552312
 20
66.909637
  9
$ORTHOMODE
 70
     1
  9
$REGENMODE
 70
     1
  9
$FILLMODE
 70
     1
  9
$QTEXTMODE
 70
     0
  9
$MIRRTEXT
 70
     0
  9
$DRAGMODE
 70
     2
  9
$LTSCALE
 40
50.0
  9
$OSMODE
 70
     0
  9
$ATTMODE
 70
     1
  9
$TEXTSIZE
 40
200.0
  9
$TRACEWID
 40
1.0
  9
$TEXTSTYLE
  7
STANDARD
  9
$CLAYER
  8
TEAM-MAS
  9
$CELTYPE
  6
BYLAYER
  9
$CECOLOR
 62
   256
  9
$DIMSCALE
 40
0.0
  9
$DIMASZ
 40
20.0
  9
$DIMEXO
 40
10.0
  9
$DIMDLI
 40
1.0
  9
$DIMRND
 40
0.0
  9
$DIMDLE
 40
0.0
  9
$DIMEXE
 40
1.0
  9
$DIMTP
 40
0.0
  9
$DIMTM
 40
0.0
  9
$DIMTXT
 40
35.0
  9
$DIMCEN
 40
1.0
  9
$DIMTSZ
 40
0.0
  9
$DIMTOL
 70
     0
  9
$DIMLIM
 70
     0
  9
$DIMTIH
 70
     0
  9
$DIMTOH
 70
     0
  9
$DIMSE1
 70
     0
  9
$DIMSE2
 70
     0
  9
$DIMTAD
 70
     0
  9
$DIMZIN
 70
     0
  9
$DIMBLK
  1

  9
$DIMASO
 70
     1
  9
$DIMSHO
 70
     0
  9
$DIMPOST
  1

  9
$DIMAPOST
  1

  9
$DIMALT
 70
     0
  9
$DIMALTD
 70
     2
  9
$DIMALTF
 40
25.4
  9
$DIMLFAC
 40
1.0
  9
$DIMTOFL
 70
     0
  9
$DIMTVP
 40
0.0
  9
$DIMTIX
 70
     0
  9
$DIMSOXD
 70
     0
  9
$DIMSAH
 70
     0
  9
$DIMBLK1
  1

  9
$DIMBLK2
  1

  9
$DIMSTYLE
  2
TEAM
  9
$DIMCLRD
 70
     9
  9
$DIMCLRE
 70
     9
  9
$DIMCLRT
 70
    11
  9
$DIMTFAC
 40
1.0
  9
$DIMGAP
 40
7.0
  9
$LUNITS
 70
     2
  9
$LUPREC
 70
     1
  9
$SKETCHINC
 40
1.0
  9
$FILLETRAD
 40
50.0
  9
$AUNITS
 70
     0
  9
$AUPREC
 70
     0
  9
$MENU
  1
ROPLANS
  9
$ELEVATION
 40
0.0
  9
$PELEVATION
 40
0.0
  9
$THICKNESS
 40
0.0
  9
$LIMCHECK
 70
     0
  9
$BLIPMODE
 70
     1
  9
$CHAMFERA
 40
0.0
  9
$CHAMFERB
 40
0.0
  9
$SKPOLY
 70
     0
  9
$TDCREATE
 40
2450392.957851
  9
$TDUPDATE
 40
2456190.73555
  9
$TDINDWG
 40
2.153799
  9
$TDUSRTIMER
 40
2.153799
  9
$USRTIMER
 70
     1
  9
$ANGBASE
 50
0.0
  9
$ANGDIR
 70
     0
  9
$PDMODE
 70
     0
  9
$PDSIZE
 40
0.0
  9
$PLINEWID
 40
0.0
  9
$COORDS
 70
     2
  9
$SPLFRAME
 70
     0
  9
$SPLINETYPE
 70
     6
  9
$SPLINESEGS
 70
     8
  9
$ATTDIA
 70
     0
  9
$ATTREQ
 70
     0
  9
$HANDLING
 70
     1
  9
$HANDSEED
  5
C5
  9
$SURFTAB1
 70
    36
  9
$SURFTAB2
 70
    36
  9
$SURFTYPE
 70
     6
  9
$SURFU
 70
     6
  9
$SURFV
 70
     6
  9
$UCSNAME
  2

  9
$UCSORG
 10
0.0
 20
0.0
 30
0.0
  9
$UCSXDIR
 10
1.0
 20
0.0
 30
0.0
  9
$UCSYDIR
 10
0.0
 20
1.0
 30
0.0
  9
$PUCSNAME
  2

  9
$PUCSORG
 10
0.0
 20
0.0
 30
0.0
  9
$PUCSXDIR
 10
1.0
 20
0.0
 30
0.0
  9
$PUCSYDIR
 10
0.0
 20
1.0
 30
0.0
  9
$USERI1
 70
     0
  9
$USERI2
 70
     0
  9
$USERI3
 70
     0
  9
$USERI4
 70
     0
  9
$USERI5
 70
     0
  9
$USERR1
 40
0.0
  9
$USERR2
 40
0.0
  9
$USERR3
 40
0.0
  9
$USERR4
 40
0.0
  9
$USERR5
 40
0.0
  9
$WORLDVIEW
 70
     1
  9
$SHADEDGE
 70
     0
  9
$SHADEDIF
 70
    70
  9
$TILEMODE
 70
     1
  9
$MAXACTVP
 70
    16
  9
$PLIMCHECK
 70
     0
  9
$PEXTMIN
 10
-0.805942
 20
0.005011
 30
0.0
  9
$PEXTMAX
 10
20.250094
 20
11.356329
 30
0.0
  9
$PLIMMIN
 10
0.0
 20
0.0
  9
$PLIMMAX
 10
12.0
 20
9.0
  9
$UNITMODE
 70
     0
  9
$VISRETAIN
 70
     0
  9
$PLINEGEN
 70
     0
  9
$PSLTSCALE
 70
     0
  0
ENDSEC
  0
SECTION
  2
TABLES
  0
TABLE
  2
VPORT
 70
     2
  0
VPORT
  2
*ACTIVE
 70
     0
 10
0.0
 20
0.0
 11
1.0
 21
1.0
 12
33.502307
 22
-191.303175
 13
0.0
 23
0.0
 14
1.0
 24
1.0
 15
50.0
 25
50.0
 16
0.0
 26
0.0
 36
1.0
 17
0.0
 27
0.0
 37
0.0
 40
519.676992
 41
1.911765
 42
50.0
 43
0.0
 44
0.0
 50
0.0
 51
0.0
 71
     0
 72
   100
 73
     1
 74
     1
 75
     0
 76
     0
 77
     0
 78
     0
  0
ENDTAB
  0
TABLE
  2
LTYPE
 70
     2
  0
LTYPE
  2
CONTINUOUS
 70
     0
  3
Solid Line
 72
    65
 73
     0
 40
0.0
  0
LTYPE
  2
31
 70
     0
  3

 72
    65
 73
     4
 40
2.1
 49
1.5
 49
-0.3
 49
0.0
 49
-0.3
  0
ENDTAB
  0
TABLE
  2
LAYER
 70
     9
  0
LAYER
  2
0
 70
     0
 62
     7
  6
CONTINUOUS
  0
LAYER
  2
DEFPOINTS
 70
     0
 62
     7
  6
CONTINUOUS
  0
LAYER
  2
TEAM-BODY
 70
     0
 62
     2
  6
CONTINUOUS
  0
LAYER
  2
TEAM-AXE
 70
     0
 62
    10
  6
31
  0
LAYER
  2
TEAM-MAS
 70
     0
 62
     9
  6
CONTINUOUS
  0
LAYER
  2
TEAM-TXT
 70
     0
 62
    11
  6
CONTINUOUS
  0
LAYER
  2
TEAM-DET1
 70
     0
 62
     4
  6
CONTINUOUS
  0
LAYER
  2
TEAM-KAN
 70
     0
 62
     6
  6
CONTINUOUS
  0
LAYER
  2
TEAM-INSP
 70
     0
 62
     5
  6
CONTINUOUS
  0
ENDTAB
  0
TABLE
  2
STYLE
 70
     2
  0
STYLE
  2
STANDARD
 70
     0
 40
0.0
 41
1.0
 50
0.0
 71
     0
 42
200.0
  3
txt
  4

  0
STYLE
  2
TEAM
 70
     0
 40
0.0
 41
0.8
 50
15.0
 71
     0
 42
7.0
  3
ROMANS.shx
  4

  0
ENDTAB
  0
TABLE
  2
VIEW
 70
     0
  0
ENDTAB
  0
TABLE
  2
UCS
 70
     0
  0
ENDTAB
  0
TABLE
  2
APPID
 70
     1
  0
APPID
  2
ACAD
 70
     0
  0
ENDTAB
  0
TABLE
  2
DIMSTYLE
 70
     1
  0
DIMSTYLE
  2
TEAM
 70
     0
  3

  4

  5

  6

  7

 40
0.0
 41
20.0
 42
10.0
 43
1.0
 44
1.0
 45
0.0
 46
0.0
 47
0.0
 48
0.0
140
35.0
141
1.0
142
0.0
143
25.4
144
1.0
145
0.0
146
1.0
147
7.0
 71
     0
 72
     0
 73
     0
 74
     0
 75
     0
 76
     0
 77
     0
 78
     0
170
     0
171
     2
172
     0
173
     0
174
     0
175
     0
176
     9
177
     9
178
    11
  0
ENDTAB
  0
ENDSEC
  0
SECTION
  2
BLOCKS
  0
BLOCK
  8
0
  2
$MODEL_SPACE
 70
     0
 10
0.0
 20
0.0
 30
0.0
  3
$MODEL_SPACE
  1

  0
ENDBLK
  5
BE
  8
0
  0
BLOCK
 67
     1
  8
0
  2
$PAPER_SPACE
 70
     0
 10
0.0
 20
0.0
 30
0.0
  3
$PAPER_SPACE
  1

  0
ENDBLK
  5
BC
 67
     1
  8
0
  0
BLOCK
  8
0
  2
*D0
 70
     1
 10
0.0
 20
0.0
 30
0.0
  3
*D0
  1

  0
LINE
  5
6A
  8
0
  6
BYBLOCK
 62
     9
 10
3837.5
 20
19807.5
 30
0.0
 11
3837.5
 21
19567.009413
 31
0.0
  0
LINE
  5
6B
  8
0
  6
BYBLOCK
 62
     9
 10
4162.5
 20
19807.5
 30
0.0
 11
4162.5
 21
19567.009413
 31
0.0
  0
LINE
  5
6C
  8
0
  6
BYBLOCK
 62
     9
 10
3857.5
 20
19568.009413
 30
0.0
 11
3946.333333
 21
19568.009413
 31
0.0
  0
LINE
  5
6D
  8
0
  6
BYBLOCK
 62
     9
 10
4142.5
 20
19568.009413
 30
0.0
 11
4053.666667
 21
19568.009413
 31
0.0
  0
SOLID
  5
6E
  8
0
  6
BYBLOCK
 62
     9
 10
3857.5
 20
19571.342747
 30
0.0
 11
3857.5
 21
19564.67608
 31
0.0
 12
3837.5
 22
19568.009413
 32
0.0
 13
3837.5
 23
19568.009413
 33
0.0
  0
SOLID
  5
6F
  8
0
  6
BYBLOCK
 62
     9
 10
4142.5
 20
19571.342747
 30
0.0
 11
4142.5
 21
19564.67608
 31
0.0
 12
4162.5
 22
19568.009413
 32
0.0
 13
4162.5
 23
19568.009413
 33
0.0
  0
TEXT
  5
70
  8
0
  6
BYBLOCK
 62
    11
 10
3953.333333
 20
19550.509413
 30
0.0
 40
35.0
  1
325
  0
POINT
  5
71
  8
DEFPOINTS
  6
BYBLOCK
 62
     0
 10
3837.5
 20
19817.5
 30
0.0
  0
POINT
  5
72
  8
DEFPOINTS
  6
BYBLOCK
 62
     0
 10
4162.5
 20
19817.5
 30
0.0
  0
POINT
  5
73
  8
DEFPOINTS
  6
BYBLOCK
 62
     0
 10
4162.5
 20
19568.009413
 30
0.0
  0
ENDBLK
  5
75
  8
0
  0
BLOCK
  8
0
  2
*D1
 70
     1
 10
0.0
 20
0.0
 30
0.0
  3
*D1
  1

  0
LINE
  5
5C
  8
0
  6
BYBLOCK
 62
     9
 10
3862.5
 20
19807.5
 30
0.0
 11
3862.5
 21
19613.884068
 31
0.0
  0
LINE
  5
5D
  8
0
  6
BYBLOCK
 62
     9
 10
4137.5
 20
19807.5
 30
0.0
 11
4137.5
 21
19613.884068
 31
0.0
  0
LINE
  5
5E
  8
0
  6
BYBLOCK
 62
     9
 10
3882.5
 20
19614.884068
 30
0.0
 11
3946.333333
 21
19614.884068
 31
0.0
  0
LINE
  5
5F
  8
0
  6
BYBLOCK
 62
     9
 10
4117.5
 20
19614.884068
 30
0.0
 11
4053.666667
 21
19614.884068
 31
0.0
  0
SOLID
  5
60
  8
0
  6
BYBLOCK
 62
     9
 10
3882.5
 20
19618.217401
 30
0.0
 11
3882.5
 21
19611.550735
 31
0.0
 12
3862.5
 22
19614.884068
 32
0.0
 13
3862.5
 23
19614.884068
 33
0.0
  0
SOLID
  5
61
  8
0
  6
BYBLOCK
 62
     9
 10
4117.5
 20
19618.217401
 30
0.0
 11
4117.5
 21
19611.550735
 31
0.0
 12
4137.5
 22
19614.884068
 32
0.0
 13
4137.5
 23
19614.884068
 33
0.0
  0
TEXT
  5
62
  8
0
  6
BYBLOCK
 62
    11
 10
3953.333333
 20
19597.384068
 30
0.0
 40
35.0
  1
275
  0
POINT
  5
63
  8
DEFPOINTS
  6
BYBLOCK
 62
     0
 10
3862.5
 20
19817.5
 30
0.0
  0
POINT
  5
64
  8
DEFPOINTS
  6
BYBLOCK
 62
     0
 10
4137.5
 20
19817.5
 30
0.0
  0
POINT
  5
65
  8
DEFPOINTS
  6
BYBLOCK
 62
     0
 10
4137.5
 20
19614.884068
 30
0.0
  0
ENDBLK
  5
67
  8
0
  0
BLOCK
  8
0
  2
*D2
 70
     1
 10
0.0
 20
0.0
 30
0.0
  3
*D2
  1

  0
LINE
  5
4D
  8
0
  6
BYBLOCK
 62
     9
 10
3990.0
 20
19980.0
 30
0.0
 11
3839.966042
 21
19980.0
 31
0.0
  0
LINE
  5
4E
  8
0
  6
BYBLOCK
 62
     9
 10
3990.0
 20
19955.0
 30
0.0
 11
3839.966042
 21
19955.0
 31
0.0
  0
LINE
  5
4F
  8
0
  6
BYBLOCK
 62
     9
 10
3840.966042
 20
20000.0
 30
0.0
 11
3840.966042
 21
20020.0
 31
0.0
  0
LINE
  5
50
  8
0
  6
BYBLOCK
 62
     9
 10
3840.966042
 20
19935.0
 30
0.0
 11
3840.966042
 21
19915.0
 31
0.0
  0
TEXT
  5
51
  8
0
  6
BYBLOCK
 62
    11
 10
3829.466042
 20
19938.333333
 30
0.0
 40
35.0
  1
25
 50
90.0
  0
LINE
  5
52
  8
0
  6
BYBLOCK
 62
     9
 10
3840.966042
 20
19980.0
 30
0.0
 11
3840.966042
 21
19955.0
 31
0.0
  0
SOLID
  5
53
  8
0
  6
BYBLOCK
 62
     9
 10
3837.632708
 20
20000.0
 30
0.0
 11
3844.299375
 21
20000.0
 31
0.0
 12
3840.966042
 22
19980.0
 32
0.0
 13
3840.966042
 23
19980.0
 33
0.0
  0
SOLID
  5
54
  8
0
  6
BYBLOCK
 62
     9
 10
3837.632708
 20
19935.0
 30
0.0
 11
3844.299375
 21
19935.0
 31
0.0
 12
3840.966042
 22
19955.0
 32
0.0
 13
3840.966042
 23
19955.0
 33
0.0
  0
POINT
  5
55
  8
DEFPOINTS
  6
BYBLOCK
 62
     0
 10
4000.0
 20
19980.0
 30
0.0
  0
POINT
  5
56
  8
DEFPOINTS
  6
BYBLOCK
 62
     0
 10
4000.0
 20
19955.0
 30
0.0
  0
POINT
  5
57
  8
DEFPOINTS
  6
BYBLOCK
 62
     0
 10
3840.966042
 20
19955.0
 30
0.0
  0
ENDBLK
  5
59
  8
0
  0
BLOCK
  8
0
  2
*D3
 70
     1
 10
0.0
 20
0.0
 30
0.0
  3
*D3
  1

  0
LINE
  5
3F
  8
0
  6
BYBLOCK
 62
     9
 10
4010.0
 20
19655.0
 30
0.0
 11
4256.034495
 21
19655.0
 31
0.0
  0
LINE
  5
40
  8
0
  6
BYBLOCK
 62
     9
 10
4010.0
 20
20000.0
 30
0.0
 11
4256.034495
 21
20000.0
 31
0.0
  0
LINE
  5
41
  8
0
  6
BYBLOCK
 62
     9
 10
4255.034495
 20
19675.0
 30
0.0
 11
4255.034495
 21
19773.833333
 31
0.0
  0
LINE
  5
42
  8
0
  6
BYBLOCK
 62
     9
 10
4255.034495
 20
19980.0
 30
0.0
 11
4255.034495
 21
19881.166667
 31
0.0
  0
SOLID
  5
43
  8
0
  6
BYBLOCK
 62
     9
 10
4251.701162
 20
19675.0
 30
0.0
 11
4258.367829
 21
19675.0
 31
0.0
 12
4255.034495
 22
19655.0
 32
0.0
 13
4255.034495
 23
19655.0
 33
0.0
  0
SOLID
  5
44
  8
0
  6
BYBLOCK
 62
     9
 10
4251.701162
 20
19980.0
 30
0.0
 11
4258.367829
 21
19980.0
 31
0.0
 12
4255.034495
 22
20000.0
 32
0.0
 13
4255.034495
 23
20000.0
 33
0.0
  0
TEXT
  5
45
  8
0
  6
BYBLOCK
 62
    11
 10
4272.534495
 20
19780.833333
 30
0.0
 40
35.0
  1
345
 50
90.0
  0
POINT
  5
46
  8
DEFPOINTS
  6
BYBLOCK
 62
     0
 10
4000.0
 20
19655.0
 30
0.0
  0
POINT
  5
47
  8
DEFPOINTS
  6
BYBLOCK
 62
     0
 10
4000.0
 20
20000.0
 30
0.0
  0
POINT
  5
48
  8
DEFPOINTS
  6
BYBLOCK
 62
     0
 10
4255.034495
 20
20000.0
 30
0.0
  0
ENDBLK
  5
4A
  8
0
  0
BLOCK
  8
0
  2
*D4
 70
     1
 10
0.0
 20
0.0
 30
0.0
  3
*D4
  1

  0
LINE
  5
31
  8
0
  6
BYBLOCK
 62
     9
 10
4010.0
 20
19817.6
 30
0.0
 11
4209.91487
 21
19817.6
 31
0.0
  0
LINE
  5
32
  8
0
  6
BYBLOCK
 62
     9
 10
4010.0
 20
20000.0
 30
0.0
 11
4209.91487
 21
20000.0
 31
0.0
  0
LINE
  5
33
  8
0
  6
BYBLOCK
 62
     9
 10
4208.91487
 20
19837.6
 30
0.0
 11
4208.91487
 21
19844.6
 31
0.0
  0
LINE
  5
34
  8
0
  6
BYBLOCK
 62
     9
 10
4208.91487
 20
19980.0
 30
0.0
 11
4208.91487
 21
19973.0
 31
0.0
  0
TEXT
  5
35
  8
0
  6
BYBLOCK
 62
    11
 10
4223.498203
 20
19841.716667
 30
0.0
 40
35.0
  1
182,5
 50
90.0
  0
SOLID
  5
36
  8
0
  6
BYBLOCK
 62
     9
 10
4205.581537
 20
19837.6
 30
0.0
 11
4212.248203
 21
19837.6
 31
0.0
 12
4208.91487
 22
19817.6
 32
0.0
 13
4208.91487
 23
19817.6
 33
0.0
  0
SOLID
  5
37
  8
0
  6
BYBLOCK
 62
     9
 10
4205.581537
 20
19980.0
 30
0.0
 11
4212.248203
 21
19980.0
 31
0.0
 12
4208.91487
 22
20000.0
 32
0.0
 13
4208.91487
 23
20000.0
 33
0.0
  0
POINT
  5
38
  8
DEFPOINTS
  6
BYBLOCK
 62
     0
 10
4000.0
 20
19817.6
 30
0.0
  0
POINT
  5
39
  8
DEFPOINTS
  6
BYBLOCK
 62
     0
 10
4000.0
 20
20000.0
 30
0.0
  0
POINT
  5
3A
  8
DEFPOINTS
  6
BYBLOCK
 62
     0
 10
4208.91487
 20
20000.0
 30
0.0
  0
ENDBLK
  5
3C
  8
0
  0
BLOCK
  8
0
  2
*D5
 70
     1
 10
0.0
 20
0.0
 30
0.0
  3
*D5
  1

  0
LINE
  5
22
  8
0
  6
BYBLOCK
 62
     9
 10
3925.0
 20
20010.0
 30
0.0
 11
3925.0
 21
20050.404554
 31
0.0
  0
LINE
  5
23
  8
0
  6
BYBLOCK
 62
     9
 10
4075.0
 20
20010.0
 30
0.0
 11
4075.0
 21
20050.404554
 31
0.0
  0
LINE
  5
24
  8
0
  6
BYBLOCK
 62
     9
 10
3945.0
 20
20049.404554
 30
0.0
 11
3955.083333
 21
20049.404554
 31
0.0
  0
LINE
  5
25
  8
0
  6
BYBLOCK
 62
     9
 10
4055.0
 20
20049.404554
 30
0.0
 11
4044.916667
 21
20049.404554
 31
0.0
  0
TEXT
  5
26
  8
0
  6
BYBLOCK
 62
    11
 10
3962.083333
 20
20031.904554
 30
0.0
 40
35.0
  1
150
  0
SOLID
  5
27
  8
0
  6
BYBLOCK
 62
     9
 10
3945.0
 20
20052.737888
 30
0.0
 11
3945.0
 21
20046.071221
 31
0.0
 12
3925.0
 22
20049.404554
 32
0.0
 13
3925.0
 23
20049.404554
 33
0.0
  0
SOLID
  5
28
  8
0
  6
BYBLOCK
 62
     9
 10
4055.0
 20
20052.737888
 30
0.0
 11
4055.0
 21
20046.071221
 31
0.0
 12
4075.0
 22
20049.404554
 32
0.0
 13
4075.0
 23
20049.404554
 33
0.0
  0
POINT
  5
29
  8
DEFPOINTS
  6
BYBLOCK
 62
     0
 10
3925.0
 20
20000.0
 30
0.0
  0
POINT
  5
2B
  8
DEFPOINTS
  6
BYBLOCK
 62
     0
 10
4075.0
 20
20000.0
 30
0.0
  0
POINT
  5
2C
  8
DEFPOINTS
  6
BYBLOCK
 62
     0
 10
4075.0
 20
20049.404554
 30
0.0
  0
ENDBLK
  5
2E
  8
0
  0
ENDSEC
  0
SECTION
  2
ENTITIES
  0
DIMENSION
  5
20
  8
TEAM-MAS
  2
*D5
 10
75.0
 20
49.404554
 30
0.0
 11
0.0
 21
49.404554
 31
0.0
 12
-4000.0
 22
-20000.0
 32
0.0
 70
   128
 13
-75.0
 23
0.0
 33
0.0
 14
75.0
 24
0.0
 34
0.0
1001
ACAD
1000
DSTYLE
1002
{
1070
    40
1040
1.0
1002
}
  0
DIMENSION
  5
2F
  8
TEAM-MAS
  2
*D4
 10
208.91487
 20
0.0
 30
0.0
 11
208.91487
 21
-91.2
 31
0.0
 12
-4000.0
 22
-20000.0
 32
0.0
 70
   128
  1
<>,5
 13
0.0
 23
-182.4
 33
0.0
 14
0.0
 24
0.0
 34
0.0
 50
90.0
1001
ACAD
1000
DSTYLE
1002
{
1070
    40
1040
1.0
1002
}
  0
DIMENSION
  5
3D
  8
TEAM-MAS
  2
*D3
 10
255.034495
 20
0.0
 30
0.0
 11
255.034495
 21
-172.5
 31
0.0
 12
-4000.0
 22
-20000.0
 32
0.0
 13
0.0
 23
-345.0
 33
0.0
 14
0.0
 24
0.0
 34
0.0
 50
90.0
1001
ACAD
1000
DSTYLE
1002
{
1070
    40
1040
1.0
1002
}
  0
DIMENSION
  5
4B
  8
TEAM-MAS
  2
*D2
 10
-159.033958
 20
-45.0
 30
0.0
 11
-188.033958
 21
-32.5
 31
0.0
 12
-4000.0
 22
-20000.0
 32
0.0
 13
0.0
 23
-20.0
 33
0.0
 14
0.0
 24
-45.0
 34
0.0
 50
90.0
1001
ACAD
1000
DSTYLE
1002
{
1070
    40
1040
1.0
1002
}
  0
DIMENSION
  5
5A
  8
TEAM-MAS
  2
*D1
 10
137.5
 20
-385.115932
 30
0.0
 11
0.0
 21
-385.115932
 31
0.0
 12
-4000.0
 22
-20000.0
 32
0.0
 13
-137.5
 23
-182.5
 33
0.0
 14
137.5
 24
-182.5
 34
0.0
1001
ACAD
1000
DSTYLE
1002
{
1070
    40
1040
1.0
1002
}
  0
DIMENSION
  5
68
  8
TEAM-MAS
  2
*D0
 10
162.5
 20
-431.990587
 30
0.0
 11
0.0
 21
-431.990587
 31
0.0
 12
-4000.0
 22
-20000.0
 32
0.0
 13
-162.5
 23
-182.5
 33
0.0
 14
162.5
 24
-182.5
 34
0.0
1001
ACAD
1000
DSTYLE
1002
{
1070
    40
1040
1.0
1002
}
  0
CIRCLE
  5
76
  8
TEAM-INSP
 10
0.0
 20
0.0
 30
0.0
 40
10.0
  0
LINE
  5
78
  8
TEAM-BODY
 10
75.0
 20
0.0
 30
0.0
 11
-75.0
 21
0.0
 31
0.0
  0
LINE
  5
7A
  8
TEAM-BODY
 10
-75.0
 20
0.0
 30
0.0
 11
-75.0
 21
-38.342968
 31
0.0
  0
LINE
  5
7B
  8
TEAM-BODY
 10
75.0
 20
0.0
 30
0.0
 11
75.0
 21
-38.342968
 31
0.0
  0
TEXT
  5
7C
  8
TEAM-TXT
 10
-159.427578
 20
-131.687201
 30
0.0
 40
30.0
  1
team 217034
 41
0.8
 51
15.0
  7
TEAM
  0
LINE
  5
7F
  8
TEAM-AXE
 10
-35.0
 20
-182.5
 30
0.0
 11
35.0
 21
-182.5
 31
0.0
  0
CIRCLE
  5
82
  8
TEAM-BODY
 10
0.0
 20
-182.5
 30
0.0
 40
162.5
  0
CIRCLE
  5
83
  8
TEAM-BODY
 10
0.0
 20
-182.5
 30
0.0
 40
137.5
  0
CIRCLE
  5
84
  8
TEAM-DET1
 10
0.0
 20
-182.5
 30
0.0
 40
30.0
  0
CIRCLE
  5
86
  8
TEAM-KAN
 10
0.0
 20
-182.5
 30
0.0
 40
20.0
  0
LINE
  5
88
  8
TEAM-AXE
 10
0.0
 20
-217.5
 30
0.0
 11
0.0
 21
-147.5
 31
0.0
  0
ENDSEC
  0
EOF
