  0
SECTION
  2
HEADER
  9
$ACADVER
  1
AC1009
  9
$INSBASE
 10
0.0
 20
0.0
 30
0.0
  9
$EXTMIN
 10
-162.51343
 20
-10.005957
 30
-20.0003
  9
$EXTMAX
 10
310.356977
 20
961.783538
 30
10.001347
  9
$LIMMIN
 10
-162.51343
 20
-10.005957
  9
$LIMMAX
 10
310.356977
 20
961.783538
  9
$ORTHOMODE
 70
     1
  9
$REGENMODE
 70
     1
  9
$FILLMODE
 70
     1
  9
$QTEXTMODE
 70
     0
  9
$MIRRTEXT
 70
     0
  9
$DRAGMODE
 70
     2
  9
$LTSCALE
 40
50.0
  9
$OSMODE
 70
     0
  9
$ATTMODE
 70
     1
  9
$TEXTSIZE
 40
200.0
  9
$TRACEWID
 40
1.0
  9
$TEXTSTYLE
  7
STANDARD
  9
$CLAYER
  8
TEAM-MAS
  9
$CELTYPE
  6
BYLAYER
  9
$CECOLOR
 62
   256
  9
$DIMSCALE
 40
0.0
  9
$DIMASZ
 40
20.0
  9
$DIMEXO
 40
10.0
  9
$DIMDLI
 40
1.0
  9
$DIMRND
 40
0.0
  9
$DIMDLE
 40
0.0
  9
$DIMEXE
 40
1.0
  9
$DIMTP
 40
0.0
  9
$DIMTM
 40
0.0
  9
$DIMTXT
 40
35.0
  9
$DIMCEN
 40
1.0
  9
$DIMTSZ
 40
0.0
  9
$DIMTOL
 70
     0
  9
$DIMLIM
 70
     0
  9
$DIMTIH
 70
     0
  9
$DIMTOH
 70
     0
  9
$DIMSE1
 70
     0
  9
$DIMSE2
 70
     0
  9
$DIMTAD
 70
     0
  9
$DIMZIN
 70
     0
  9
$DIMBLK
  1

  9
$DIMASO
 70
     1
  9
$DIMSHO
 70
     0
  9
$DIMPOST
  1

  9
$DIMAPOST
  1

  9
$DIMALT
 70
     0
  9
$DIMALTD
 70
     2
  9
$DIMALTF
 40
25.4
  9
$DIMLFAC
 40
1.0
  9
$DIMTOFL
 70
     0
  9
$DIMTVP
 40
0.0
  9
$DIMTIX
 70
     0
  9
$DIMSOXD
 70
     0
  9
$DIMSAH
 70
     0
  9
$DIMBLK1
  1

  9
$DIMBLK2
  1

  9
$DIMSTYLE
  2
TEAM
  9
$DIMCLRD
 70
     9
  9
$DIMCLRE
 70
     9
  9
$DIMCLRT
 70
    11
  9
$DIMTFAC
 40
1.0
  9
$DIMGAP
 40
7.0
  9
$LUNITS
 70
     2
  9
$LUPREC
 70
     1
  9
$SKETCHINC
 40
1.0
  9
$FILLETRAD
 40
50.0
  9
$AUNITS
 70
     0
  9
$AUPREC
 70
     0
  9
$MENU
  1
ROPLANS
  9
$ELEVATION
 40
0.0
  9
$PELEVATION
 40
0.0
  9
$THICKNESS
 40
0.0
  9
$LIMCHECK
 70
     0
  9
$BLIPMODE
 70
     1
  9
$CHAMFERA
 40
0.0
  9
$CHAMFERB
 40
0.0
  9
$SKPOLY
 70
     0
  9
$TDCREATE
 40
2450392.957851
  9
$TDUPDATE
 40
2456190.73555
  9
$TDINDWG
 40
2.153799
  9
$TDUSRTIMER
 40
2.153799
  9
$USRTIMER
 70
     1
  9
$ANGBASE
 50
0.0
  9
$ANGDIR
 70
     0
  9
$PDMODE
 70
     0
  9
$PDSIZE
 40
0.0
  9
$PLINEWID
 40
0.0
  9
$COORDS
 70
     2
  9
$SPLFRAME
 70
     0
  9
$SPLINETYPE
 70
     6
  9
$SPLINESEGS
 70
     8
  9
$ATTDIA
 70
     0
  9
$ATTREQ
 70
     0
  9
$HANDLING
 70
     1
  9
$HANDSEED
  5
C8
  9
$SURFTAB1
 70
    36
  9
$SURFTAB2
 70
    36
  9
$SURFTYPE
 70
     6
  9
$SURFU
 70
     6
  9
$SURFV
 70
     6
  9
$UCSNAME
  2

  9
$UCSORG
 10
0.0
 20
0.0
 30
0.0
  9
$UCSXDIR
 10
1.0
 20
0.0
 30
0.0
  9
$UCSYDIR
 10
0.0
 20
1.0
 30
0.0
  9
$PUCSNAME
  2

  9
$PUCSORG
 10
0.0
 20
0.0
 30
0.0
  9
$PUCSXDIR
 10
1.0
 20
0.0
 30
0.0
  9
$PUCSYDIR
 10
0.0
 20
1.0
 30
0.0
  9
$USERI1
 70
     0
  9
$USERI2
 70
     0
  9
$USERI3
 70
     0
  9
$USERI4
 70
     0
  9
$USERI5
 70
     0
  9
$USERR1
 40
0.0
  9
$USERR2
 40
0.0
  9
$USERR3
 40
0.0
  9
$USERR4
 40
0.0
  9
$USERR5
 40
0.0
  9
$WORLDVIEW
 70
     1
  9
$SHADEDGE
 70
     0
  9
$SHADEDIF
 70
    70
  9
$TILEMODE
 70
     1
  9
$MAXACTVP
 70
    16
  9
$PLIMCHECK
 70
     0
  9
$PEXTMIN
 10
-0.805942
 20
0.005011
 30
0.0
  9
$PEXTMAX
 10
20.250094
 20
11.356329
 30
0.0
  9
$PLIMMIN
 10
0.0
 20
0.0
  9
$PLIMMAX
 10
12.0
 20
9.0
  9
$UNITMODE
 70
     0
  9
$VISRETAIN
 70
     0
  9
$PLINEGEN
 70
     0
  9
$PSLTSCALE
 70
     0
  0
ENDSEC
  0
SECTION
  2
TABLES
  0
TABLE
  2
VPORT
 70
     2
  0
VPORT
  2
*ACTIVE
 70
     0
 10
0.0
 20
0.0
 11
1.0
 21
1.0
 12
73.921774
 22
475.888791
 13
0.0
 23
0.0
 14
1.0
 24
1.0
 15
50.0
 25
50.0
 16
0.0
 26
0.0
 36
1.0
 17
0.0
 27
0.0
 37
0.0
 40
977.907792
 41
1.911765
 42
50.0
 43
0.0
 44
0.0
 50
0.0
 51
0.0
 71
     0
 72
   100
 73
     1
 74
     1
 75
     0
 76
     0
 77
     0
 78
     0
  0
ENDTAB
  0
TABLE
  2
LTYPE
 70
     3
  0
LTYPE
  2
CONTINUOUS
 70
     0
  3
Solid Line
 72
    65
 73
     0
 40
0.0
  0
LTYPE
  2
31
 70
     0
  3

 72
    65
 73
     4
 40
2.1
 49
1.5
 49
-0.3
 49
0.0
 49
-0.3
  0
LTYPE
  2
22
 70
     0
  3

 72
    65
 73
     2
 40
1.4
 49
1.2
 49
-0.2
  0
ENDTAB
  0
TABLE
  2
LAYER
 70
    10
  0
LAYER
  2
0
 70
     0
 62
     7
  6
CONTINUOUS
  0
LAYER
  2
DEFPOINTS
 70
     0
 62
     7
  6
CONTINUOUS
  0
LAYER
  2
TEAM-BODY
 70
     0
 62
     2
  6
CONTINUOUS
  0
LAYER
  2
TEAM-AXE
 70
     0
 62
    10
  6
31
  0
LAYER
  2
TEAM-MAS
 70
     0
 62
     9
  6
CONTINUOUS
  0
LAYER
  2
TEAM-TXT
 70
     0
 62
    11
  6
CONTINUOUS
  0
LAYER
  2
TEAM-HIDE
 70
     0
 62
     8
  6
22
  0
LAYER
  2
TEAM-KAN
 70
     0
 62
     6
  6
CONTINUOUS
  0
LAYER
  2
TEAM-NET
 70
     0
 62
    15
  6
CONTINUOUS
  0
LAYER
  2
TEAM-INSP
 70
     0
 62
     5
  6
CONTINUOUS
  0
ENDTAB
  0
TABLE
  2
STYLE
 70
     2
  0
STYLE
  2
STANDARD
 70
     0
 40
0.0
 41
1.0
 50
0.0
 71
     0
 42
200.0
  3
txt
  4

  0
STYLE
  2
TEAM
 70
     0
 40
0.0
 41
0.8
 50
15.0
 71
     0
 42
7.0
  3
ROMANS.shx
  4

  0
ENDTAB
  0
TABLE
  2
VIEW
 70
     0
  0
ENDTAB
  0
TABLE
  2
UCS
 70
     0
  0
ENDTAB
  0
TABLE
  2
APPID
 70
     1
  0
APPID
  2
ACAD
 70
     0
  0
ENDTAB
  0
TABLE
  2
DIMSTYLE
 70
     1
  0
DIMSTYLE
  2
TEAM
 70
     0
  3

  4

  5

  6

  7

 40
0.0
 41
20.0
 42
10.0
 43
1.0
 44
1.0
 45
0.0
 46
0.0
 47
0.0
 48
0.0
140
35.0
141
1.0
142
0.0
143
25.4
144
1.0
145
0.0
146
1.0
147
7.0
 71
     0
 72
     0
 73
     0
 74
     0
 75
     0
 76
     0
 77
     0
 78
     0
170
     0
171
     2
172
     0
173
     0
174
     0
175
     0
176
     9
177
     9
178
    11
  0
ENDTAB
  0
ENDSEC
  0
SECTION
  2
BLOCKS
  0
BLOCK
  8
0
  2
$MODEL_SPACE
 70
     0
 10
0.0
 20
0.0
 30
0.0
  3
$MODEL_SPACE
  1

  0
ENDBLK
  5
BC
  8
0
  0
BLOCK
 67
     1
  8
0
  2
$PAPER_SPACE
 70
     0
 10
0.0
 20
0.0
 30
0.0
  3
$PAPER_SPACE
  1

  0
ENDBLK
  5
BA
 67
     1
  8
0
  0
BLOCK
  8
0
  2
*D0
 70
     1
 10
0.0
 20
0.0
 30
0.0
  3
*D0
  1

  0
LINE
  5
5E
  8
0
  6
BYBLOCK
 62
     9
 10
8172.5
 20
20900.0
 30
0.0
 11
8249.257755
 21
20900.0
 31
0.0
  0
LINE
  5
5F
  8
0
  6
BYBLOCK
 62
     9
 10
8030.0
 20
20550.0
 30
0.0
 11
8249.257755
 21
20550.0
 31
0.0
  0
LINE
  5
60
  8
0
  6
BYBLOCK
 62
     9
 10
8248.257755
 20
20880.0
 30
0.0
 11
8248.257755
 21
20721.791667
 31
0.0
  0
LINE
  5
61
  8
0
  6
BYBLOCK
 62
     9
 10
8248.257755
 20
20570.0
 30
0.0
 11
8248.257755
 21
20620.291667
 31
0.0
  0
TEXT
  5
62
  8
0
  6
BYBLOCK
 62
    11
 10
8265.757755
 20
20627.291667
 30
0.0
 40
35.0
  1
350
 50
90.0
  0
SOLID
  5
63
  8
0
  6
BYBLOCK
 62
     9
 10
8244.924421
 20
20880.0
 30
0.0
 11
8251.591088
 21
20880.0
 31
0.0
 12
8248.257755
 22
20900.0
 32
0.0
 13
8248.257755
 23
20900.0
 33
0.0
  0
SOLID
  5
64
  8
0
  6
BYBLOCK
 62
     9
 10
8244.924421
 20
20570.0
 30
0.0
 11
8251.591088
 21
20570.0
 31
0.0
 12
8248.257755
 22
20550.0
 32
0.0
 13
8248.257755
 23
20550.0
 33
0.0
  0
POINT
  5
65
  8
DEFPOINTS
  6
BYBLOCK
 62
     0
 10
8162.5
 20
20900.0
 30
20.0
  0
POINT
  5
66
  8
DEFPOINTS
  6
BYBLOCK
 62
     0
 10
8020.0
 20
20550.0
 30
20.0
  0
POINT
  5
67
  8
DEFPOINTS
  6
BYBLOCK
 62
     0
 10
8248.257755
 20
20550.0
 30
20.0
  0
ENDBLK
  5
69
  8
0
  0
BLOCK
  8
0
  2
*D1
 70
     1
 10
0.0
 20
0.0
 30
0.0
  3
*D1
  1

  0
LINE
  5
31
  8
0
  6
BYBLOCK
 62
     9
 10
8030.0
 20
20550.0
 30
0.0
 11
8249.257755
 21
20550.0
 31
0.0
  0
LINE
  5
32
  8
0
  6
BYBLOCK
 62
     9
 10
8010.0
 20
20000.0
 30
0.0
 11
8249.257755
 21
20000.0
 31
0.0
  0
LINE
  5
33
  8
0
  6
BYBLOCK
 62
     9
 10
8248.257755
 20
20530.0
 30
0.0
 11
8248.257755
 21
20325.75
 31
0.0
  0
LINE
  5
34
  8
0
  6
BYBLOCK
 62
     9
 10
8248.257755
 20
20020.0
 30
0.0
 11
8248.257755
 21
20224.25
 31
0.0
  0
SOLID
  5
35
  8
0
  6
BYBLOCK
 62
     9
 10
8244.924421
 20
20530.0
 30
0.0
 11
8251.591088
 21
20530.0
 31
0.0
 12
8248.257755
 22
20550.0
 32
0.0
 13
8248.257755
 23
20550.0
 33
0.0
  0
SOLID
  5
36
  8
0
  6
BYBLOCK
 62
     9
 10
8244.924421
 20
20020.0
 30
0.0
 11
8251.591088
 21
20020.0
 31
0.0
 12
8248.257755
 22
20000.0
 32
0.0
 13
8248.257755
 23
20000.0
 33
0.0
  0
TEXT
  5
37
  8
0
  6
BYBLOCK
 62
    11
 10
8265.757755
 20
20231.25
 30
0.0
 40
35.0
  1
550
 50
90.0
  0
POINT
  5
38
  8
DEFPOINTS
  6
BYBLOCK
 62
     0
 10
8020.0
 20
20550.0
 30
20.0
  0
POINT
  5
39
  8
DEFPOINTS
  6
BYBLOCK
 62
     0
 10
8000.0
 20
20000.0
 30
20.0
  0
POINT
  5
3A
  8
DEFPOINTS
  6
BYBLOCK
 62
     0
 10
8248.257755
 20
20000.0
 30
10.0
  0
ENDBLK
  5
3C
  8
0
  0
BLOCK
  8
0
  2
*D2
 70
     1
 10
0.0
 20
0.0
 30
0.0
  3
*D2
  1

  0
LINE
  5
22
  8
0
  6
BYBLOCK
 62
     9
 10
8172.5
 20
20900.0
 30
0.0
 11
8293.828228
 21
20900.0
 31
0.0
  0
LINE
  5
23
  8
0
  6
BYBLOCK
 62
     9
 10
8010.0
 20
20000.0
 30
0.0
 11
8293.828228
 21
20000.0
 31
0.0
  0
LINE
  5
24
  8
0
  6
BYBLOCK
 62
     9
 10
8292.828228
 20
20880.0
 30
0.0
 11
8292.828228
 21
20497.833333
 31
0.0
  0
LINE
  5
25
  8
0
  6
BYBLOCK
 62
     9
 10
8292.828228
 20
20020.0
 30
0.0
 11
8292.828228
 21
20402.166667
 31
0.0
  0
SOLID
  5
26
  8
0
  6
BYBLOCK
 62
     9
 10
8289.494894
 20
20880.0
 30
0.0
 11
8296.161561
 21
20880.0
 31
0.0
 12
8292.828228
 22
20900.0
 32
0.0
 13
8292.828228
 23
20900.0
 33
0.0
  0
SOLID
  5
27
  8
0
  6
BYBLOCK
 62
     9
 10
8289.494894
 20
20020.0
 30
0.0
 11
8296.161561
 21
20020.0
 31
0.0
 12
8292.828228
 22
20000.0
 32
0.0
 13
8292.828228
 23
20000.0
 33
0.0
  0
TEXT
  5
28
  8
0
  6
BYBLOCK
 62
    11
 10
8310.328228
 20
20409.166667
 30
0.0
 40
35.0
  1
900
 50
90.0
  0
POINT
  5
29
  8
DEFPOINTS
  6
BYBLOCK
 62
     0
 10
8162.5
 20
20900.0
 30
10.0
  0
POINT
  5
2B
  8
DEFPOINTS
  6
BYBLOCK
 62
     0
 10
8000.0
 20
20000.0
 30
10.0
  0
POINT
  5
2C
  8
DEFPOINTS
  6
BYBLOCK
 62
     0
 10
8292.828228
 20
20000.0
 30
10.0
  0
ENDBLK
  5
2E
  8
0
  0
BLOCK
  8
0
  2
*D3
 70
     1
 10
0.0
 20
0.0
 30
0.0
  3
*D3
  1

  0
LINE
  5
41
  8
0
  6
BYBLOCK
 62
     9
 10
8172.5
 20
20900.0
 30
0.0
 11
8201.167814
 21
20900.0
 31
0.0
  0
LINE
  5
42
  8
0
  6
BYBLOCK
 62
     9
 10
8172.5
 20
20610.0
 30
0.0
 11
8201.167814
 21
20610.0
 31
0.0
  0
LINE
  5
43
  8
0
  6
BYBLOCK
 62
     9
 10
8200.167814
 20
20880.0
 30
0.0
 11
8200.167814
 21
20793.019499
 31
0.0
  0
LINE
  5
44
  8
0
  6
BYBLOCK
 62
     9
 10
8200.167814
 20
20630.0
 30
0.0
 11
8200.167814
 21
20691.519499
 31
0.0
  0
TEXT
  5
45
  8
0
  6
BYBLOCK
 62
    11
 10
8217.667814
 20
20698.519499
 30
0.0
 40
35.0
  1
290
 50
90.0
  0
SOLID
  5
46
  8
0
  6
BYBLOCK
 62
     9
 10
8196.834481
 20
20880.0
 30
0.0
 11
8203.501148
 21
20880.0
 31
0.0
 12
8200.167814
 22
20900.0
 32
0.0
 13
8200.167814
 23
20900.0
 33
0.0
  0
SOLID
  5
47
  8
0
  6
BYBLOCK
 62
     9
 10
8196.834481
 20
20630.0
 30
0.0
 11
8203.501148
 21
20630.0
 31
0.0
 12
8200.167814
 22
20610.0
 32
0.0
 13
8200.167814
 23
20610.0
 33
0.0
  0
POINT
  5
48
  8
DEFPOINTS
  6
BYBLOCK
 62
     0
 10
8162.5
 20
20900.0
 30
0.0
  0
POINT
  5
49
  8
DEFPOINTS
  6
BYBLOCK
 62
     0
 10
8162.5
 20
20610.0
 30
0.0
  0
POINT
  5
4A
  8
DEFPOINTS
  6
BYBLOCK
 62
     0
 10
8200.167814
 20
20610.0
 30
10.0
  0
ENDBLK
  5
4C
  8
0
  0
BLOCK
  8
0
  2
*D4
 70
     1
 10
0.0
 20
0.0
 30
0.0
  3
*D4
  1

  0
LINE
  5
50
  8
0
  6
BYBLOCK
 62
     9
 10
7837.5
 20
20910.0
 30
0.0
 11
7837.5
 21
20945.229904
 31
0.0
  0
LINE
  5
51
  8
0
  6
BYBLOCK
 62
     9
 10
8162.5
 20
20910.0
 30
0.0
 11
8162.5
 21
20945.229904
 31
0.0
  0
LINE
  5
52
  8
0
  6
BYBLOCK
 62
     9
 10
7857.5
 20
20944.229904
 30
0.0
 11
7946.333333
 21
20944.229904
 31
0.0
  0
LINE
  5
53
  8
0
  6
BYBLOCK
 62
     9
 10
8142.5
 20
20944.229904
 30
0.0
 11
8053.666667
 21
20944.229904
 31
0.0
  0
SOLID
  5
54
  8
0
  6
BYBLOCK
 62
     9
 10
7857.5
 20
20947.563238
 30
0.0
 11
7857.5
 21
20940.896571
 31
0.0
 12
7837.5
 22
20944.229904
 32
0.0
 13
7837.5
 23
20944.229904
 33
0.0
  0
SOLID
  5
55
  8
0
  6
BYBLOCK
 62
     9
 10
8142.5
 20
20947.563238
 30
0.0
 11
8142.5
 21
20940.896571
 31
0.0
 12
8162.5
 22
20944.229904
 32
0.0
 13
8162.5
 23
20944.229904
 33
0.0
  0
TEXT
  5
56
  8
0
  6
BYBLOCK
 62
    11
 10
7953.333333
 20
20926.729904
 30
0.0
 40
35.0
  1
325
  0
POINT
  5
57
  8
DEFPOINTS
  6
BYBLOCK
 62
     0
 10
7837.5
 20
20900.0
 30
0.0
  0
POINT
  5
58
  8
DEFPOINTS
  6
BYBLOCK
 62
     0
 10
8162.5
 20
20900.0
 30
0.0
  0
POINT
  5
59
  8
DEFPOINTS
  6
BYBLOCK
 62
     0
 10
8162.5
 20
20944.229904
 30
0.0
  0
ENDBLK
  5
5B
  8
0
  0
ENDSEC
  0
SECTION
  2
ENTITIES
  0
DIMENSION
  5
20
  8
TEAM-MAS
  2
*D2
 10
292.828228
 20
0.0
 30
0.0
 11
292.828228
 21
450.0
 31
-10.0
 12
-8000.0
 22
-20000.0
 32
-10.0
 13
162.5
 23
900.0
 33
0.0
 14
0.0
 24
0.0
 34
0.0
 50
90.0
1001
ACAD
1000
DSTYLE
1002
{
1070
    40
1040
1.0
1002
}
  0
DIMENSION
  5
2F
  8
TEAM-MAS
  2
*D1
 10
248.257755
 20
0.0
 30
-10.0
 11
248.257755
 21
275.0
 31
-20.0
 12
-8000.0
 22
-20000.0
 32
-20.0
 13
20.0
 23
550.0
 33
0.0
 14
0.0
 24
0.0
 34
0.0
 50
90.0
1001
ACAD
1000
DSTYLE
1002
{
1070
    40
1040
1.0
1002
}
  0
CIRCLE
  5
3D
  8
TEAM-INSP
 10
0.0
 20
0.0
 30
0.0
 40
10.0
  0
DIMENSION
  5
3F
  8
TEAM-MAS
  2
*D3
 10
200.167814
 20
610.0
 30
10.0
 11
200.167814
 21
742.269499
 31
0.0
 12
-8000.0
 22
-20000.0
 32
0.0
 70
   128
 13
162.5
 23
900.0
 33
0.0
 14
162.5
 24
610.0
 34
0.0
 50
90.0
1001
ACAD
1000
DSTYLE
1002
{
1070
    40
1040
1.0
1002
}
  0
DIMENSION
  5
4D
  8
TEAM-NET
  2
*D4
 10
162.5
 20
944.229904
 30
0.0
 11
0.0
 21
944.229904
 31
0.0
 12
-8000.0
 22
-20000.0
 32
0.0
 13
-162.5
 23
900.0
 33
0.0
 14
162.5
 24
900.0
 34
0.0
1001
ACAD
1000
DSTYLE
1002
{
1070
    40
1040
1.0
1002
}
  0
DIMENSION
  5
5C
  8
TEAM-MAS
  2
*D0
 10
248.257755
 20
550.0
 30
0.0
 11
248.257755
 21
671.041667
 31
-20.0
 12
-8000.0
 22
-20000.0
 32
-20.0
 70
   128
 13
162.5
 23
900.0
 33
0.0
 14
20.0
 24
550.0
 34
0.0
 50
90.0
1001
ACAD
1000
DSTYLE
1002
{
1070
    40
1040
1.0
1002
}
  0
ARC
  5
6A
  8
TEAM-HIDE
 10
0.0
 20
936.180425
 30
0.0
 40
142.180425
 50
194.742087
 51
345.257913
  0
POLYLINE
  5
6D
  8
TEAM-BODY
 66
     1
 10
0.0
 20
0.0
 30
0.0
 70
     1
  0
VERTEX
  5
C2
  8
TEAM-BODY
 10
-162.5
 20
610.0
 30
0.0
  0
VERTEX
  5
C3
  8
TEAM-BODY
 10
162.5
 20
610.0
 30
0.0
  0
VERTEX
  5
C4
  8
TEAM-BODY
 10
162.5
 20
900.0
 30
0.0
  0
VERTEX
  5
C5
  8
TEAM-BODY
 10
-162.5
 20
900.0
 30
0.0
  0
SEQEND
  5
C6
  8
TEAM-BODY
  0
TEXT
  5
6F
  8
TEAM-TXT
 10
-101.99094
 20
848.910308
 30
0.0
 40
30.0
  1
team 217034
 41
0.8
 51
15.0
  7
TEAM
  0
LINE
  5
72
  8
TEAM-AXE
 10
0.0
 20
530.0
 30
0.0
 11
0.0
 21
570.0
 31
0.0
  0
LINE
  5
75
  8
TEAM-AXE
 10
20.0
 20
550.0
 30
0.0
 11
-20.0
 21
550.0
 31
0.0
  0
CIRCLE
  5
76
  8
TEAM-KAN
 10
0.0
 20
550.0
 30
0.0
 40
20.0
  0
LINE
  5
78
  8
TEAM-HIDE
 10
-20.0
 20
795.413692
 30
0.0
 11
-20.0
 21
610.0
 31
0.0
  0
LINE
  5
79
  8
TEAM-HIDE
 10
20.0
 20
610.0
 30
0.0
 11
20.0
 21
795.413692
 31
0.0
  0
LINE
  5
7A
  8
TEAM-AXE
 10
0.0
 20
608.977716
 30
0.0
 11
0.0
 21
900.0
 31
0.0
  0
LINE
  5
7B
  8
TEAM-AXE
 10
0.0
 20
614.450347
 30
0.0
 11
0.0
 21
589.59579
 31
0.0
  0
ENDSEC
  0
EOF
