  0
SECTION
  2
HEADER
  9
$ACADVER
  1
AC1009
  9
$INSBASE
 10
0.0
 20
0.0
 30
0.0
  9
$EXTMIN
 10
-237.433093
 20
-422.439736
 30
-0.001526
  9
$EXTMAX
 10
330.446561
 20
52.698923
 30
0.0
  9
$LIMMIN
 10
-237.433093
 20
-422.439736
  9
$LIMMAX
 10
330.446561
 20
52.698923
  9
$ORTHOMODE
 70
     1
  9
$REGENMODE
 70
     1
  9
$FILLMODE
 70
     1
  9
$QTEXTMODE
 70
     0
  9
$MIRRTEXT
 70
     0
  9
$DRAGMODE
 70
     2
  9
$LTSCALE
 40
25.0
  9
$OSMODE
 70
     0
  9
$ATTMODE
 70
     1
  9
$TEXTSIZE
 40
200.0
  9
$TRACEWID
 40
1.0
  9
$TEXTSTYLE
  7
STANDARD
  9
$CLAYER
  8
TEAM-MAS
  9
$CELTYPE
  6
BYLAYER
  9
$CECOLOR
 62
   256
  9
$DIMSCALE
 40
1.0
  9
$DIMASZ
 40
20.0
  9
$DIMEXO
 40
10.0
  9
$DIMDLI
 40
1.0
  9
$DIMRND
 40
0.0
  9
$DIMDLE
 40
0.0
  9
$DIMEXE
 40
1.0
  9
$DIMTP
 40
0.0
  9
$DIMTM
 40
0.0
  9
$DIMTXT
 40
35.0
  9
$DIMCEN
 40
1.0
  9
$DIMTSZ
 40
0.0
  9
$DIMTOL
 70
     0
  9
$DIMLIM
 70
     0
  9
$DIMTIH
 70
     0
  9
$DIMTOH
 70
     0
  9
$DIMSE1
 70
     0
  9
$DIMSE2
 70
     0
  9
$DIMTAD
 70
     0
  9
$DIMZIN
 70
     0
  9
$DIMBLK
  1

  9
$DIMASO
 70
     1
  9
$DIMSHO
 70
     0
  9
$DIMPOST
  1

  9
$DIMAPOST
  1

  9
$DIMALT
 70
     0
  9
$DIMALTD
 70
     2
  9
$DIMALTF
 40
25.4
  9
$DIMLFAC
 40
1.0
  9
$DIMTOFL
 70
     0
  9
$DIMTVP
 40
0.0
  9
$DIMTIX
 70
     0
  9
$DIMSOXD
 70
     0
  9
$DIMSAH
 70
     0
  9
$DIMBLK1
  1

  9
$DIMBLK2
  1

  9
$DIMSTYLE
  2
TEAM
  9
$DIMCLRD
 70
     9
  9
$DIMCLRE
 70
     9
  9
$DIMCLRT
 70
    11
  9
$DIMTFAC
 40
1.0
  9
$DIMGAP
 40
15.0
  9
$LUNITS
 70
     2
  9
$LUPREC
 70
     1
  9
$SKETCHINC
 40
1.0
  9
$FILLETRAD
 40
50.0
  9
$AUNITS
 70
     0
  9
$AUPREC
 70
     0
  9
$MENU
  1
ROPLANS
  9
$ELEVATION
 40
0.0
  9
$PELEVATION
 40
0.0
  9
$THICKNESS
 40
0.0
  9
$LIMCHECK
 70
     0
  9
$BLIPMODE
 70
     1
  9
$CHAMFERA
 40
0.0
  9
$CHAMFERB
 40
0.0
  9
$SKPOLY
 70
     0
  9
$TDCREATE
 40
2450392.957851
  9
$TDUPDATE
 40
2455542.719065
  9
$TDINDWG
 40
2.657896
  9
$TDUSRTIMER
 40
2.657896
  9
$USRTIMER
 70
     1
  9
$ANGBASE
 50
0.0
  9
$ANGDIR
 70
     0
  9
$PDMODE
 70
     0
  9
$PDSIZE
 40
0.0
  9
$PLINEWID
 40
0.0
  9
$COORDS
 70
     2
  9
$SPLFRAME
 70
     0
  9
$SPLINETYPE
 70
     6
  9
$SPLINESEGS
 70
     8
  9
$ATTDIA
 70
     0
  9
$ATTREQ
 70
     0
  9
$HANDLING
 70
     1
  9
$HANDSEED
  5
A3
  9
$SURFTAB1
 70
    36
  9
$SURFTAB2
 70
    36
  9
$SURFTYPE
 70
     6
  9
$SURFU
 70
     6
  9
$SURFV
 70
     6
  9
$UCSNAME
  2

  9
$UCSORG
 10
0.0
 20
0.0
 30
0.0
  9
$UCSXDIR
 10
1.0
 20
0.0
 30
0.0
  9
$UCSYDIR
 10
0.0
 20
1.0
 30
0.0
  9
$PUCSNAME
  2

  9
$PUCSORG
 10
0.0
 20
0.0
 30
0.0
  9
$PUCSXDIR
 10
1.0
 20
0.0
 30
0.0
  9
$PUCSYDIR
 10
0.0
 20
1.0
 30
0.0
  9
$USERI1
 70
     0
  9
$USERI2
 70
     0
  9
$USERI3
 70
     0
  9
$USERI4
 70
     0
  9
$USERI5
 70
     0
  9
$USERR1
 40
0.0
  9
$USERR2
 40
0.0
  9
$USERR3
 40
0.0
  9
$USERR4
 40
0.0
  9
$USERR5
 40
0.0
  9
$WORLDVIEW
 70
     1
  9
$SHADEDGE
 70
     0
  9
$SHADEDIF
 70
    70
  9
$TILEMODE
 70
     1
  9
$MAXACTVP
 70
    16
  9
$PLIMCHECK
 70
     0
  9
$PEXTMIN
 10
-0.805942
 20
0.005011
 30
0.0
  9
$PEXTMAX
 10
20.250094
 20
11.356329
 30
0.0
  9
$PLIMMIN
 10
0.0
 20
0.0
  9
$PLIMMAX
 10
12.0
 20
9.0
  9
$UNITMODE
 70
     0
  9
$VISRETAIN
 70
     0
  9
$PLINEGEN
 70
     0
  9
$PSLTSCALE
 70
     0
  0
ENDSEC
  0
SECTION
  2
TABLES
  0
TABLE
  2
VPORT
 70
     2
  0
VPORT
  2
*ACTIVE
 70
     0
 10
0.0
 20
0.0
 11
1.0
 21
1.0
 12
46.506734
 22
-184.870407
 13
0.0
 23
0.0
 14
1.0
 24
1.0
 15
50.0
 25
50.0
 16
0.0
 26
0.0
 36
1.0
 17
0.0
 27
0.0
 37
0.0
 40
478.056604
 41
1.865779
 42
50.0
 43
0.0
 44
0.0
 50
0.0
 51
0.0
 71
     0
 72
   100
 73
     1
 74
     1
 75
     0
 76
     0
 77
     0
 78
     0
  0
ENDTAB
  0
TABLE
  2
LTYPE
 70
     2
  0
LTYPE
  2
CONTINUOUS
 70
     0
  3
Solid Line
 72
    65
 73
     0
 40
0.0
  0
LTYPE
  2
31
 70
     0
  3

 72
    65
 73
     4
 40
2.1
 49
1.5
 49
-0.3
 49
0.0
 49
-0.3
  0
ENDTAB
  0
TABLE
  2
LAYER
 70
     8
  0
LAYER
  2
0
 70
     0
 62
     7
  6
CONTINUOUS
  0
LAYER
  2
DEFPOINTS
 70
     0
 62
     7
  6
CONTINUOUS
  0
LAYER
  2
TEAM-BODY
 70
     0
 62
     2
  6
CONTINUOUS
  0
LAYER
  2
TEAM-AXE
 70
     0
 62
    10
  6
31
  0
LAYER
  2
TEAM-MAS
 70
     0
 62
     9
  6
CONTINUOUS
  0
LAYER
  2
TEAM-TXT
 70
     0
 62
    11
  6
CONTINUOUS
  0
LAYER
  2
TEAM-DET1
 70
     0
 62
     4
  6
CONTINUOUS
  0
LAYER
  2
TEAM-INSP
 70
     0
 62
     5
  6
CONTINUOUS
  0
ENDTAB
  0
TABLE
  2
STYLE
 70
     2
  0
STYLE
  2
STANDARD
 70
     0
 40
0.0
 41
1.0
 50
0.0
 71
     0
 42
200.0
  3
txt
  4

  0
STYLE
  2
TEAM
 70
     0
 40
0.0
 41
0.8
 50
15.0
 71
     0
 42
7.0
  3
ROMANS.shx
  4

  0
ENDTAB
  0
TABLE
  2
VIEW
 70
     0
  0
ENDTAB
  0
TABLE
  2
UCS
 70
     0
  0
ENDTAB
  0
TABLE
  2
APPID
 70
     1
  0
APPID
  2
ACAD
 70
     0
  0
ENDTAB
  0
TABLE
  2
DIMSTYLE
 70
     1
  0
DIMSTYLE
  2
TEAM
 70
     0
  3

  4

  5

  6

  7

 40
1.0
 41
20.0
 42
10.0
 43
1.0
 44
1.0
 45
0.0
 46
0.0
 47
0.0
 48
0.0
140
35.0
141
1.0
142
0.0
143
25.4
144
1.0
145
0.0
146
1.0
147
15.0
 71
     0
 72
     0
 73
     0
 74
     0
 75
     0
 76
     0
 77
     0
 78
     0
170
     0
171
     2
172
     0
173
     0
174
     0
175
     0
176
     9
177
     9
178
    11
  0
ENDTAB
  0
ENDSEC
  0
SECTION
  2
BLOCKS
  0
BLOCK
  8
0
  2
$MODEL_SPACE
 70
     0
 10
0.0
 20
0.0
 30
0.0
  3
$MODEL_SPACE
  1

  0
ENDBLK
  5
9C
  8
0
  0
BLOCK
 67
     1
  8
0
  2
$PAPER_SPACE
 70
     0
 10
0.0
 20
0.0
 30
0.0
  3
$PAPER_SPACE
  1

  0
ENDBLK
  5
9A
 67
     1
  8
0
  0
BLOCK
  8
0
  2
*D0
 70
     1
 10
0.0
 20
0.0
 30
0.0
  3
*D0
  1

  0
LINE
  5
35
  8
0
  6
BYBLOCK
 62
     9
 10
3775.0
 20
72010.0
 30
0.0
 11
3775.0
 21
72037.921022
 31
0.0
  0
LINE
  5
36
  8
0
  6
BYBLOCK
 62
     9
 10
4225.0
 20
72010.0
 30
0.0
 11
4225.0
 21
72037.921022
 31
0.0
  0
LINE
  5
37
  8
0
  6
BYBLOCK
 62
     9
 10
3795.0
 20
72036.921022
 30
0.0
 11
3951.73622
 21
72036.921022
 31
0.0
  0
LINE
  5
38
  8
0
  6
BYBLOCK
 62
     9
 10
4205.0
 20
72036.921022
 30
0.0
 11
4048.26378
 21
72036.921022
 31
0.0
  0
TEXT
  5
39
  8
0
  6
BYBLOCK
 62
    11
 10
3961.48622
 20
72019.421022
 30
0.0
 40
35.0
  1
450
  0
SOLID
  5
3A
  8
0
  6
BYBLOCK
 62
     9
 10
3795.0
 20
72040.254356
 30
0.0
 11
3795.0
 21
72033.587689
 31
0.0
 12
3775.0
 22
72036.921022
 32
0.0
 13
3775.0
 23
72036.921022
 33
0.0
  0
SOLID
  5
3B
  8
0
  6
BYBLOCK
 62
     9
 10
4205.0
 20
72040.254356
 30
0.0
 11
4205.0
 21
72033.587689
 31
0.0
 12
4225.0
 22
72036.921022
 32
0.0
 13
4225.0
 23
72036.921022
 33
0.0
  0
POINT
  5
3C
  8
DEFPOINTS
  6
BYBLOCK
 62
     0
 10
3775.0
 20
72000.0
 30
0.0
  0
POINT
  5
3E
  8
DEFPOINTS
  6
BYBLOCK
 62
     0
 10
4225.0
 20
72000.0
 30
0.0
  0
POINT
  5
3F
  8
DEFPOINTS
  6
BYBLOCK
 62
     0
 10
4225.0
 20
72036.921022
 30
0.0
  0
ENDBLK
  5
41
  8
0
  0
BLOCK
  8
0
  2
*D1
 70
     1
 10
0.0
 20
0.0
 30
0.0
  3
*D1
  1

  0
LINE
  5
5C
  8
0
  6
BYBLOCK
 62
     9
 10
4232.203419
 20
72000.0
 30
0.0
 11
4270.330001
 21
72000.0
 31
0.0
  0
LINE
  5
5D
  8
0
  6
BYBLOCK
 62
     9
 10
4062.518438
 20
71788.0
 30
0.0
 11
4270.330001
 21
71788.0
 31
0.0
  0
LINE
  5
5E
  8
0
  6
BYBLOCK
 62
     9
 10
4269.330001
 20
71980.0
 30
0.0
 11
4269.330001
 21
71956.995423
 31
0.0
  0
LINE
  5
5F
  8
0
  6
BYBLOCK
 62
     9
 10
4269.330001
 20
71808.0
 30
0.0
 11
4269.330001
 21
71868.004577
 31
0.0
  0
TEXT
  5
60
  8
0
  6
BYBLOCK
 62
    11
 10
4286.830001
 20
71878.643356
 30
0.0
 40
35.0
  1
212
 50
90.0
  0
SOLID
  5
61
  8
0
  6
BYBLOCK
 62
     9
 10
4265.996668
 20
71980.0
 30
0.0
 11
4272.663334
 21
71980.0
 31
0.0
 12
4269.330001
 22
72000.0
 32
0.0
 13
4269.330001
 23
72000.0
 33
0.0
  0
SOLID
  5
62
  8
0
  6
BYBLOCK
 62
     9
 10
4265.996668
 20
71808.0
 30
0.0
 11
4272.663334
 21
71808.0
 31
0.0
 12
4269.330001
 22
71788.0
 32
0.0
 13
4269.330001
 23
71788.0
 33
0.0
  0
POINT
  5
63
  8
DEFPOINTS
  6
BYBLOCK
 62
     0
 10
4222.203419
 20
72000.0
 30
0.0
  0
POINT
  5
64
  8
DEFPOINTS
  6
BYBLOCK
 62
     0
 10
4052.518438
 20
71788.0
 30
0.0
  0
POINT
  5
65
  8
DEFPOINTS
  6
BYBLOCK
 62
     0
 10
4269.330001
 20
71788.0
 30
0.0
  0
ENDBLK
  5
67
  8
0
  0
BLOCK
  8
0
  2
*D2
 70
     1
 10
0.0
 20
0.0
 30
0.0
  3
*D2
  1

  0
LINE
  5
44
  8
0
  6
BYBLOCK
 62
     9
 10
4175.0
 20
71590.0
 30
0.0
 11
4315.66583
 21
71590.0
 31
0.0
  0
LINE
  5
45
  8
0
  6
BYBLOCK
 62
     9
 10
4022.518438
 20
72000.0
 30
0.0
 11
4315.66583
 21
72000.0
 31
0.0
  0
LINE
  5
46
  8
0
  6
BYBLOCK
 62
     9
 10
4314.66583
 20
71610.0
 30
0.0
 11
4314.66583
 21
71760.23622
 31
0.0
  0
LINE
  5
47
  8
0
  6
BYBLOCK
 62
     9
 10
4314.66583
 20
71980.0
 30
0.0
 11
4314.66583
 21
71849.76378
 31
0.0
  0
TEXT
  5
48
  8
0
  6
BYBLOCK
 62
    11
 10
4332.16583
 20
71769.98622
 30
0.0
 40
35.0
  1
410
 50
90.0
  0
SOLID
  5
49
  8
0
  6
BYBLOCK
 62
     9
 10
4311.332497
 20
71610.0
 30
0.0
 11
4317.999164
 21
71610.0
 31
0.0
 12
4314.66583
 22
71590.0
 32
0.0
 13
4314.66583
 23
71590.0
 33
0.0
  0
SOLID
  5
4A
  8
0
  6
BYBLOCK
 62
     9
 10
4311.332497
 20
71980.0
 30
0.0
 11
4317.999164
 21
71980.0
 31
0.0
 12
4314.66583
 22
72000.0
 32
0.0
 13
4314.66583
 23
72000.0
 33
0.0
  0
POINT
  5
4B
  8
DEFPOINTS
  6
BYBLOCK
 62
     0
 10
4165.0
 20
71590.0
 30
0.0
  0
POINT
  5
4C
  8
DEFPOINTS
  6
BYBLOCK
 62
     0
 10
4012.518438
 20
72000.0
 30
0.0
  0
POINT
  5
4D
  8
DEFPOINTS
  6
BYBLOCK
 62
     0
 10
4314.66583
 20
72000.0
 30
0.0
  0
ENDBLK
  5
4F
  8
0
  0
ENDSEC
  0
SECTION
  2
ENTITIES
  0
ARC
  5
20
  8
TEAM-BODY
 10
0.0
 20
-540.853249
 30
0.0
 40
200.0
 50
59.558752
 51
120.441248
  0
ARC
  5
22
  8
TEAM-BODY
 10
379.850258
 20
-239.0
 30
0.0
 40
200.0
 50
162.612963
 51
197.387037
  0
ARC
  5
23
  8
TEAM-BODY
 10
-379.850259
 20
-239.0
 30
0.0
 40
200.0
 50
342.612963
 51
17.387037
  0
ARC
  5
24
  8
TEAM-BODY
 10
0.0
 20
62.853249
 30
0.0
 40
200.0
 50
239.558752
 51
300.441248
  0
ARC
  5
25
  8
TEAM-BODY
 10
-131.730189
 20
-316.694472
 30
0.0
 40
60.0
 50
162.612963
 51
300.441248
  0
ARC
  5
26
  8
TEAM-BODY
 10
-131.730189
 20
-161.305528
 30
0.0
 40
60.0
 50
59.558752
 51
197.387037
  0
ARC
  5
27
  8
TEAM-BODY
 10
131.730189
 20
-316.694472
 30
0.0
 40
60.0
 50
239.558752
 51
17.387037
  0
ARC
  5
28
  8
TEAM-BODY
 10
131.730189
 20
-161.305528
 30
0.0
 40
60.0
 50
342.612963
 51
120.441248
  0
ARC
  5
29
  8
TEAM-BODY
 10
165.0
 20
-350.0
 30
0.0
 40
60.0
 50
270.0
 51
0.0
  0
ARC
  5
2A
  8
TEAM-BODY
 10
-165.0
 20
-350.0
 30
0.0
 40
60.0
 50
180.0
 51
270.0
  0
LINE
  5
2B
  8
TEAM-BODY
 10
-225.0
 20
0.0
 30
0.0
 11
12.518438
 21
0.0
 31
0.0
  0
LINE
  5
2C
  8
TEAM-BODY
 10
-225.0
 20
-350.0
 30
0.0
 11
-225.0
 21
0.0
 31
0.0
  0
LINE
  5
2D
  8
TEAM-BODY
 10
165.0
 20
-410.0
 30
0.0
 11
-165.0
 21
-410.0
 31
0.0
  0
LINE
  5
2E
  8
TEAM-BODY
 10
225.0
 20
0.0
 30
0.0
 11
225.0
 21
-350.0
 31
0.0
  0
LINE
  5
2F
  8
TEAM-BODY
 10
222.203419
 20
0.0
 30
0.0
 11
225.0
 21
0.0
 31
0.0
  0
LINE
  5
30
  8
TEAM-BODY
 10
12.518438
 20
0.0
 30
0.0
 11
222.203419
 21
0.0
 31
0.0
  0
CIRCLE
  5
31
  8
TEAM-INSP
 10
0.0
 20
0.0
 30
0.0
 40
10.0
  0
DIMENSION
  5
33
  8
TEAM-MAS
  2
*D0
 10
225.0
 20
36.921022
 30
0.0
 11
0.0
 21
36.921022
 31
0.0
 12
-4000.0
 22
-72000.0
 32
0.0
 70
   128
 13
-225.0
 23
0.0
 33
0.0
 14
225.0
 24
0.0
 34
0.0
1001
ACAD
1000
DSTYLE
1002
{
1070
    40
1040
1.0
1002
}
  0
DIMENSION
  5
42
  8
TEAM-MAS
  2
*D2
 10
314.66583
 20
0.0
 30
0.0
 11
314.66583
 21
-195.0
 31
0.0
 12
-4000.0
 22
-72000.0
 32
0.0
 70
   128
 13
165.0
 23
-410.0
 33
0.0
 14
12.518438
 24
0.0
 34
0.0
 50
90.0
1001
ACAD
1000
DSTYLE
1002
{
1070
    40
1040
1.0
1002
}
  0
TEXT
  5
50
  8
TEAM-TXT
 10
-96.318442
 20
-308.287499
 30
0.0
 40
30.0
  1
team 221048
 41
0.8
 51
15.0
  7
TEAM
  0
CIRCLE
  5
53
  8
TEAM-DET1
 10
0.0
 20
-212.0
 30
0.0
 40
30.0
  0
LINE
  5
55
  8
TEAM-AXE
 10
-40.0
 20
-212.0
 30
0.0
 11
40.0
 21
-212.0
 31
0.0
  0
LINE
  5
58
  8
TEAM-AXE
 10
0.0
 20
-252.0
 30
0.0
 11
0.0
 21
-172.0
 31
0.0
  0
CIRCLE
  5
59
  8
TEAM-BODY
 10
0.0
 20
-212.0
 30
0.0
 40
20.0
  0
DIMENSION
  5
5A
  8
TEAM-MAS
  2
*D1
 10
269.330001
 20
-212.0
 30
0.0
 11
269.330001
 21
-87.5
 31
0.0
 12
-4000.0
 22
-72000.0
 32
0.0
 70
   128
 13
222.203419
 23
0.0
 33
0.0
 14
52.518438
 24
-212.0
 34
0.0
 50
90.0
1001
ACAD
1000
DSTYLE
1002
{
1070
    40
1040
1.0
1002
}
  0
LINE
  5
68
  8
TEAM-AXE
 10
0.0
 20
-100.0
 30
0.0
 11
0.0
 21
-20.0
 31
0.0
  0
LINE
  5
69
  8
TEAM-AXE
 10
-40.0
 20
-60.0
 30
0.0
 11
40.0
 21
-60.0
 31
0.0
  0
CIRCLE
  5
6A
  8
TEAM-DET1
 10
0.0
 20
-60.0
 30
0.0
 40
20.0
  0
ENDSEC
  0
EOF
