  0
SECTION
  2
HEADER
  9
$ACADVER
  1
AC1009
  9
$INSBASE
 10
0.0
 20
0.0
 30
0.0
  9
$EXTMIN
 10
-180.875669
 20
-10.054097
 30
0.0
  9
$EXTMAX
 10
595.480764
 20
939.245927
 30
0.0
  9
$LIMMIN
 10
-180.875669
 20
-10.054097
  9
$LIMMAX
 10
595.480764
 20
939.245927
  9
$ORTHOMODE
 70
     1
  9
$REGENMODE
 70
     1
  9
$FILLMODE
 70
     1
  9
$QTEXTMODE
 70
     0
  9
$MIRRTEXT
 70
     0
  9
$DRAGMODE
 70
     2
  9
$LTSCALE
 40
25.0
  9
$OSMODE
 70
     0
  9
$ATTMODE
 70
     1
  9
$TEXTSIZE
 40
200.0
  9
$TRACEWID
 40
1.0
  9
$TEXTSTYLE
  7
STANDARD
  9
$CLAYER
  8
TEAM-MAS
  9
$CELTYPE
  6
BYLAYER
  9
$CECOLOR
 62
   256
  9
$DIMSCALE
 40
0.0
  9
$DIMASZ
 40
20.0
  9
$DIMEXO
 40
10.0
  9
$DIMDLI
 40
1.0
  9
$DIMRND
 40
0.0
  9
$DIMDLE
 40
0.0
  9
$DIMEXE
 40
1.0
  9
$DIMTP
 40
0.0
  9
$DIMTM
 40
0.0
  9
$DIMTXT
 40
35.0
  9
$DIMCEN
 40
1.0
  9
$DIMTSZ
 40
0.0
  9
$DIMTOL
 70
     0
  9
$DIMLIM
 70
     0
  9
$DIMTIH
 70
     0
  9
$DIMTOH
 70
     0
  9
$DIMSE1
 70
     0
  9
$DIMSE2
 70
     0
  9
$DIMTAD
 70
     0
  9
$DIMZIN
 70
     0
  9
$DIMBLK
  1

  9
$DIMASO
 70
     1
  9
$DIMSHO
 70
     0
  9
$DIMPOST
  1

  9
$DIMAPOST
  1

  9
$DIMALT
 70
     0
  9
$DIMALTD
 70
     2
  9
$DIMALTF
 40
25.4
  9
$DIMLFAC
 40
1.0
  9
$DIMTOFL
 70
     0
  9
$DIMTVP
 40
0.0
  9
$DIMTIX
 70
     0
  9
$DIMSOXD
 70
     0
  9
$DIMSAH
 70
     0
  9
$DIMBLK1
  1

  9
$DIMBLK2
  1

  9
$DIMSTYLE
  2
TEAM
  9
$DIMCLRD
 70
     9
  9
$DIMCLRE
 70
     9
  9
$DIMCLRT
 70
    11
  9
$DIMTFAC
 40
1.0
  9
$DIMGAP
 40
15.0
  9
$LUNITS
 70
     2
  9
$LUPREC
 70
     1
  9
$SKETCHINC
 40
1.0
  9
$FILLETRAD
 40
50.0
  9
$AUNITS
 70
     0
  9
$AUPREC
 70
     0
  9
$MENU
  1
ROPLANS
  9
$ELEVATION
 40
0.0
  9
$PELEVATION
 40
0.0
  9
$THICKNESS
 40
0.0
  9
$LIMCHECK
 70
     0
  9
$BLIPMODE
 70
     1
  9
$CHAMFERA
 40
0.0
  9
$CHAMFERB
 40
0.0
  9
$SKPOLY
 70
     0
  9
$TDCREATE
 40
2450392.957851
  9
$TDUPDATE
 40
2455505.390806
  9
$TDINDWG
 40
2.108696
  9
$TDUSRTIMER
 40
2.108696
  9
$USRTIMER
 70
     1
  9
$ANGBASE
 50
0.0
  9
$ANGDIR
 70
     0
  9
$PDMODE
 70
     0
  9
$PDSIZE
 40
0.0
  9
$PLINEWID
 40
0.0
  9
$COORDS
 70
     2
  9
$SPLFRAME
 70
     0
  9
$SPLINETYPE
 70
     6
  9
$SPLINESEGS
 70
     8
  9
$ATTDIA
 70
     0
  9
$ATTREQ
 70
     0
  9
$HANDLING
 70
     1
  9
$HANDSEED
  5
1B6
  9
$SURFTAB1
 70
    24
  9
$SURFTAB2
 70
    24
  9
$SURFTYPE
 70
     6
  9
$SURFU
 70
     6
  9
$SURFV
 70
     6
  9
$UCSNAME
  2

  9
$UCSORG
 10
0.0
 20
0.0
 30
0.0
  9
$UCSXDIR
 10
1.0
 20
0.0
 30
0.0
  9
$UCSYDIR
 10
0.0
 20
1.0
 30
0.0
  9
$PUCSNAME
  2

  9
$PUCSORG
 10
0.0
 20
0.0
 30
0.0
  9
$PUCSXDIR
 10
1.0
 20
0.0
 30
0.0
  9
$PUCSYDIR
 10
0.0
 20
1.0
 30
0.0
  9
$USERI1
 70
     0
  9
$USERI2
 70
     0
  9
$USERI3
 70
     0
  9
$USERI4
 70
     0
  9
$USERI5
 70
     0
  9
$USERR1
 40
0.0
  9
$USERR2
 40
0.0
  9
$USERR3
 40
0.0
  9
$USERR4
 40
0.0
  9
$USERR5
 40
0.0
  9
$WORLDVIEW
 70
     1
  9
$SHADEDGE
 70
     0
  9
$SHADEDIF
 70
    70
  9
$TILEMODE
 70
     1
  9
$MAXACTVP
 70
    16
  9
$PLIMCHECK
 70
     0
  9
$PEXTMIN
 10
-0.805942
 20
0.005011
 30
0.0
  9
$PEXTMAX
 10
20.250094
 20
11.356329
 30
0.0
  9
$PLIMMIN
 10
0.0
 20
0.0
  9
$PLIMMAX
 10
12.0
 20
9.0
  9
$UNITMODE
 70
     0
  9
$VISRETAIN
 70
     0
  9
$PLINEGEN
 70
     0
  9
$PSLTSCALE
 70
     0
  0
ENDSEC
  0
SECTION
  2
TABLES
  0
TABLE
  2
VPORT
 70
     2
  0
VPORT
  2
*ACTIVE
 70
     0
 10
0.0
 20
0.0
 11
1.0
 21
1.0
 12
207.302547
 22
464.595915
 13
0.0
 23
0.0
 14
1.0
 24
1.0
 15
50.0
 25
50.0
 16
0.0
 26
0.0
 36
1.0
 17
0.0
 27
0.0
 37
0.0
 40
955.129912
 41
1.865779
 42
50.0
 43
0.0
 44
0.0
 50
0.0
 51
0.0
 71
     0
 72
   100
 73
     1
 74
     1
 75
     0
 76
     0
 77
     0
 78
     0
  0
ENDTAB
  0
TABLE
  2
LTYPE
 70
     3
  0
LTYPE
  2
CONTINUOUS
 70
     0
  3
Solid Line
 72
    65
 73
     0
 40
0.0
  0
LTYPE
  2
31
 70
     0
  3

 72
    65
 73
     4
 40
2.1
 49
1.5
 49
-0.3
 49
0.0
 49
-0.3
  0
LTYPE
  2
22
 70
     0
  3

 72
    65
 73
     2
 40
1.4
 49
1.2
 49
-0.2
  0
ENDTAB
  0
TABLE
  2
LAYER
 70
    12
  0
LAYER
  2
0
 70
     0
 62
     7
  6
CONTINUOUS
  0
LAYER
  2
DEFPOINTS
 70
     0
 62
     7
  6
CONTINUOUS
  0
LAYER
  2
TEAM-BODY
 70
     0
 62
     2
  6
CONTINUOUS
  0
LAYER
  2
TEAM-AXE
 70
     0
 62
    10
  6
31
  0
LAYER
  2
TEAM-MAS
 70
     0
 62
     9
  6
CONTINUOUS
  0
LAYER
  2
TEAM-TXT
 70
     0
 62
    11
  6
CONTINUOUS
  0
LAYER
  2
TEAM-DET1
 70
     0
 62
     4
  6
CONTINUOUS
  0
LAYER
  2
TEAM-COLD
 70
     0
 62
     3
  6
CONTINUOUS
  0
LAYER
  2
TEAM-HIDE
 70
     0
 62
     8
  6
22
  0
LAYER
  2
TEAM-KAN
 70
     0
 62
     6
  6
CONTINUOUS
  0
LAYER
  2
TEAM-WARM
 70
     0
 62
     1
  6
CONTINUOUS
  0
LAYER
  2
TEAM-INSP
 70
     0
 62
     5
  6
CONTINUOUS
  0
ENDTAB
  0
TABLE
  2
STYLE
 70
     2
  0
STYLE
  2
STANDARD
 70
     0
 40
0.0
 41
1.0
 50
0.0
 71
     0
 42
200.0
  3
txt
  4

  0
STYLE
  2
TEAM
 70
     0
 40
0.0
 41
0.8
 50
15.0
 71
     0
 42
7.0
  3
ROMANS.shx
  4

  0
ENDTAB
  0
TABLE
  2
VIEW
 70
     0
  0
ENDTAB
  0
TABLE
  2
UCS
 70
     0
  0
ENDTAB
  0
TABLE
  2
APPID
 70
     1
  0
APPID
  2
ACAD
 70
     0
  0
ENDTAB
  0
TABLE
  2
DIMSTYLE
 70
     1
  0
DIMSTYLE
  2
TEAM
 70
     0
  3

  4

  5

  6

  7

 40
0.0
 41
20.0
 42
10.0
 43
1.0
 44
1.0
 45
0.0
 46
0.0
 47
0.0
 48
0.0
140
35.0
141
1.0
142
0.0
143
25.4
144
1.0
145
0.0
146
1.0
147
15.0
 71
     0
 72
     0
 73
     0
 74
     0
 75
     0
 76
     0
 77
     0
 78
     0
170
     0
171
     2
172
     0
173
     0
174
     0
175
     0
176
     9
177
     9
178
    11
  0
ENDTAB
  0
ENDSEC
  0
SECTION
  2
BLOCKS
  0
BLOCK
  8
0
  2
$MODEL_SPACE
 70
     0
 10
0.0
 20
0.0
 30
0.0
  3
$MODEL_SPACE
  1

  0
ENDBLK
  5
19C
  8
0
  0
BLOCK
 67
     1
  8
0
  2
$PAPER_SPACE
 70
     0
 10
0.0
 20
0.0
 30
0.0
  3
$PAPER_SPACE
  1

  0
ENDBLK
  5
19A
 67
     1
  8
0
  0
BLOCK
  8
0
  2
*D0
 70
     1
 10
0.0
 20
0.0
 30
0.0
  3
*D0
  1

  0
LINE
  5
BC
  8
0
  6
BYBLOCK
 62
     9
 10
180.276438
 20
88850.0
 30
0.0
 11
261.068374
 21
88850.0
 31
0.0
  0
LINE
  5
BD
  8
0
  6
BYBLOCK
 62
     9
 10
130.0
 20
88800.0
 30
0.0
 11
261.068374
 21
88800.0
 31
0.0
  0
LINE
  5
BE
  8
0
  6
BYBLOCK
 62
     9
 10
260.068374
 20
88870.0
 30
0.0
 11
260.068374
 21
88890.0
 31
0.0
  0
LINE
  5
BF
  8
0
  6
BYBLOCK
 62
     9
 10
260.068374
 20
88780.0
 30
0.0
 11
260.068374
 21
88760.0
 31
0.0
  0
TEXT
  5
C0
  8
0
  6
BYBLOCK
 62
    11
 10
278.568374
 20
88739.119748
 30
0.0
 40
35.0
  1
50
 50
90.0
  0
LINE
  5
C1
  8
0
  6
BYBLOCK
 62
     9
 10
260.068374
 20
88850.0
 30
0.0
 11
260.068374
 21
88800.0
 31
0.0
  0
SOLID
  5
C2
  8
0
  6
BYBLOCK
 62
     9
 10
256.73504
 20
88870.0
 30
0.0
 11
263.401707
 21
88870.0
 31
0.0
 12
260.068374
 22
88850.0
 32
0.0
 13
260.068374
 23
88850.0
 33
0.0
  0
SOLID
  5
C3
  8
0
  6
BYBLOCK
 62
     9
 10
256.73504
 20
88780.0
 30
0.0
 11
263.401707
 21
88780.0
 31
0.0
 12
260.068374
 22
88800.0
 32
0.0
 13
260.068374
 23
88800.0
 33
0.0
  0
POINT
  5
C4
  8
DEFPOINTS
  6
BYBLOCK
 62
     0
 10
170.276438
 20
88850.0
 30
0.0
  0
POINT
  5
C5
  8
DEFPOINTS
  6
BYBLOCK
 62
     0
 10
120.0
 20
88800.0
 30
0.0
  0
POINT
  5
C6
  8
DEFPOINTS
  6
BYBLOCK
 62
     0
 10
260.068374
 20
88800.0
 30
0.0
  0
ENDBLK
  5
C8
  8
0
  0
BLOCK
  8
0
  2
*D1
 70
     1
 10
0.0
 20
0.0
 30
0.0
  3
*D1
  1

  0
LINE
  5
77
  8
0
  6
BYBLOCK
 62
     9
 10
180.276438
 20
88850.0
 30
0.0
 11
335.490861
 21
88850.0
 31
0.0
  0
LINE
  5
78
  8
0
  6
BYBLOCK
 62
     9
 10
47.5
 20
88700.0
 30
0.0
 11
335.490861
 21
88700.0
 31
0.0
  0
LINE
  5
79
  8
0
  6
BYBLOCK
 62
     9
 10
334.490861
 20
88870.0
 30
0.0
 11
334.490861
 21
88890.0
 31
0.0
  0
LINE
  5
7A
  8
0
  6
BYBLOCK
 62
     9
 10
334.490861
 20
88680.0
 30
0.0
 11
334.490861
 21
88660.0
 31
0.0
  0
SOLID
  5
7B
  8
0
  6
BYBLOCK
 62
     9
 10
331.157527
 20
88870.0
 30
0.0
 11
337.824194
 21
88870.0
 31
0.0
 12
334.490861
 22
88850.0
 32
0.0
 13
334.490861
 23
88850.0
 33
0.0
  0
SOLID
  5
7C
  8
0
  6
BYBLOCK
 62
     9
 10
331.157527
 20
88680.0
 30
0.0
 11
337.824194
 21
88680.0
 31
0.0
 12
334.490861
 22
88700.0
 32
0.0
 13
334.490861
 23
88700.0
 33
0.0
  0
TEXT
  5
7D
  8
0
  6
BYBLOCK
 62
    11
 10
351.990861
 20
88741.73622
 30
0.0
 40
35.0
  1
150
 50
90.0
  0
POINT
  5
7E
  8
DEFPOINTS
  6
BYBLOCK
 62
     0
 10
170.276438
 20
88850.0
 30
0.0
  0
POINT
  5
7F
  8
DEFPOINTS
  6
BYBLOCK
 62
     0
 10
37.5
 20
88700.0
 30
0.0
  0
POINT
  5
80
  8
DEFPOINTS
  6
BYBLOCK
 62
     0
 10
334.490861
 20
88700.0
 30
0.0
  0
ENDBLK
  5
82
  8
0
  0
BLOCK
  8
0
  2
*D2
 70
     1
 10
0.0
 20
0.0
 30
0.0
  3
*D2
  1

  0
LINE
  5
AE
  8
0
  6
BYBLOCK
 62
     9
 10
110.0
 20
88650.0
 30
0.0
 11
414.842219
 21
88650.0
 31
0.0
  0
LINE
  5
AF
  8
0
  6
BYBLOCK
 62
     9
 10
180.276438
 20
88850.0
 30
0.0
 11
414.842219
 21
88850.0
 31
0.0
  0
LINE
  5
B0
  8
0
  6
BYBLOCK
 62
     9
 10
413.842219
 20
88670.0
 30
0.0
 11
413.842219
 21
88703.041831
 31
0.0
  0
LINE
  5
B1
  8
0
  6
BYBLOCK
 62
     9
 10
413.842219
 20
88830.0
 30
0.0
 11
413.842219
 21
88796.958169
 31
0.0
  0
SOLID
  5
B2
  8
0
  6
BYBLOCK
 62
     9
 10
410.508886
 20
88670.0
 30
0.0
 11
417.175553
 21
88670.0
 31
0.0
 12
413.842219
 22
88650.0
 32
0.0
 13
413.842219
 23
88650.0
 33
0.0
  0
SOLID
  5
B3
  8
0
  6
BYBLOCK
 62
     9
 10
410.508886
 20
88830.0
 30
0.0
 11
417.175553
 21
88830.0
 31
0.0
 12
413.842219
 22
88850.0
 32
0.0
 13
413.842219
 23
88850.0
 33
0.0
  0
TEXT
  5
B4
  8
0
  6
BYBLOCK
 62
    11
 10
431.342219
 20
88713.68061
 30
0.0
 40
35.0
  1
200
 50
90.0
  0
POINT
  5
B5
  8
DEFPOINTS
  6
BYBLOCK
 62
     0
 10
100.0
 20
88650.0
 30
0.0
  0
POINT
  5
B6
  8
DEFPOINTS
  6
BYBLOCK
 62
     0
 10
170.276438
 20
88850.0
 30
0.0
  0
POINT
  5
B7
  8
DEFPOINTS
  6
BYBLOCK
 62
     0
 10
413.842219
 20
88850.0
 30
0.0
  0
ENDBLK
  5
B9
  8
0
  0
BLOCK
  8
0
  2
*D3
 70
     1
 10
0.0
 20
0.0
 30
0.0
  3
*D3
  1

  0
LINE
  5
69
  8
0
  6
BYBLOCK
 62
     9
 10
40.0
 20
88625.0
 30
0.0
 11
493.965158
 21
88625.0
 31
0.0
  0
LINE
  5
6A
  8
0
  6
BYBLOCK
 62
     9
 10
180.276438
 20
88850.0
 30
0.0
 11
493.965158
 21
88850.0
 31
0.0
  0
LINE
  5
6B
  8
0
  6
BYBLOCK
 62
     9
 10
492.965158
 20
88645.0
 30
0.0
 11
492.965158
 21
88689.830737
 31
0.0
  0
LINE
  5
6C
  8
0
  6
BYBLOCK
 62
     9
 10
492.965158
 20
88830.0
 30
0.0
 11
492.965158
 21
88785.169263
 31
0.0
  0
SOLID
  5
6D
  8
0
  6
BYBLOCK
 62
     9
 10
489.631825
 20
88645.0
 30
0.0
 11
496.298491
 21
88645.0
 31
0.0
 12
492.965158
 22
88625.0
 32
0.0
 13
492.965158
 23
88625.0
 33
0.0
  0
SOLID
  5
6E
  8
0
  6
BYBLOCK
 62
     9
 10
489.631825
 20
88830.0
 30
0.0
 11
496.298491
 21
88830.0
 31
0.0
 12
492.965158
 22
88850.0
 32
0.0
 13
492.965158
 23
88850.0
 33
0.0
  0
TEXT
  5
6F
  8
0
  6
BYBLOCK
 62
    11
 10
510.465158
 20
88700.469516
 30
0.0
 40
35.0
  1
225
 50
90.0
  0
POINT
  5
70
  8
DEFPOINTS
  6
BYBLOCK
 62
     0
 10
30.0
 20
88625.0
 30
0.0
  0
POINT
  5
71
  8
DEFPOINTS
  6
BYBLOCK
 62
     0
 10
170.276438
 20
88850.0
 30
0.0
  0
POINT
  5
72
  8
DEFPOINTS
  6
BYBLOCK
 62
     0
 10
492.965158
 20
88850.0
 30
0.0
  0
ENDBLK
  5
74
  8
0
  0
BLOCK
  8
0
  2
*D4
 70
     1
 10
0.0
 20
0.0
 30
0.0
  3
*D4
  1

  0
LINE
  5
5B
  8
0
  6
BYBLOCK
 62
     9
 10
180.276438
 20
88850.0
 30
0.0
 11
579.223393
 21
88850.0
 31
0.0
  0
LINE
  5
5C
  8
0
  6
BYBLOCK
 62
     9
 10
10.0
 20
88000.0
 30
0.0
 11
579.223393
 21
88000.0
 31
0.0
  0
LINE
  5
5D
  8
0
  6
BYBLOCK
 62
     9
 10
578.223393
 20
88830.0
 30
0.0
 11
578.223393
 21
88471.51378
 31
0.0
  0
LINE
  5
5E
  8
0
  6
BYBLOCK
 62
     9
 10
578.223393
 20
88020.0
 30
0.0
 11
578.223393
 21
88378.48622
 31
0.0
  0
SOLID
  5
5F
  8
0
  6
BYBLOCK
 62
     9
 10
574.89006
 20
88830.0
 30
0.0
 11
581.556726
 21
88830.0
 31
0.0
 12
578.223393
 22
88850.0
 32
0.0
 13
578.223393
 23
88850.0
 33
0.0
  0
SOLID
  5
60
  8
0
  6
BYBLOCK
 62
     9
 10
574.89006
 20
88020.0
 30
0.0
 11
581.556726
 21
88020.0
 31
0.0
 12
578.223393
 22
88000.0
 32
0.0
 13
578.223393
 23
88000.0
 33
0.0
  0
TEXT
  5
61
  8
0
  6
BYBLOCK
 62
    11
 10
595.723393
 20
88388.23622
 30
0.0
 40
35.0
  1
850
 50
90.0
  0
POINT
  5
62
  8
DEFPOINTS
  6
BYBLOCK
 62
     0
 10
170.276438
 20
88850.0
 30
0.0
  0
POINT
  5
63
  8
DEFPOINTS
  6
BYBLOCK
 62
     0
 10
0.0
 20
88000.0
 30
0.0
  0
POINT
  5
64
  8
DEFPOINTS
  6
BYBLOCK
 62
     0
 10
578.223393
 20
88000.0
 30
0.0
  0
ENDBLK
  5
66
  8
0
  0
BLOCK
  8
0
  2
*D5
 70
     1
 10
0.0
 20
0.0
 30
0.0
  3
*D5
  1

  0
LINE
  5
4D
  8
0
  6
BYBLOCK
 62
     9
 10
50.0
 20
88625.0
 30
0.0
 11
493.965158
 21
88625.0
 31
0.0
  0
LINE
  5
4E
  8
0
  6
BYBLOCK
 62
     9
 10
10.0
 20
88000.0
 30
0.0
 11
493.965158
 21
88000.0
 31
0.0
  0
LINE
  5
4F
  8
0
  6
BYBLOCK
 62
     9
 10
492.965158
 20
88605.0
 30
0.0
 11
492.965158
 21
88360.772118
 31
0.0
  0
LINE
  5
50
  8
0
  6
BYBLOCK
 62
     9
 10
492.965158
 20
88020.0
 30
0.0
 11
492.965158
 21
88264.227882
 31
0.0
  0
SOLID
  5
51
  8
0
  6
BYBLOCK
 62
     9
 10
489.631825
 20
88605.0
 30
0.0
 11
496.298491
 21
88605.0
 31
0.0
 12
492.965158
 22
88625.0
 32
0.0
 13
492.965158
 23
88625.0
 33
0.0
  0
SOLID
  5
52
  8
0
  6
BYBLOCK
 62
     9
 10
489.631825
 20
88020.0
 30
0.0
 11
496.298491
 21
88020.0
 31
0.0
 12
492.965158
 22
88000.0
 32
0.0
 13
492.965158
 23
88000.0
 33
0.0
  0
TEXT
  5
53
  8
0
  6
BYBLOCK
 62
    11
 10
510.465158
 20
88276.07237
 30
0.0
 40
35.0
  1
625
 50
90.0
  0
POINT
  5
54
  8
DEFPOINTS
  6
BYBLOCK
 62
     0
 10
40.0
 20
88625.0
 30
0.0
  0
POINT
  5
55
  8
DEFPOINTS
  6
BYBLOCK
 62
     0
 10
0.0
 20
88000.0
 30
0.0
  0
POINT
  5
56
  8
DEFPOINTS
  6
BYBLOCK
 62
     0
 10
492.965158
 20
88000.0
 30
0.0
  0
ENDBLK
  5
58
  8
0
  0
BLOCK
  8
0
  2
*D6
 70
     1
 10
0.0
 20
0.0
 30
0.0
  3
*D6
  1

  0
LINE
  5
3F
  8
0
  6
BYBLOCK
 62
     9
 10
110.0
 20
88650.0
 30
0.0
 11
414.842219
 21
88650.0
 31
0.0
  0
LINE
  5
40
  8
0
  6
BYBLOCK
 62
     9
 10
10.0
 20
88000.0
 30
0.0
 11
414.842219
 21
88000.0
 31
0.0
  0
LINE
  5
41
  8
0
  6
BYBLOCK
 62
     9
 10
413.842219
 20
88630.0
 30
0.0
 11
413.842219
 21
88372.561024
 31
0.0
  0
LINE
  5
42
  8
0
  6
BYBLOCK
 62
     9
 10
413.842219
 20
88020.0
 30
0.0
 11
413.842219
 21
88277.438976
 31
0.0
  0
SOLID
  5
43
  8
0
  6
BYBLOCK
 62
     9
 10
410.508886
 20
88630.0
 30
0.0
 11
417.175553
 21
88630.0
 31
0.0
 12
413.842219
 22
88650.0
 32
0.0
 13
413.842219
 23
88650.0
 33
0.0
  0
SOLID
  5
44
  8
0
  6
BYBLOCK
 62
     9
 10
410.508886
 20
88020.0
 30
0.0
 11
417.175553
 21
88020.0
 31
0.0
 12
413.842219
 22
88000.0
 32
0.0
 13
413.842219
 23
88000.0
 33
0.0
  0
TEXT
  5
45
  8
0
  6
BYBLOCK
 62
    11
 10
431.342219
 20
88289.283465
 30
0.0
 40
35.0
  1
650
 50
90.0
  0
POINT
  5
46
  8
DEFPOINTS
  6
BYBLOCK
 62
     0
 10
100.0
 20
88650.0
 30
0.0
  0
POINT
  5
47
  8
DEFPOINTS
  6
BYBLOCK
 62
     0
 10
0.0
 20
88000.0
 30
0.0
  0
POINT
  5
48
  8
DEFPOINTS
  6
BYBLOCK
 62
     0
 10
413.842219
 20
88000.0
 30
0.0
  0
ENDBLK
  5
4A
  8
0
  0
BLOCK
  8
0
  2
*D7
 70
     1
 10
0.0
 20
0.0
 30
0.0
  3
*D7
  1

  0
LINE
  5
31
  8
0
  6
BYBLOCK
 62
     9
 10
-75.0
 20
88615.0
 30
0.0
 11
-75.0
 21
88461.143684
 31
0.0
  0
LINE
  5
32
  8
0
  6
BYBLOCK
 62
     9
 10
75.0
 20
88615.0
 30
0.0
 11
75.0
 21
88461.143684
 31
0.0
  0
LINE
  5
33
  8
0
  6
BYBLOCK
 62
     9
 10
-55.0
 20
88462.143684
 30
0.0
 11
-40.0
 21
88462.143684
 31
0.0
  0
LINE
  5
34
  8
0
  6
BYBLOCK
 62
     9
 10
55.0
 20
88462.143684
 30
0.0
 11
40.0
 21
88462.143684
 31
0.0
  0
TEXT
  5
35
  8
0
  6
BYBLOCK
 62
    11
 10
-33.26378
 20
88469.699969
 30
0.0
 40
35.0
  1
150
  0
SOLID
  5
36
  8
0
  6
BYBLOCK
 62
     9
 10
-55.0
 20
88465.477017
 30
0.0
 11
-55.0
 21
88458.810351
 31
0.0
 12
-75.0
 22
88462.143684
 32
0.0
 13
-75.0
 23
88462.143684
 33
0.0
  0
SOLID
  5
37
  8
0
  6
BYBLOCK
 62
     9
 10
55.0
 20
88465.477017
 30
0.0
 11
55.0
 21
88458.810351
 31
0.0
 12
75.0
 22
88462.143684
 32
0.0
 13
75.0
 23
88462.143684
 33
0.0
  0
POINT
  5
38
  8
DEFPOINTS
  6
BYBLOCK
 62
     0
 10
-75.0
 20
88625.0
 30
0.0
  0
POINT
  5
39
  8
DEFPOINTS
  6
BYBLOCK
 62
     0
 10
75.0
 20
88625.0
 30
0.0
  0
POINT
  5
3A
  8
DEFPOINTS
  6
BYBLOCK
 62
     0
 10
75.0
 20
88462.143684
 30
0.0
  0
ENDBLK
  5
3C
  8
0
  0
BLOCK
  8
0
  2
*D8
 70
     1
 10
0.0
 20
0.0
 30
0.0
  3
*D8
  1

  0
LINE
  5
22
  8
0
  6
BYBLOCK
 62
     9
 10
-100.0
 20
88830.0
 30
0.0
 11
-100.0
 21
88922.714633
 31
0.0
  0
LINE
  5
23
  8
0
  6
BYBLOCK
 62
     9
 10
100.0
 20
88830.0
 30
0.0
 11
100.0
 21
88922.714633
 31
0.0
  0
LINE
  5
24
  8
0
  6
BYBLOCK
 62
     9
 10
-80.0
 20
88921.714633
 30
0.0
 11
-46.958169
 21
88921.714633
 31
0.0
  0
LINE
  5
25
  8
0
  6
BYBLOCK
 62
     9
 10
80.0
 20
88921.714633
 30
0.0
 11
46.958169
 21
88921.714633
 31
0.0
  0
SOLID
  5
26
  8
0
  6
BYBLOCK
 62
     9
 10
-80.0
 20
88925.047966
 30
0.0
 11
-80.0
 21
88918.381299
 31
0.0
 12
-100.0
 22
88921.714633
 32
0.0
 13
-100.0
 23
88921.714633
 33
0.0
  0
SOLID
  5
27
  8
0
  6
BYBLOCK
 62
     9
 10
80.0
 20
88925.047966
 30
0.0
 11
80.0
 21
88918.381299
 31
0.0
 12
100.0
 22
88921.714633
 32
0.0
 13
100.0
 23
88921.714633
 33
0.0
  0
TEXT
  5
28
  8
0
  6
BYBLOCK
 62
    11
 10
-36.31939
 20
88904.214633
 30
0.0
 40
35.0
  1
200
  0
POINT
  5
29
  8
DEFPOINTS
  6
BYBLOCK
 62
     0
 10
-100.0
 20
88820.0
 30
0.0
  0
POINT
  5
2B
  8
DEFPOINTS
  6
BYBLOCK
 62
     0
 10
100.0
 20
88820.0
 30
0.0
  0
POINT
  5
2C
  8
DEFPOINTS
  6
BYBLOCK
 62
     0
 10
100.0
 20
88921.714633
 30
0.0
  0
ENDBLK
  5
2E
  8
0
  0
ENDSEC
  0
SECTION
  2
ENTITIES
  0
DIMENSION
  5
20
  8
TEAM-MAS
  2
*D8
 10
100.0
 20
921.714633
 30
0.0
 11
0.0
 21
921.714633
 31
0.0
 12
0.0
 22
-88000.0
 32
0.0
 13
-100.0
 23
820.0
 33
0.0
 14
100.0
 24
820.0
 34
0.0
1001
ACAD
1000
DSTYLE
1002
{
1070
    40
1040
1.0
1002
}
  0
DIMENSION
  5
2F
  8
TEAM-MAS
  2
*D7
 10
75.0
 20
462.143684
 30
0.0
 11
0.0
 21
487.199969
 31
0.0
 12
0.0
 22
-88000.0
 32
0.0
 70
   128
 13
-75.0
 23
625.0
 33
0.0
 14
75.0
 24
625.0
 34
0.0
1001
ACAD
1000
DSTYLE
1002
{
1070
    40
1040
1.0
1002
}
  0
DIMENSION
  5
3D
  8
TEAM-MAS
  2
*D6
 10
413.842219
 20
0.0
 30
0.0
 11
413.842219
 21
325.0
 31
0.0
 12
0.0
 22
-88000.0
 32
0.0
 13
100.0
 23
650.0
 33
0.0
 14
0.0
 24
0.0
 34
0.0
 50
90.0
1001
ACAD
1000
DSTYLE
1002
{
1070
    40
1040
1.0
1002
}
  0
DIMENSION
  5
4B
  8
TEAM-MAS
  2
*D5
 10
492.965158
 20
0.0
 30
0.0
 11
492.965158
 21
312.5
 31
0.0
 12
0.0
 22
-88000.0
 32
0.0
 13
40.0
 23
625.0
 33
0.0
 14
0.0
 24
0.0
 34
0.0
 50
90.0
1001
ACAD
1000
DSTYLE
1002
{
1070
    40
1040
1.0
1002
}
  0
DIMENSION
  5
59
  8
TEAM-MAS
  2
*D4
 10
578.223393
 20
0.0
 30
0.0
 11
578.223393
 21
425.0
 31
0.0
 12
0.0
 22
-88000.0
 32
0.0
 13
170.276438
 23
850.0
 33
0.0
 14
0.0
 24
0.0
 34
0.0
 50
90.0
1001
ACAD
1000
DSTYLE
1002
{
1070
    40
1040
1.0
1002
}
  0
DIMENSION
  5
67
  8
TEAM-MAS
  2
*D3
 10
492.965158
 20
850.0
 30
0.0
 11
492.965158
 21
737.5
 31
0.0
 12
0.0
 22
-88000.0
 32
0.0
 13
30.0
 23
625.0
 33
0.0
 14
170.276438
 24
850.0
 34
0.0
 50
90.0
1001
ACAD
1000
DSTYLE
1002
{
1070
    40
1040
1.0
1002
}
  0
DIMENSION
  5
75
  8
TEAM-MAS
  2
*D1
 10
334.490861
 20
700.0
 30
0.0
 11
334.490861
 21
775.0
 31
0.0
 12
0.0
 22
-88000.0
 32
0.0
 13
170.276438
 23
850.0
 33
0.0
 14
37.5
 24
700.0
 34
0.0
 50
90.0
1001
ACAD
1000
DSTYLE
1002
{
1070
    40
1040
1.0
1002
}
  0
LINE
  5
83
  8
TEAM-DET1
 10
-102.120377
 20
750.0
 30
0.0
 11
102.120377
 21
750.0
 31
0.0
  0
TEXT
  5
85
  8
TEAM-TXT
 10
-165.478419
 20
760.344407
 30
0.0
 40
30.0
  1
team 221063
 41
0.8
 51
15.0
  7
TEAM
  0
CIRCLE
  5
88
  8
TEAM-COLD
 10
75.0
 20
650.0
 30
0.0
 40
12.0
  0
LINE
  5
8A
  8
TEAM-AXE
 10
75.0
 20
650.0
 30
0.0
 11
50.0
 21
650.0
 31
0.0
  0
POLYLINE
  5
8D
  8
TEAM-BODY
 66
     1
 10
0.0
 20
0.0
 30
0.0
 70
     1
  0
VERTEX
  5
1A2
  8
TEAM-BODY
 10
175.269586
 20
845.26168
 30
0.0
 42
0.39896
  0
VERTEX
  5
1A3
  8
TEAM-BODY
 10
170.276438
 20
850.0
 30
0.0
  0
VERTEX
  5
1A4
  8
TEAM-BODY
 10
-170.276438
 20
850.0
 30
0.0
 42
0.39896
  0
VERTEX
  5
1A5
  8
TEAM-BODY
 10
-175.269586
 20
845.26168
 30
0.0
  0
VERTEX
  5
1A6
  8
TEAM-BODY
 10
-180.0
 20
755.0
 30
0.0
  0
VERTEX
  5
1A7
  8
TEAM-BODY
 10
-180.0
 20
754.0
 30
0.0
 42
0.414214
  0
VERTEX
  5
1A8
  8
TEAM-BODY
 10
-176.0
 20
750.0
 30
0.0
  0
VERTEX
  5
1A9
  8
TEAM-BODY
 10
-102.120377
 20
750.0
 30
0.0
 42
0.117931
  0
VERTEX
  5
1AA
  8
TEAM-BODY
 10
-41.132184
 20
715.73552
 30
0.0
 42
-0.335195
  0
VERTEX
  5
1AB
  8
TEAM-BODY
 10
-37.5
 20
710.92625
 30
0.0
  0
VERTEX
  5
1AC
  8
TEAM-BODY
 10
-37.5
 20
700.0
 30
0.0
  0
VERTEX
  5
1AD
  8
TEAM-BODY
 10
37.5
 20
700.0
 30
0.0
  0
VERTEX
  5
1AE
  8
TEAM-BODY
 10
37.5
 20
710.92625
 30
0.0
 42
-0.335195
  0
VERTEX
  5
1AF
  8
TEAM-BODY
 10
41.132184
 20
715.73552
 30
0.0
 42
0.117931
  0
VERTEX
  5
1B0
  8
TEAM-BODY
 10
102.120377
 20
750.0
 30
0.0
  0
VERTEX
  5
1B1
  8
TEAM-BODY
 10
176.0
 20
750.0
 30
0.0
 42
0.414214
  0
VERTEX
  5
1B2
  8
TEAM-BODY
 10
180.0
 20
754.0
 30
0.0
  0
VERTEX
  5
1B3
  8
TEAM-BODY
 10
180.0
 20
755.0
 30
0.0
  0
SEQEND
  5
1B4
  8
TEAM-BODY
  0
ARC
  5
8F
  8
TEAM-BODY
 10
0.0
 20
860.357143
 30
0.0
 40
150.357143
 50
254.12359
 51
270.0
  0
ARC
  5
90
  8
TEAM-BODY
 10
0.0
 20
860.357143
 30
0.0
 40
150.357143
 50
270.0
 51
285.87641
  0
LINE
  5
91
  8
TEAM-AXE
 10
0.0
 20
719.285999
 30
0.0
 11
0.0
 21
689.553251
 31
0.0
  0
LINE
  5
92
  8
TEAM-AXE
 10
-100.0
 20
800.0
 30
0.0
 11
-100.0
 21
780.0
 31
0.0
  0
LINE
  5
93
  8
TEAM-AXE
 10
-100.0
 20
800.0
 30
0.0
 11
-80.0
 21
800.0
 31
0.0
  0
LINE
  5
94
  8
TEAM-AXE
 10
-100.0
 20
800.0
 30
0.0
 11
-100.0
 21
820.0
 31
0.0
  0
ARC
  5
95
  8
TEAM-HIDE
 10
-106.0
 20
800.0
 30
0.0
 40
10.0
 50
90.0
 51
270.0
  0
LINE
  5
98
  8
TEAM-AXE
 10
-100.0
 20
800.0
 30
0.0
 11
-120.0
 21
800.0
 31
0.0
  0
ARC
  5
99
  8
TEAM-HIDE
 10
-94.0
 20
800.0
 30
0.0
 40
10.0
 50
270.0
 51
90.0
  0
LINE
  5
9A
  8
TEAM-HIDE
 10
-94.0
 20
790.0
 30
0.0
 11
-97.0
 21
790.0
 31
0.0
  0
LINE
  5
9B
  8
TEAM-HIDE
 10
-103.0
 20
790.0
 30
0.0
 11
-106.0
 21
790.0
 31
0.0
  0
LINE
  5
9C
  8
TEAM-HIDE
 10
-94.0
 20
810.0
 30
0.0
 11
-97.0
 21
810.0
 31
0.0
  0
LINE
  5
9D
  8
TEAM-HIDE
 10
-103.0
 20
810.0
 30
0.0
 11
-106.0
 21
810.0
 31
0.0
  0
LINE
  5
9E
  8
TEAM-AXE
 10
0.0
 20
625.0
 30
0.0
 11
30.0
 21
625.0
 31
0.0
  0
LINE
  5
9F
  8
TEAM-AXE
 10
0.0
 20
625.0
 30
0.0
 11
0.0
 21
650.0
 31
0.0
  0
LINE
  5
A0
  8
TEAM-AXE
 10
0.0
 20
625.0
 30
0.0
 11
-30.0
 21
625.0
 31
0.0
  0
LINE
  5
A1
  8
TEAM-AXE
 10
0.0
 20
625.0
 30
0.0
 11
0.0
 21
595.0
 31
0.0
  0
CIRCLE
  5
A2
  8
TEAM-KAN
 10
0.0
 20
625.0
 30
0.0
 40
20.0
  0
LINE
  5
A4
  8
TEAM-AXE
 10
-75.0
 20
650.0
 30
0.0
 11
-75.0
 21
675.0
 31
0.0
  0
LINE
  5
A5
  8
TEAM-AXE
 10
-75.0
 20
650.0
 30
0.0
 11
-100.0
 21
650.0
 31
0.0
  0
CIRCLE
  5
A6
  8
TEAM-WARM
 10
-75.0
 20
650.0
 30
0.0
 40
12.0
  0
LINE
  5
A8
  8
TEAM-AXE
 10
-75.0
 20
650.0
 30
0.0
 11
-50.0
 21
650.0
 31
0.0
  0
LINE
  5
A9
  8
TEAM-AXE
 10
-75.0
 20
650.0
 30
0.0
 11
-75.0
 21
625.0
 31
0.0
  0
CIRCLE
  5
AA
  8
TEAM-INSP
 10
0.0
 20
0.0
 30
0.0
 40
10.0
  0
DIMENSION
  5
AC
  8
TEAM-MAS
  2
*D2
 10
413.842219
 20
850.0
 30
0.0
 11
413.842219
 21
750.0
 31
0.0
 12
0.0
 22
-88000.0
 32
0.0
 13
100.0
 23
650.0
 33
0.0
 14
170.276438
 24
850.0
 34
0.0
 50
90.0
1001
ACAD
1000
DSTYLE
1002
{
1070
    40
1040
1.0
1002
}
  0
DIMENSION
  5
BA
  8
TEAM-MAS
  2
*D0
 10
260.068374
 20
800.0
 30
0.0
 11
261.068374
 21
763.633527
 31
0.0
 12
0.0
 22
-88000.0
 32
0.0
 70
   128
 13
170.276438
 23
850.0
 33
0.0
 14
120.0
 24
800.0
 34
0.0
 50
90.0
1001
ACAD
1000
DSTYLE
1002
{
1070
    40
1040
1.0
1002
}
  0
LINE
  5
C9
  8
TEAM-AXE
 10
100.0
 20
800.0
 30
0.0
 11
100.0
 21
780.0
 31
0.0
  0
LINE
  5
CA
  8
TEAM-AXE
 10
100.0
 20
800.0
 30
0.0
 11
120.0
 21
800.0
 31
0.0
  0
LINE
  5
CB
  8
TEAM-AXE
 10
100.0
 20
800.0
 30
0.0
 11
100.0
 21
820.0
 31
0.0
  0
ARC
  5
CC
  8
TEAM-HIDE
 10
94.0
 20
800.0
 30
0.0
 40
10.0
 50
90.0
 51
270.0
  0
LINE
  5
CD
  8
TEAM-AXE
 10
100.0
 20
800.0
 30
0.0
 11
80.0
 21
800.0
 31
0.0
  0
ARC
  5
CE
  8
TEAM-HIDE
 10
106.0
 20
800.0
 30
0.0
 40
10.0
 50
270.0
 51
90.0
  0
LINE
  5
CF
  8
TEAM-HIDE
 10
106.0
 20
790.0
 30
0.0
 11
103.0
 21
790.0
 31
0.0
  0
LINE
  5
D0
  8
TEAM-HIDE
 10
97.0
 20
790.0
 30
0.0
 11
94.0
 21
790.0
 31
0.0
  0
LINE
  5
D1
  8
TEAM-HIDE
 10
106.0
 20
810.0
 30
0.0
 11
103.0
 21
810.0
 31
0.0
  0
LINE
  5
D2
  8
TEAM-HIDE
 10
97.0
 20
810.0
 30
0.0
 11
94.0
 21
810.0
 31
0.0
  0
LINE
  5
D3
  8
TEAM-AXE
 10
75.0
 20
650.0
 30
0.0
 11
100.0
 21
650.0
 31
0.0
  0
LINE
  5
D4
  8
TEAM-AXE
 10
75.0
 20
650.0
 30
0.0
 11
75.0
 21
675.0
 31
0.0
  0
LINE
  5
D5
  8
TEAM-AXE
 10
75.0
 20
650.0
 30
0.0
 11
75.0
 21
625.0
 31
0.0
  0
ENDSEC
  0
EOF
