  0
SECTION
  2
HEADER
  9
$ACADVER
  1
AC1009
  9
$INSBASE
 10
0.0
 20
0.0
 30
0.0
  9
$EXTMIN
 10
-231.965587
 20
-10.034261
 30
-0.000064
  9
$EXTMAX
 10
455.977596
 20
1060.017163
 30
10.000409
  9
$LIMMIN
 10
-231.965587
 20
-10.034261
  9
$LIMMAX
 10
455.977596
 20
1060.017163
  9
$ORTHOMODE
 70
     1
  9
$REGENMODE
 70
     1
  9
$FILLMODE
 70
     1
  9
$QTEXTMODE
 70
     0
  9
$MIRRTEXT
 70
     0
  9
$DRAGMODE
 70
     2
  9
$LTSCALE
 40
25.0
  9
$OSMODE
 70
     0
  9
$ATTMODE
 70
     1
  9
$TEXTSIZE
 40
200.0
  9
$TRACEWID
 40
1.0
  9
$TEXTSTYLE
  7
STANDARD
  9
$CLAYER
  8
TEAM-MAS
  9
$CELTYPE
  6
BYLAYER
  9
$CECOLOR
 62
   256
  9
$DIMSCALE
 40
1.0
  9
$DIMASZ
 40
20.0
  9
$DIMEXO
 40
10.0
  9
$DIMDLI
 40
1.0
  9
$DIMRND
 40
0.0
  9
$DIMDLE
 40
0.0
  9
$DIMEXE
 40
1.0
  9
$DIMTP
 40
0.0
  9
$DIMTM
 40
0.0
  9
$DIMTXT
 40
35.0
  9
$DIMCEN
 40
1.0
  9
$DIMTSZ
 40
0.0
  9
$DIMTOL
 70
     0
  9
$DIMLIM
 70
     0
  9
$DIMTIH
 70
     0
  9
$DIMTOH
 70
     0
  9
$DIMSE1
 70
     0
  9
$DIMSE2
 70
     0
  9
$DIMTAD
 70
     0
  9
$DIMZIN
 70
     0
  9
$DIMBLK
  1

  9
$DIMASO
 70
     1
  9
$DIMSHO
 70
     0
  9
$DIMPOST
  1

  9
$DIMAPOST
  1

  9
$DIMALT
 70
     0
  9
$DIMALTD
 70
     2
  9
$DIMALTF
 40
25.4
  9
$DIMLFAC
 40
1.0
  9
$DIMTOFL
 70
     0
  9
$DIMTVP
 40
0.0
  9
$DIMTIX
 70
     0
  9
$DIMSOXD
 70
     0
  9
$DIMSAH
 70
     0
  9
$DIMBLK1
  1

  9
$DIMBLK2
  1

  9
$DIMSTYLE
  2
TEAM
  9
$DIMCLRD
 70
     9
  9
$DIMCLRE
 70
     9
  9
$DIMCLRT
 70
    11
  9
$DIMTFAC
 40
1.0
  9
$DIMGAP
 40
15.0
  9
$LUNITS
 70
     2
  9
$LUPREC
 70
     1
  9
$SKETCHINC
 40
1.0
  9
$FILLETRAD
 40
50.0
  9
$AUNITS
 70
     0
  9
$AUPREC
 70
     0
  9
$MENU
  1
ROPLANS
  9
$ELEVATION
 40
0.0
  9
$PELEVATION
 40
0.0
  9
$THICKNESS
 40
0.0
  9
$LIMCHECK
 70
     0
  9
$BLIPMODE
 70
     1
  9
$CHAMFERA
 40
0.0
  9
$CHAMFERB
 40
0.0
  9
$SKPOLY
 70
     0
  9
$TDCREATE
 40
2450392.957851
  9
$TDUPDATE
 40
2455523.423855
  9
$TDINDWG
 40
2.626044
  9
$TDUSRTIMER
 40
2.626044
  9
$USRTIMER
 70
     1
  9
$ANGBASE
 50
0.0
  9
$ANGDIR
 70
     0
  9
$PDMODE
 70
     0
  9
$PDSIZE
 40
0.0
  9
$PLINEWID
 40
0.0
  9
$COORDS
 70
     2
  9
$SPLFRAME
 70
     0
  9
$SPLINETYPE
 70
     6
  9
$SPLINESEGS
 70
     8
  9
$ATTDIA
 70
     0
  9
$ATTREQ
 70
     0
  9
$HANDLING
 70
     1
  9
$HANDSEED
  5
255
  9
$SURFTAB1
 70
    36
  9
$SURFTAB2
 70
    36
  9
$SURFTYPE
 70
     6
  9
$SURFU
 70
     6
  9
$SURFV
 70
     6
  9
$UCSNAME
  2

  9
$UCSORG
 10
0.0
 20
0.0
 30
0.0
  9
$UCSXDIR
 10
1.0
 20
0.0
 30
0.0
  9
$UCSYDIR
 10
0.0
 20
1.0
 30
0.0
  9
$PUCSNAME
  2

  9
$PUCSORG
 10
0.0
 20
0.0
 30
0.0
  9
$PUCSXDIR
 10
1.0
 20
0.0
 30
0.0
  9
$PUCSYDIR
 10
0.0
 20
1.0
 30
0.0
  9
$USERI1
 70
     0
  9
$USERI2
 70
     0
  9
$USERI3
 70
     0
  9
$USERI4
 70
     0
  9
$USERI5
 70
     0
  9
$USERR1
 40
0.0
  9
$USERR2
 40
0.0
  9
$USERR3
 40
0.0
  9
$USERR4
 40
0.0
  9
$USERR5
 40
0.0
  9
$WORLDVIEW
 70
     1
  9
$SHADEDGE
 70
     0
  9
$SHADEDIF
 70
    70
  9
$TILEMODE
 70
     1
  9
$MAXACTVP
 70
    16
  9
$PLIMCHECK
 70
     0
  9
$PEXTMIN
 10
-0.805942
 20
0.005011
 30
0.0
  9
$PEXTMAX
 10
20.250094
 20
11.356329
 30
0.0
  9
$PLIMMIN
 10
0.0
 20
0.0
  9
$PLIMMAX
 10
12.0
 20
9.0
  9
$UNITMODE
 70
     0
  9
$VISRETAIN
 70
     0
  9
$PLINEGEN
 70
     0
  9
$PSLTSCALE
 70
     0
  0
ENDSEC
  0
SECTION
  2
TABLES
  0
TABLE
  2
VPORT
 70
     2
  0
VPORT
  2
*ACTIVE
 70
     0
 10
0.0
 20
0.0
 11
1.0
 21
1.0
 12
112.006005
 22
524.991451
 13
0.0
 23
0.0
 14
1.0
 24
1.0
 15
50.0
 25
50.0
 16
0.0
 26
0.0
 36
1.0
 17
0.0
 27
0.0
 37
0.0
 40
1076.622877
 41
1.865779
 42
50.0
 43
0.0
 44
0.0
 50
0.0
 51
0.0
 71
     0
 72
   100
 73
     1
 74
     1
 75
     0
 76
     0
 77
     0
 78
     0
  0
ENDTAB
  0
TABLE
  2
LTYPE
 70
     3
  0
LTYPE
  2
CONTINUOUS
 70
     0
  3
Solid Line
 72
    65
 73
     0
 40
0.0
  0
LTYPE
  2
31
 70
     0
  3

 72
    65
 73
     4
 40
2.1
 49
1.5
 49
-0.3
 49
0.0
 49
-0.3
  0
LTYPE
  2
22
 70
     0
  3

 72
    65
 73
     2
 40
1.4
 49
1.2
 49
-0.2
  0
ENDTAB
  0
TABLE
  2
LAYER
 70
    11
  0
LAYER
  2
0
 70
     0
 62
     7
  6
CONTINUOUS
  0
LAYER
  2
DEFPOINTS
 70
     0
 62
     7
  6
CONTINUOUS
  0
LAYER
  2
TEAM-BODY
 70
     0
 62
     2
  6
CONTINUOUS
  0
LAYER
  2
TEAM-AXE
 70
     0
 62
    10
  6
31
  0
LAYER
  2
TEAM-MAS
 70
     0
 62
     9
  6
CONTINUOUS
  0
LAYER
  2
TEAM-TXT
 70
     0
 62
    11
  6
CONTINUOUS
  0
LAYER
  2
TEAM-COLD
 70
     0
 62
     3
  6
CONTINUOUS
  0
LAYER
  2
TEAM-HIDE
 70
     0
 62
     8
  6
22
  0
LAYER
  2
TEAM-KAN
 70
     0
 62
     6
  6
CONTINUOUS
  0
LAYER
  2
TEAM-WARM
 70
     0
 62
     1
  6
CONTINUOUS
  0
LAYER
  2
TEAM-INSP
 70
     0
 62
     5
  6
CONTINUOUS
  0
ENDTAB
  0
TABLE
  2
STYLE
 70
     2
  0
STYLE
  2
STANDARD
 70
     0
 40
0.0
 41
1.0
 50
0.0
 71
     0
 42
200.0
  3
txt
  4

  0
STYLE
  2
TEAM
 70
     0
 40
0.0
 41
0.8
 50
15.0
 71
     0
 42
7.0
  3
ROMANS.shx
  4

  0
ENDTAB
  0
TABLE
  2
VIEW
 70
     0
  0
ENDTAB
  0
TABLE
  2
UCS
 70
     0
  0
ENDTAB
  0
TABLE
  2
APPID
 70
     1
  0
APPID
  2
ACAD
 70
     0
  0
ENDTAB
  0
TABLE
  2
DIMSTYLE
 70
     1
  0
DIMSTYLE
  2
TEAM
 70
     0
  3

  4

  5

  6

  7

 40
1.0
 41
20.0
 42
10.0
 43
1.0
 44
1.0
 45
0.0
 46
0.0
 47
0.0
 48
0.0
140
35.0
141
1.0
142
0.0
143
25.4
144
1.0
145
0.0
146
1.0
147
15.0
 71
     0
 72
     0
 73
     0
 74
     0
 75
     0
 76
     0
 77
     0
 78
     0
170
     0
171
     2
172
     0
173
     0
174
     0
175
     0
176
     9
177
     9
178
    11
  0
ENDTAB
  0
ENDSEC
  0
SECTION
  2
BLOCKS
  0
BLOCK
  8
0
  2
$MODEL_SPACE
 70
     0
 10
0.0
 20
0.0
 30
0.0
  3
$MODEL_SPACE
  1

  0
ENDBLK
  5
22B
  8
0
  0
BLOCK
 67
     1
  8
0
  2
$PAPER_SPACE
 70
     0
 10
0.0
 20
0.0
 30
0.0
  3
$PAPER_SPACE
  1

  0
ENDBLK
  5
229
 67
     1
  8
0
  0
BLOCK
  8
0
  2
*D0
 70
     1
 10
0.0
 20
0.0
 30
0.0
  3
*D0
  1

  0
LINE
  5
EE
  8
0
  6
BYBLOCK
 62
     9
 10
8218.0
 20
40849.997355
 30
0.0
 11
8439.742265
 21
40849.997355
 31
0.0
  0
LINE
  5
EF
  8
0
  6
BYBLOCK
 62
     9
 10
8086.5
 20
41049.997355
 30
0.0
 11
8439.742265
 21
41049.997355
 31
0.0
  0
LINE
  5
F0
  8
0
  6
BYBLOCK
 62
     9
 10
8438.742265
 20
40869.997355
 30
0.0
 11
8438.742265
 21
40894.164022
 31
0.0
  0
LINE
  5
F1
  8
0
  6
BYBLOCK
 62
     9
 10
8438.742265
 20
41029.997355
 30
0.0
 11
8438.742265
 21
41005.830689
 31
0.0
  0
SOLID
  5
F2
  8
0
  6
BYBLOCK
 62
     9
 10
8435.408932
 20
40869.997355
 30
0.0
 11
8442.075599
 21
40869.997355
 31
0.0
 12
8438.742265
 22
40849.997355
 32
0.0
 13
8438.742265
 23
40849.997355
 33
0.0
  0
SOLID
  5
F3
  8
0
  6
BYBLOCK
 62
     9
 10
8435.408932
 20
41029.997355
 30
0.0
 11
8442.075599
 21
41029.997355
 31
0.0
 12
8438.742265
 22
41049.997355
 32
0.0
 13
8438.742265
 23
41049.997355
 33
0.0
  0
TEXT
  5
F4
  8
0
  6
BYBLOCK
 62
    11
 10
8456.242265
 20
40909.164022
 30
0.0
 40
35.0
  1
200
 50
90.0
  0
POINT
  5
F5
  8
DEFPOINTS
  6
BYBLOCK
 62
     0
 10
8208.0
 20
40849.997355
 30
0.0
  0
POINT
  5
F6
  8
DEFPOINTS
  6
BYBLOCK
 62
     0
 10
8076.5
 20
41049.997355
 30
0.0
  0
POINT
  5
F7
  8
DEFPOINTS
  6
BYBLOCK
 62
     0
 10
8438.742265
 20
41049.997355
 30
10.0
  0
ENDBLK
  5
F9
  8
0
  0
BLOCK
  8
0
  2
*D1
 70
     1
 10
0.0
 20
0.0
 30
0.0
  3
*D1
  1

  0
LINE
  5
4D
  8
0
  6
BYBLOCK
 62
     9
 10
7775.0
 20
40839.997355
 30
0.0
 11
7775.0
 21
40940.957191
 31
0.0
  0
LINE
  5
4E
  8
0
  6
BYBLOCK
 62
     9
 10
8225.0
 20
40839.997355
 30
0.0
 11
8225.0
 21
40940.957191
 31
0.0
  0
LINE
  5
4F
  8
0
  6
BYBLOCK
 62
     9
 10
7795.0
 20
40939.957191
 30
0.0
 11
7941.25
 21
40939.957191
 31
0.0
  0
LINE
  5
50
  8
0
  6
BYBLOCK
 62
     9
 10
8205.0
 20
40939.957191
 30
0.0
 11
8058.75
 21
40939.957191
 31
0.0
  0
TEXT
  5
51
  8
0
  6
BYBLOCK
 62
    11
 10
7956.25
 20
40934.389961
 30
0.0
 40
35.0
  1
450
  0
SOLID
  5
52
  8
0
  6
BYBLOCK
 62
     9
 10
7795.0
 20
40943.290525
 30
0.0
 11
7795.0
 21
40936.623858
 31
0.0
 12
7775.0
 22
40939.957191
 32
0.0
 13
7775.0
 23
40939.957191
 33
0.0
  0
SOLID
  5
53
  8
0
  6
BYBLOCK
 62
     9
 10
8205.0
 20
40943.290525
 30
0.0
 11
8205.0
 21
40936.623858
 31
0.0
 12
8225.0
 22
40939.957191
 32
0.0
 13
8225.0
 23
40939.957191
 33
0.0
  0
POINT
  5
54
  8
DEFPOINTS
  6
BYBLOCK
 62
     0
 10
7775.0
 20
40829.997355
 30
0.0
  0
POINT
  5
55
  8
DEFPOINTS
  6
BYBLOCK
 62
     0
 10
8225.0
 20
40829.997355
 30
0.0
  0
POINT
  5
56
  8
DEFPOINTS
  6
BYBLOCK
 62
     0
 10
8225.0
 20
40939.957191
 30
10.0
  0
ENDBLK
  5
58
  8
0
  0
BLOCK
  8
0
  2
*D2
 70
     1
 10
0.0
 20
0.0
 30
0.0
  3
*D2
  1

  0
LINE
  5
5B
  8
0
  6
BYBLOCK
 62
     9
 10
7900.094137
 20
40819.0
 30
0.0
 11
7900.094137
 21
40910.151249
 31
0.0
  0
LINE
  5
5C
  8
0
  6
BYBLOCK
 62
     9
 10
8100.094137
 20
40819.0
 30
0.0
 11
8100.094137
 21
40910.151249
 31
0.0
  0
LINE
  5
5D
  8
0
  6
BYBLOCK
 62
     9
 10
7920.094137
 20
40909.151249
 30
0.0
 11
7944.260803
 21
40909.151249
 31
0.0
  0
LINE
  5
5E
  8
0
  6
BYBLOCK
 62
     9
 10
8080.094137
 20
40909.151249
 30
0.0
 11
8055.92747
 21
40909.151249
 31
0.0
  0
SOLID
  5
5F
  8
0
  6
BYBLOCK
 62
     9
 10
7920.094137
 20
40912.484582
 30
0.0
 11
7920.094137
 21
40905.817915
 31
0.0
 12
7900.094137
 22
40909.151249
 32
0.0
 13
7900.094137
 23
40909.151249
 33
0.0
  0
SOLID
  5
60
  8
0
  6
BYBLOCK
 62
     9
 10
8080.094137
 20
40912.484582
 30
0.0
 11
8080.094137
 21
40905.817915
 31
0.0
 12
8100.094137
 22
40909.151249
 32
0.0
 13
8100.094137
 23
40909.151249
 33
0.0
  0
TEXT
  5
61
  8
0
  6
BYBLOCK
 62
    11
 10
7959.260803
 20
40891.651249
 30
0.0
 40
35.0
  1
200
  0
POINT
  5
62
  8
DEFPOINTS
  6
BYBLOCK
 62
     0
 10
7900.094137
 20
40809.0
 30
10.0
  0
POINT
  5
63
  8
DEFPOINTS
  6
BYBLOCK
 62
     0
 10
8100.094137
 20
40809.0
 30
10.0
  0
POINT
  5
64
  8
DEFPOINTS
  6
BYBLOCK
 62
     0
 10
8100.094137
 20
40909.151249
 30
10.0
  0
ENDBLK
  5
66
  8
0
  0
BLOCK
  8
0
  2
*D3
 70
     1
 10
0.0
 20
0.0
 30
0.0
  3
*D3
  1

  0
LINE
  5
9A
  8
0
  6
BYBLOCK
 62
     9
 10
8040.0
 20
40624.997355
 30
0.0
 11
8040.0
 21
40473.342996
 31
0.0
  0
LINE
  5
9B
  8
0
  6
BYBLOCK
 62
     9
 10
7960.0
 20
40624.997355
 30
0.0
 11
7960.0
 21
40473.342996
 31
0.0
  0
LINE
  5
9C
  8
0
  6
BYBLOCK
 62
     9
 10
8020.0
 20
40474.342996
 30
0.0
 11
7980.0
 21
40474.342996
 31
0.0
  0
TEXT
  5
9D
  8
0
  6
BYBLOCK
 62
    11
 10
7973.75
 20
40456.842996
 30
0.0
 40
35.0
  1
80
  0
SOLID
  5
9E
  8
0
  6
BYBLOCK
 62
     9
 10
8020.0
 20
40477.67633
 30
0.0
 11
8020.0
 21
40471.009663
 31
0.0
 12
8040.0
 22
40474.342996
 32
0.0
 13
8040.0
 23
40474.342996
 33
0.0
  0
SOLID
  5
9F
  8
0
  6
BYBLOCK
 62
     9
 10
7980.0
 20
40477.67633
 30
0.0
 11
7980.0
 21
40471.009663
 31
0.0
 12
7960.0
 22
40474.342996
 32
0.0
 13
7960.0
 23
40474.342996
 33
0.0
  0
POINT
  5
A0
  8
DEFPOINTS
  6
BYBLOCK
 62
     0
 10
8040.0
 20
40634.997355
 30
0.0
  0
POINT
  5
A1
  8
DEFPOINTS
  6
BYBLOCK
 62
     0
 10
7960.0
 20
40634.997355
 30
0.0
  0
POINT
  5
A2
  8
DEFPOINTS
  6
BYBLOCK
 62
     0
 10
7960.0
 20
40474.342996
 30
10.0
  0
ENDBLK
  5
A4
  8
0
  0
BLOCK
  8
0
  2
*D4
 70
     1
 10
0.0
 20
0.0
 30
0.0
  3
*D4
  1

  0
LINE
  5
69
  8
0
  6
BYBLOCK
 62
     9
 10
8203.167971
 20
40849.997355
 30
0.0
 11
8309.884938
 21
40849.997355
 31
0.0
  0
LINE
  5
6A
  8
0
  6
BYBLOCK
 62
     9
 10
8010.0
 20
40694.997335
 30
0.0
 11
8309.884938
 21
40694.997335
 31
0.0
  0
LINE
  5
6B
  8
0
  6
BYBLOCK
 62
     9
 10
8308.884938
 20
40869.997355
 30
0.0
 11
8308.884938
 21
40889.997355
 31
0.0
  0
LINE
  5
6C
  8
0
  6
BYBLOCK
 62
     9
 10
8308.884938
 20
40674.997335
 30
0.0
 11
8308.884938
 21
40654.997335
 31
0.0
  0
SOLID
  5
6D
  8
0
  6
BYBLOCK
 62
     9
 10
8305.551605
 20
40869.997355
 30
0.0
 11
8312.218272
 21
40869.997355
 31
0.0
 12
8308.884938
 22
40849.997355
 32
0.0
 13
8308.884938
 23
40849.997355
 33
0.0
  0
SOLID
  5
6E
  8
0
  6
BYBLOCK
 62
     9
 10
8305.551605
 20
40674.997335
 30
0.0
 11
8312.218272
 21
40674.997335
 31
0.0
 12
8308.884938
 22
40694.997335
 32
0.0
 13
8308.884938
 23
40694.997335
 33
0.0
  0
TEXT
  5
6F
  8
0
  6
BYBLOCK
 62
    11
 10
8326.384938
 20
40731.664012
 30
0.0
 40
35.0
  1
155
 50
90.0
  0
POINT
  5
70
  8
DEFPOINTS
  6
BYBLOCK
 62
     0
 10
8193.167971
 20
40849.997355
 30
10.0
  0
POINT
  5
71
  8
DEFPOINTS
  6
BYBLOCK
 62
     0
 10
8000.0
 20
40694.997335
 30
0.0
  0
POINT
  5
72
  8
DEFPOINTS
  6
BYBLOCK
 62
     0
 10
8308.884938
 20
40694.997335
 30
10.0
  0
ENDBLK
  5
74
  8
0
  0
BLOCK
  8
0
  2
*D5
 70
     1
 10
0.0
 20
0.0
 30
0.0
  3
*D5
  1

  0
LINE
  5
77
  8
0
  6
BYBLOCK
 62
     9
 10
8010.0
 20
40584.997355
 30
0.0
 11
8352.832656
 21
40584.997355
 31
0.0
  0
LINE
  5
78
  8
0
  6
BYBLOCK
 62
     9
 10
8010.0
 20
40000.0
 30
0.0
 11
8352.832656
 21
40000.0
 31
0.0
  0
LINE
  5
79
  8
0
  6
BYBLOCK
 62
     9
 10
8351.832656
 20
40564.997355
 30
0.0
 11
8351.832656
 21
40354.165344
 31
0.0
  0
LINE
  5
7A
  8
0
  6
BYBLOCK
 62
     9
 10
8351.832656
 20
40020.0
 30
0.0
 11
8351.832656
 21
40230.832011
 31
0.0
  0
SOLID
  5
7B
  8
0
  6
BYBLOCK
 62
     9
 10
8348.499323
 20
40564.997355
 30
0.0
 11
8355.165989
 21
40564.997355
 31
0.0
 12
8351.832656
 22
40584.997355
 32
0.0
 13
8351.832656
 23
40584.997355
 33
0.0
  0
SOLID
  5
7C
  8
0
  6
BYBLOCK
 62
     9
 10
8348.499323
 20
40020.0
 30
0.0
 11
8355.165989
 21
40020.0
 31
0.0
 12
8351.832656
 22
40000.0
 32
0.0
 13
8351.832656
 23
40000.0
 33
0.0
  0
TEXT
  5
7D
  8
0
  6
BYBLOCK
 62
    11
 10
8369.332656
 20
40245.832011
 30
0.0
 40
35.0
  1
585
 50
90.0
  0
POINT
  5
7E
  8
DEFPOINTS
  6
BYBLOCK
 62
     0
 10
8000.0
 20
40584.997355
 30
0.0
  0
POINT
  5
7F
  8
DEFPOINTS
  6
BYBLOCK
 62
     0
 10
8000.0
 20
40000.0
 30
10.0
  0
POINT
  5
80
  8
DEFPOINTS
  6
BYBLOCK
 62
     0
 10
8351.832656
 20
40000.0
 30
10.0
  0
ENDBLK
  5
82
  8
0
  0
BLOCK
  8
0
  2
*D6
 70
     1
 10
0.0
 20
0.0
 30
0.0
  3
*D6
  1

  0
LINE
  5
FC
  8
0
  6
BYBLOCK
 62
     9
 10
8283.521575
 20
40000.0
 30
0.0
 11
8439.742265
 21
40000.0
 31
0.0
  0
LINE
  5
FD
  8
0
  6
BYBLOCK
 62
     9
 10
8218.0
 20
40849.997355
 30
0.0
 11
8439.742265
 21
40849.997355
 31
0.0
  0
LINE
  5
FE
  8
0
  6
BYBLOCK
 62
     9
 10
8438.742265
 20
40020.0
 30
0.0
 11
8438.742265
 21
40366.248678
 31
0.0
  0
LINE
  5
FF
  8
0
  6
BYBLOCK
 62
     9
 10
8438.742265
 20
40829.997355
 30
0.0
 11
8438.742265
 21
40483.748678
 31
0.0
  0
SOLID
  5
100
  8
0
  6
BYBLOCK
 62
     9
 10
8435.408932
 20
40020.0
 30
0.0
 11
8442.075599
 21
40020.0
 31
0.0
 12
8438.742265
 22
40000.0
 32
0.0
 13
8438.742265
 23
40000.0
 33
0.0
  0
SOLID
  5
101
  8
0
  6
BYBLOCK
 62
     9
 10
8435.408932
 20
40829.997355
 30
0.0
 11
8442.075599
 21
40829.997355
 31
0.0
 12
8438.742265
 22
40849.997355
 32
0.0
 13
8438.742265
 23
40849.997355
 33
0.0
  0
TEXT
  5
102
  8
0
  6
BYBLOCK
 62
    11
 10
8456.242265
 20
40381.248678
 30
0.0
 40
35.0
  1
850
 50
90.0
  0
POINT
  5
103
  8
DEFPOINTS
  6
BYBLOCK
 62
     0
 10
8273.521575
 20
40000.0
 30
10.0
  0
POINT
  5
104
  8
DEFPOINTS
  6
BYBLOCK
 62
     0
 10
8208.0
 20
40849.997355
 30
0.0
  0
POINT
  5
105
  8
DEFPOINTS
  6
BYBLOCK
 62
     0
 10
8438.742265
 20
40849.997355
 30
10.0
  0
ENDBLK
  5
107
  8
0
  0
BLOCK
  8
0
  2
*D7
 70
     1
 10
0.0
 20
0.0
 30
0.0
  3
*D7
  1

  0
LINE
  5
85
  8
0
  6
BYBLOCK
 62
     9
 10
8010.0
 20
40000.0
 30
0.0
 11
8396.011131
 21
40000.0
 31
0.0
  0
LINE
  5
86
  8
0
  6
BYBLOCK
 62
     9
 10
8050.0
 20
40634.997355
 30
0.0
 11
8396.011131
 21
40634.997355
 31
0.0
  0
LINE
  5
87
  8
0
  6
BYBLOCK
 62
     9
 10
8395.011131
 20
40020.0
 30
0.0
 11
8395.011131
 21
40255.832011
 31
0.0
  0
LINE
  5
88
  8
0
  6
BYBLOCK
 62
     9
 10
8395.011131
 20
40614.997355
 30
0.0
 11
8395.011131
 21
40379.165344
 31
0.0
  0
SOLID
  5
89
  8
0
  6
BYBLOCK
 62
     9
 10
8391.677797
 20
40020.0
 30
0.0
 11
8398.344464
 21
40020.0
 31
0.0
 12
8395.011131
 22
40000.0
 32
0.0
 13
8395.011131
 23
40000.0
 33
0.0
  0
SOLID
  5
8A
  8
0
  6
BYBLOCK
 62
     9
 10
8391.677797
 20
40614.997355
 30
0.0
 11
8398.344464
 21
40614.997355
 31
0.0
 12
8395.011131
 22
40634.997355
 32
0.0
 13
8395.011131
 23
40634.997355
 33
0.0
  0
TEXT
  5
8B
  8
0
  6
BYBLOCK
 62
    11
 10
8412.511131
 20
40270.832011
 30
0.0
 40
35.0
  1
635
 50
90.0
  0
POINT
  5
8C
  8
DEFPOINTS
  6
BYBLOCK
 62
     0
 10
8000.0
 20
40000.0
 30
10.0
  0
POINT
  5
8D
  8
DEFPOINTS
  6
BYBLOCK
 62
     0
 10
8040.0
 20
40634.997355
 30
0.0
  0
POINT
  5
8E
  8
DEFPOINTS
  6
BYBLOCK
 62
     0
 10
8395.011131
 20
40634.997355
 30
10.0
  0
ENDBLK
  5
90
  8
0
  0
BLOCK
  8
0
  2
*D8
 70
     1
 10
0.0
 20
0.0
 30
0.0
  3
*D8
  1

  0
LINE
  5
22
  8
0
  6
BYBLOCK
 62
     9
 10
8076.5
 20
41039.997355
 30
0.0
 11
8076.5
 21
40994.992379
 31
0.0
  0
LINE
  5
23
  8
0
  6
BYBLOCK
 62
     9
 10
7923.5
 20
41039.997355
 30
0.0
 11
7923.5
 21
40994.992379
 31
0.0
  0
LINE
  5
24
  8
0
  6
BYBLOCK
 62
     9
 10
8056.5
 20
40995.992379
 30
0.0
 11
8041.5
 21
40995.992379
 31
0.0
  0
LINE
  5
25
  8
0
  6
BYBLOCK
 62
     9
 10
7943.5
 20
40995.992379
 30
0.0
 11
7958.5
 21
40995.992379
 31
0.0
  0
TEXT
  5
26
  8
0
  6
BYBLOCK
 62
    11
 10
7959.166667
 20
40978.492379
 30
0.0
 40
35.0
  1
153
  0
SOLID
  5
27
  8
0
  6
BYBLOCK
 62
     9
 10
8056.5
 20
40999.325712
 30
0.0
 11
8056.5
 21
40992.659045
 31
0.0
 12
8076.5
 22
40995.992379
 32
0.0
 13
8076.5
 23
40995.992379
 33
0.0
  0
SOLID
  5
28
  8
0
  6
BYBLOCK
 62
     9
 10
7943.5
 20
40999.325712
 30
0.0
 11
7943.5
 21
40992.659045
 31
0.0
 12
7923.5
 22
40995.992379
 32
0.0
 13
7923.5
 23
40995.992379
 33
0.0
  0
POINT
  5
29
  8
DEFPOINTS
  6
BYBLOCK
 62
     0
 10
8076.5
 20
41049.997355
 30
0.0
  0
POINT
  5
2B
  8
DEFPOINTS
  6
BYBLOCK
 62
     0
 10
7923.5
 20
41049.997355
 30
0.0
  0
POINT
  5
2C
  8
DEFPOINTS
  6
BYBLOCK
 62
     0
 10
7923.5
 20
40995.992379
 30
0.0
  0
ENDBLK
  5
2E
  8
0
  0
BLOCK
  8
0
  2
*D9
 70
     1
 10
0.0
 20
0.0
 30
0.0
  3
*D9
  1

  0
LINE
  5
31
  8
0
  6
BYBLOCK
 62
     9
 10
8010.0
 20
40584.997355
 30
0.0
 11
8352.832656
 21
40584.997355
 31
0.0
  0
LINE
  5
32
  8
0
  6
BYBLOCK
 62
     9
 10
8218.0
 20
40849.997355
 30
0.0
 11
8352.832656
 21
40849.997355
 31
0.0
  0
LINE
  5
33
  8
0
  6
BYBLOCK
 62
     9
 10
8351.832656
 20
40604.997355
 30
0.0
 11
8351.832656
 21
40655.830689
 31
0.0
  0
LINE
  5
34
  8
0
  6
BYBLOCK
 62
     9
 10
8351.832656
 20
40829.997355
 30
0.0
 11
8351.832656
 21
40779.164022
 31
0.0
  0
SOLID
  5
35
  8
0
  6
BYBLOCK
 62
     9
 10
8348.499323
 20
40604.997355
 30
0.0
 11
8355.165989
 21
40604.997355
 31
0.0
 12
8351.832656
 22
40584.997355
 32
0.0
 13
8351.832656
 23
40584.997355
 33
0.0
  0
SOLID
  5
36
  8
0
  6
BYBLOCK
 62
     9
 10
8348.499323
 20
40829.997355
 30
0.0
 11
8355.165989
 21
40829.997355
 31
0.0
 12
8351.832656
 22
40849.997355
 32
0.0
 13
8351.832656
 23
40849.997355
 33
0.0
  0
TEXT
  5
37
  8
0
  6
BYBLOCK
 62
    11
 10
8369.332656
 20
40670.830689
 30
0.0
 40
35.0
  1
265
 50
90.0
  0
POINT
  5
38
  8
DEFPOINTS
  6
BYBLOCK
 62
     0
 10
8000.0
 20
40584.997355
 30
0.0
  0
POINT
  5
39
  8
DEFPOINTS
  6
BYBLOCK
 62
     0
 10
8208.0
 20
40849.997355
 30
0.0
  0
POINT
  5
3A
  8
DEFPOINTS
  6
BYBLOCK
 62
     0
 10
8351.832656
 20
40849.997355
 30
0.0
  0
ENDBLK
  5
3C
  8
0
  0
BLOCK
  8
0
  2
*D10
 70
     1
 10
0.0
 20
0.0
 30
0.0
  3
*D10
  1

  0
LINE
  5
DF
  8
0
  6
BYBLOCK
 62
     9
 10
8218.0
 20
40849.997355
 30
0.0
 11
8264.293061
 21
40849.997355
 31
0.0
  0
LINE
  5
E0
  8
0
  6
BYBLOCK
 62
     9
 10
8132.094137
 20
40795.0
 30
0.0
 11
8264.293061
 21
40795.0
 31
0.0
  0
LINE
  5
E1
  8
0
  6
BYBLOCK
 62
     9
 10
8263.293061
 20
40869.997355
 30
0.0
 11
8263.293061
 21
40889.997355
 31
0.0
  0
LINE
  5
E2
  8
0
  6
BYBLOCK
 62
     9
 10
8263.293061
 20
40775.0
 30
0.0
 11
8263.293061
 21
40755.0
 31
0.0
  0
TEXT
  5
E3
  8
0
  6
BYBLOCK
 62
    11
 10
8280.793061
 20
40725.833333
 30
0.0
 40
35.0
  1
55
 50
90.0
  0
LINE
  5
E4
  8
0
  6
BYBLOCK
 62
     9
 10
8263.293061
 20
40849.997355
 30
0.0
 11
8263.293061
 21
40795.0
 31
0.0
  0
SOLID
  5
E5
  8
0
  6
BYBLOCK
 62
     9
 10
8259.959728
 20
40869.997355
 30
0.0
 11
8266.626394
 21
40869.997355
 31
0.0
 12
8263.293061
 22
40849.997355
 32
0.0
 13
8263.293061
 23
40849.997355
 33
0.0
  0
SOLID
  5
E6
  8
0
  6
BYBLOCK
 62
     9
 10
8259.959728
 20
40775.0
 30
0.0
 11
8266.626394
 21
40775.0
 31
0.0
 12
8263.293061
 22
40795.0
 32
0.0
 13
8263.293061
 23
40795.0
 33
0.0
  0
POINT
  5
E7
  8
DEFPOINTS
  6
BYBLOCK
 62
     0
 10
8208.0
 20
40849.997355
 30
0.0
  0
POINT
  5
E8
  8
DEFPOINTS
  6
BYBLOCK
 62
     0
 10
8122.094137
 20
40795.0
 30
0.0
  0
POINT
  5
E9
  8
DEFPOINTS
  6
BYBLOCK
 62
     0
 10
8263.293061
 20
40795.0
 30
0.0
  0
ENDBLK
  5
EB
  8
0
  0
BLOCK
  8
0
  2
*D11
 70
     1
 10
0.0
 20
0.0
 30
0.0
  3
*D11
  1

  0
LINE
  5
3F
  8
0
  6
BYBLOCK
 62
     9
 10
8050.0
 20
40634.997355
 30
0.0
 11
8396.011131
 21
40634.997355
 31
0.0
  0
LINE
  5
40
  8
0
  6
BYBLOCK
 62
     9
 10
8218.0
 20
40849.997355
 30
0.0
 11
8396.011131
 21
40849.997355
 31
0.0
  0
LINE
  5
41
  8
0
  6
BYBLOCK
 62
     9
 10
8395.011131
 20
40654.997355
 30
0.0
 11
8395.011131
 21
40686.664022
 31
0.0
  0
LINE
  5
42
  8
0
  6
BYBLOCK
 62
     9
 10
8395.011131
 20
40829.997355
 30
0.0
 11
8395.011131
 21
40798.330689
 31
0.0
  0
SOLID
  5
43
  8
0
  6
BYBLOCK
 62
     9
 10
8391.677797
 20
40654.997355
 30
0.0
 11
8398.344464
 21
40654.997355
 31
0.0
 12
8395.011131
 22
40634.997355
 32
0.0
 13
8395.011131
 23
40634.997355
 33
0.0
  0
SOLID
  5
44
  8
0
  6
BYBLOCK
 62
     9
 10
8391.677797
 20
40829.997355
 30
0.0
 11
8398.344464
 21
40829.997355
 31
0.0
 12
8395.011131
 22
40849.997355
 32
0.0
 13
8395.011131
 23
40849.997355
 33
0.0
  0
TEXT
  5
45
  8
0
  6
BYBLOCK
 62
    11
 10
8412.511131
 20
40701.664022
 30
0.0
 40
35.0
  1
215
 50
90.0
  0
POINT
  5
46
  8
DEFPOINTS
  6
BYBLOCK
 62
     0
 10
8040.0
 20
40634.997355
 30
0.0
  0
POINT
  5
47
  8
DEFPOINTS
  6
BYBLOCK
 62
     0
 10
8208.0
 20
40849.997355
 30
0.0
  0
POINT
  5
48
  8
DEFPOINTS
  6
BYBLOCK
 62
     0
 10
8395.011131
 20
40849.997355
 30
0.0
  0
ENDBLK
  5
4A
  8
0
  0
ENDSEC
  0
SECTION
  2
ENTITIES
  0
DIMENSION
  5
20
  8
TEAM-MAS
  2
*D8
 10
-76.5
 20
995.992379
 30
0.0
 11
0.0
 21
995.992379
 31
0.0
 12
-8000.0
 22
-40000.0
 32
0.0
 70
   128
 13
76.5
 23
1049.997355
 33
0.0
 14
-76.5
 24
1049.997355
 34
0.0
1001
ACAD
1000
DSTYLE
1002
{
1070
    40
1040
1.0
1002
}
  0
DIMENSION
  5
2F
  8
TEAM-MAS
  2
*D9
 10
351.832656
 20
849.997355
 30
0.0
 11
351.832656
 21
717.497355
 31
0.0
 12
-8000.0
 22
-40000.0
 32
0.0
 13
0.0
 23
584.997355
 33
0.0
 14
208.0
 24
849.997355
 34
0.0
 50
90.0
1001
ACAD
1000
DSTYLE
1002
{
1070
    40
1040
1.0
1002
}
  0
DIMENSION
  5
3D
  8
TEAM-MAS
  2
*D11
 10
395.011131
 20
849.997355
 30
0.0
 11
395.011131
 21
742.497355
 31
0.0
 12
-8000.0
 22
-40000.0
 32
0.0
 13
40.0
 23
634.997355
 33
0.0
 14
208.0
 24
849.997355
 34
0.0
 50
90.0
1001
ACAD
1000
DSTYLE
1002
{
1070
    40
1040
1.0
1002
}
  0
DIMENSION
  5
4B
  8
TEAM-MAS
  2
*D1
 10
225.0
 20
939.957191
 30
10.0
 11
0.0
 21
951.889961
 31
0.0
 12
-8000.0
 22
-40000.0
 32
0.0
 70
   128
 13
-225.0
 23
829.997355
 33
0.0
 14
225.0
 24
829.997355
 34
0.0
1001
ACAD
1000
DSTYLE
1002
{
1070
    40
1040
1.0
1002
}
  0
DIMENSION
  5
59
  8
TEAM-MAS
  2
*D2
 10
100.094137
 20
909.151249
 30
10.0
 11
0.094137
 21
909.151249
 31
0.0
 12
-8000.0
 22
-40000.0
 32
0.0
 13
-99.905863
 23
809.0
 33
10.0
 14
100.094137
 24
809.0
 34
10.0
1001
ACAD
1000
DSTYLE
1002
{
1070
    40
1040
1.0
1002
}
  0
DIMENSION
  5
67
  8
TEAM-MAS
  2
*D4
 10
308.884938
 20
694.997335
 30
10.0
 11
308.884938
 21
772.497345
 31
0.0
 12
-8000.0
 22
-40000.0
 32
0.0
 13
193.167971
 23
849.997355
 33
10.0
 14
0.0
 24
694.997335
 34
0.0
 50
90.0
1001
ACAD
1000
DSTYLE
1002
{
1070
    40
1040
1.0
1002
}
  0
DIMENSION
  5
75
  8
TEAM-MAS
  2
*D5
 10
351.832656
 20
0.0
 30
10.0
 11
351.832656
 21
292.498678
 31
0.0
 12
-8000.0
 22
-40000.0
 32
0.0
 13
0.0
 23
584.997355
 33
0.0
 14
0.0
 24
0.0
 34
10.0
 50
90.0
1001
ACAD
1000
DSTYLE
1002
{
1070
    40
1040
1.0
1002
}
  0
DIMENSION
  5
83
  8
TEAM-MAS
  2
*D7
 10
395.011131
 20
634.997355
 30
10.0
 11
395.011131
 21
317.498678
 31
0.0
 12
-8000.0
 22
-40000.0
 32
0.0
 13
0.0
 23
0.0
 33
10.0
 14
40.0
 24
634.997355
 34
0.0
 50
90.0
1001
ACAD
1000
DSTYLE
1002
{
1070
    40
1040
1.0
1002
}
  0
POLYLINE
  5
91
  8
TEAM-BODY
 66
     1
 10
0.0
 20
0.0
 30
0.0
 70
     1
  0
VERTEX
  5
231
  8
TEAM-BODY
 10
220.0
 20
809.997355
 30
0.0
 42
0.414214
  0
VERTEX
  5
232
  8
TEAM-BODY
 10
225.0
 20
814.997355
 30
0.0
  0
VERTEX
  5
233
  8
TEAM-BODY
 10
225.0
 20
844.997355
 30
0.0
 42
0.414214
  0
VERTEX
  5
234
  8
TEAM-BODY
 10
220.0
 20
849.997355
 30
0.0
 42
-0.414214
  0
VERTEX
  5
235
  8
TEAM-BODY
 10
215.0
 20
854.997355
 30
0.0
  0
VERTEX
  5
236
  8
TEAM-BODY
 10
215.0
 20
877.997355
 30
0.0
 42
0.414214
  0
VERTEX
  5
237
  8
TEAM-BODY
 10
208.0
 20
884.997355
 30
0.0
  0
VERTEX
  5
238
  8
TEAM-BODY
 10
-208.0
 20
884.997355
 30
0.0
 42
0.414214
  0
VERTEX
  5
239
  8
TEAM-BODY
 10
-215.0
 20
877.997355
 30
0.0
  0
VERTEX
  5
23A
  8
TEAM-BODY
 10
-215.0
 20
854.997355
 30
0.0
 42
-0.414214
  0
VERTEX
  5
23B
  8
TEAM-BODY
 10
-220.0
 20
849.997355
 30
0.0
 42
0.414214
  0
VERTEX
  5
23C
  8
TEAM-BODY
 10
-225.0
 20
844.997355
 30
0.0
  0
VERTEX
  5
23D
  8
TEAM-BODY
 10
-225.0
 20
814.997355
 30
0.0
 42
0.414214
  0
VERTEX
  5
23E
  8
TEAM-BODY
 10
-220.0
 20
809.997355
 30
0.0
 42
0.258792
  0
VERTEX
  5
23F
  8
TEAM-BODY
 10
-177.281588
 20
717.694453
 30
0.0
 42
0.19026
  0
VERTEX
  5
240
  8
TEAM-BODY
 10
-170.450217
 20
714.997355
 30
0.0
 42
-0.050801
  0
VERTEX
  5
241
  8
TEAM-BODY
 10
170.450217
 20
714.997355
 30
0.0
 42
0.19026
  0
VERTEX
  5
242
  8
TEAM-BODY
 10
177.281588
 20
717.694453
 30
0.0
 42
0.258792
  0
SEQEND
  5
243
  8
TEAM-BODY
  0
LINE
  5
93
  8
TEAM-BODY
 10
-220.0
 20
809.997355
 30
0.0
 11
220.0
 21
809.997355
 31
0.0
  0
LINE
  5
94
  8
TEAM-BODY
 10
-220.0
 20
849.997355
 30
0.0
 11
220.0
 21
849.997355
 31
0.0
  0
TEXT
  5
95
  8
TEAM-TXT
 10
-87.834796
 20
734.955021
 30
0.0
 40
30.0
  1
team 221066
 41
0.8
 51
15.0
  7
TEAM
  0
DIMENSION
  5
98
  8
TEAM-MAS
  2
*D3
 10
-40.0
 20
474.342996
 30
10.0
 11
0.0
 21
474.342996
 31
0.0
 12
-8000.0
 22
-40000.0
 32
0.0
 70
   128
 13
40.0
 23
634.997355
 33
0.0
 14
-40.0
 24
634.997355
 34
0.0
1001
ACAD
1000
DSTYLE
1002
{
1070
    40
1040
1.0
1002
}
  0
ARC
  5
A5
  8
TEAM-BODY
 10
-44.5
 20
716.065148
 30
0.0
 40
7.0
 50
360.0
 51
91.522404
  0
ARC
  5
A6
  8
TEAM-BODY
 10
44.5
 20
716.065148
 30
0.0
 40
7.0
 50
88.477596
 51
180.0
  0
LINE
  5
A7
  8
TEAM-BODY
 10
-37.5
 20
694.997355
 30
0.0
 11
-37.5
 21
716.065148
 31
0.0
  0
LINE
  5
A8
  8
TEAM-BODY
 10
37.5
 20
694.997355
 30
0.0
 11
37.5
 21
716.065148
 31
0.0
  0
LINE
  5
A9
  8
TEAM-BODY
 10
-37.5
 20
694.997355
 30
0.0
 11
37.5
 21
694.997355
 31
0.0
  0
LINE
  5
AA
  8
TEAM-AXE
 10
40.0
 20
634.997355
 30
0.0
 11
30.0
 21
634.997355
 31
0.0
  0
CIRCLE
  5
AD
  8
TEAM-COLD
 10
40.0
 20
634.997355
 30
0.0
 40
10.0
  0
CIRCLE
  5
AF
  8
TEAM-WARM
 10
-76.5
 20
1049.997355
 30
0.0
 40
10.0
  0
POINT
  5
B1
  8
TEAM-MAS
 10
-76.5
 20
1029.997355
 30
0.0
  0
POINT
  5
B2
  8
TEAM-MAS
 10
-76.5
 20
1029.997355
 30
0.0
  0
POINT
  5
B3
  8
TEAM-MAS
 10
-76.5
 20
1029.997355
 30
0.0
  0
LINE
  5
B4
  8
TEAM-AXE
 10
-76.5
 20
1049.997355
 30
0.0
 11
-66.5
 21
1049.997355
 31
0.0
  0
LINE
  5
B5
  8
TEAM-AXE
 10
-76.5
 20
1049.997355
 30
0.0
 11
-76.5
 21
1059.997355
 31
0.0
  0
LINE
  5
B6
  8
TEAM-AXE
 10
-76.5
 20
1049.997355
 30
0.0
 11
-86.5
 21
1049.997355
 31
0.0
  0
LINE
  5
B7
  8
TEAM-AXE
 10
-76.5
 20
1049.997355
 30
0.0
 11
-76.5
 21
1039.997355
 31
0.0
  0
LINE
  5
B8
  8
TEAM-AXE
 10
-99.905863
 20
780.0
 30
0.0
 11
-99.905863
 21
788.0
 31
0.0
  0
LINE
  5
B9
  8
TEAM-AXE
 10
-111.905863
 20
795.0
 30
0.0
 11
-121.905863
 21
795.0
 31
0.0
  0
LINE
  5
BA
  8
TEAM-AXE
 10
-99.905863
 20
809.0
 30
0.0
 11
-99.905863
 21
802.0
 31
0.0
  0
LINE
  5
BB
  8
TEAM-AXE
 10
-91.905863
 20
795.0
 30
0.0
 11
-107.905863
 21
795.0
 31
0.0
  0
POINT
  5
BC
  8
TEAM-AXE
 10
-99.905863
 20
801.0
 30
0.0
  0
POINT
  5
BD
  8
TEAM-AXE
 10
-99.905863
 20
789.0
 30
0.0
  0
POINT
  5
BE
  8
TEAM-AXE
 10
-109.905863
 20
795.0
 30
0.0
  0
LINE
  5
BF
  8
TEAM-AXE
 10
-99.905863
 20
791.0
 30
0.0
 11
-99.905863
 21
800.0
 31
0.0
  0
POINT
  5
C0
  8
TEAM-AXE
 10
-89.905863
 20
795.0
 30
0.0
  0
LINE
  5
C1
  8
TEAM-AXE
 10
-87.905863
 20
795.0
 30
0.0
 11
-78.905863
 21
795.0
 31
0.0
  0
POLYLINE
  5
C2
  8
TEAM-HIDE
 66
     1
 10
0.0
 20
0.0
 30
0.0
 70
     1
  0
VERTEX
  5
244
  8
TEAM-HIDE
 10
-94.905863
 20
785.0
 30
0.0
 42
0.414214
  0
VERTEX
  5
245
  8
TEAM-HIDE
 10
-84.905863
 20
795.0
 30
0.0
 42
0.414214
  0
VERTEX
  5
246
  8
TEAM-HIDE
 10
-94.905863
 20
805.0
 30
0.0
  0
VERTEX
  5
247
  8
TEAM-HIDE
 10
-104.905863
 20
805.0
 30
0.0
 42
0.414214
  0
VERTEX
  5
248
  8
TEAM-HIDE
 10
-114.905863
 20
795.0
 30
0.0
 42
0.414214
  0
VERTEX
  5
249
  8
TEAM-HIDE
 10
-104.905863
 20
785.0
 30
0.0
  0
VERTEX
  5
24A
  8
TEAM-HIDE
 10
-99.905863
 20
785.0
 30
0.0
  0
SEQEND
  5
24B
  8
TEAM-HIDE
  0
LINE
  5
C5
  8
TEAM-AXE
 10
0.0
 20
584.997355
 30
0.0
 11
20.0
 21
584.997355
 31
0.0
  0
CIRCLE
  5
C6
  8
TEAM-KAN
 10
0.0
 20
584.997355
 30
0.0
 40
20.0
  0
LINE
  5
C8
  8
TEAM-AXE
 10
0.0
 20
584.997355
 30
0.0
 11
0.0
 21
564.997355
 31
0.0
  0
LINE
  5
C9
  8
TEAM-AXE
 10
0.0
 20
584.997355
 30
0.0
 11
-20.0
 21
584.997355
 31
0.0
  0
POINT
  5
CA
  8
TEAM-MAS
 10
40.0
 20
584.997355
 30
0.0
  0
POINT
  5
CB
  8
TEAM-MAS
 10
40.0
 20
584.997355
 30
0.0
  0
LINE
  5
CC
  8
TEAM-AXE
 10
0.0
 20
584.997355
 30
0.0
 11
0.0
 21
604.997355
 31
0.0
  0
LINE
  5
CD
  8
TEAM-AXE
 10
-40.0
 20
634.997355
 30
0.0
 11
-40.0
 21
644.997355
 31
0.0
  0
LINE
  5
CE
  8
TEAM-AXE
 10
-40.0
 20
634.997355
 30
0.0
 11
-30.0
 21
634.997355
 31
0.0
  0
LINE
  5
CF
  8
TEAM-AXE
 10
-40.0
 20
634.997355
 30
0.0
 11
-40.0
 21
624.997355
 31
0.0
  0
CIRCLE
  5
D0
  8
TEAM-WARM
 10
-40.0
 20
634.997355
 30
0.0
 40
10.0
  0
POINT
  5
D1
  8
TEAM-MAS
 10
-40.0
 20
614.997355
 30
0.0
  0
POINT
  5
D2
  8
TEAM-MAS
 10
-40.0
 20
614.997355
 30
0.0
  0
POINT
  5
D3
  8
TEAM-MAS
 10
-40.0
 20
614.997355
 30
0.0
  0
LINE
  5
D4
  8
TEAM-AXE
 10
-40.0
 20
634.997355
 30
0.0
 11
-50.0
 21
634.997355
 31
0.0
  0
CIRCLE
  5
D5
  8
TEAM-INSP
 10
0.0
 20
0.0
 30
0.0
 40
10.0
  0
LINE
  5
D7
  8
TEAM-AXE
 10
40.0
 20
634.997355
 30
0.0
 11
40.0
 21
644.997355
 31
0.0
  0
LINE
  5
D8
  8
TEAM-AXE
 10
40.0
 20
634.997355
 30
0.0
 11
40.0
 21
624.997355
 31
0.0
  0
POINT
  5
D9
  8
TEAM-MAS
 10
40.0
 20
614.997355
 30
0.0
  0
POINT
  5
DA
  8
TEAM-MAS
 10
40.0
 20
614.997355
 30
0.0
  0
POINT
  5
DB
  8
TEAM-MAS
 10
40.0
 20
614.997355
 30
0.0
  0
LINE
  5
DC
  8
TEAM-AXE
 10
40.0
 20
634.997355
 30
0.0
 11
50.0
 21
634.997355
 31
0.0
  0
DIMENSION
  5
DD
  8
TEAM-MAS
  2
*D10
 10
263.293061
 20
795.0
 30
0.0
 11
263.293061
 21
755.0
 31
0.0
 12
-8000.0
 22
-40000.0
 32
0.0
 70
   128
 13
208.0
 23
849.997355
 33
0.0
 14
122.094137
 24
795.0
 34
0.0
 50
90.0
1001
ACAD
1000
DSTYLE
1002
{
1070
    40
1040
1.0
1002
}
  0
DIMENSION
  5
EC
  8
TEAM-MAS
  2
*D0
 10
438.742265
 20
1049.997355
 30
10.0
 11
438.742265
 21
949.997355
 31
0.0
 12
-8000.0
 22
-40000.0
 32
0.0
 13
208.0
 23
849.997355
 33
0.0
 14
76.5
 24
1049.997355
 34
0.0
 50
90.0
1001
ACAD
1000
DSTYLE
1002
{
1070
    40
1040
1.0
1002
}
  0
DIMENSION
  5
FA
  8
TEAM-MAS
  2
*D6
 10
438.742265
 20
849.997355
 30
10.0
 11
438.742265
 21
424.998678
 31
0.0
 12
-8000.0
 22
-40000.0
 32
0.0
 13
273.521575
 23
0.0
 33
10.0
 14
208.0
 24
849.997355
 34
0.0
 50
90.0
1001
ACAD
1000
DSTYLE
1002
{
1070
    40
1040
1.0
1002
}
  0
POINT
  5
108
  8
TEAM-MAS
 10
76.5
 20
1029.997355
 30
0.0
  0
POINT
  5
109
  8
TEAM-MAS
 10
76.5
 20
1029.997355
 30
0.0
  0
POINT
  5
10A
  8
TEAM-MAS
 10
76.5
 20
1029.997355
 30
0.0
  0
POINT
  5
10B
  8
TEAM-MAS
 10
96.5
 20
1049.997355
 30
0.0
  0
POINT
  5
10C
  8
TEAM-MAS
 10
96.5
 20
1049.997355
 30
0.0
  0
POINT
  5
10D
  8
TEAM-MAS
 10
96.5
 20
1049.997355
 30
0.0
  0
LINE
  5
10E
  8
TEAM-AXE
 10
76.5
 20
1049.997355
 30
0.0
 11
76.5
 21
1059.997355
 31
0.0
  0
LINE
  5
10F
  8
TEAM-AXE
 10
76.5
 20
1049.997355
 30
0.0
 11
86.5
 21
1049.997355
 31
0.0
  0
LINE
  5
110
  8
TEAM-AXE
 10
76.5
 20
1049.997355
 30
0.0
 11
76.5
 21
1039.997355
 31
0.0
  0
CIRCLE
  5
111
  8
TEAM-COLD
 10
76.5
 20
1049.997355
 30
0.0
 40
10.0
  0
LINE
  5
112
  8
TEAM-AXE
 10
76.5
 20
1049.997355
 30
0.0
 11
66.5
 21
1049.997355
 31
0.0
  0
LINE
  5
113
  8
TEAM-AXE
 10
100.094137
 20
780.0
 30
0.0
 11
100.094137
 21
788.0
 31
0.0
  0
LINE
  5
114
  8
TEAM-AXE
 10
100.094137
 20
809.0
 30
0.0
 11
100.094137
 21
802.0
 31
0.0
  0
LINE
  5
115
  8
TEAM-AXE
 10
92.094137
 20
795.0
 30
0.0
 11
108.094137
 21
795.0
 31
0.0
  0
POINT
  5
116
  8
TEAM-AXE
 10
100.094137
 20
801.0
 30
0.0
  0
POINT
  5
117
  8
TEAM-AXE
 10
100.094137
 20
789.0
 30
0.0
  0
LINE
  5
118
  8
TEAM-AXE
 10
100.094137
 20
791.0
 30
0.0
 11
100.094137
 21
800.0
 31
0.0
  0
POINT
  5
119
  8
TEAM-AXE
 10
90.094137
 20
795.0
 30
0.0
  0
POINT
  5
11A
  8
TEAM-AXE
 10
110.094137
 20
795.0
 30
0.0
  0
LINE
  5
11B
  8
TEAM-AXE
 10
112.094137
 20
795.0
 30
0.0
 11
122.094137
 21
795.0
 31
0.0
  0
POLYLINE
  5
11C
  8
TEAM-HIDE
 66
     1
 10
0.0
 20
0.0
 30
0.0
 70
     1
  0
VERTEX
  5
24C
  8
TEAM-HIDE
 10
95.094137
 20
785.0
 30
0.0
 42
-0.414214
  0
VERTEX
  5
24D
  8
TEAM-HIDE
 10
85.094137
 20
795.0
 30
0.0
 42
-0.414214
  0
VERTEX
  5
24E
  8
TEAM-HIDE
 10
95.094137
 20
805.0
 30
0.0
  0
VERTEX
  5
24F
  8
TEAM-HIDE
 10
105.094137
 20
805.0
 30
0.0
 42
-0.414214
  0
VERTEX
  5
250
  8
TEAM-HIDE
 10
115.094137
 20
795.0
 30
0.0
 42
-0.414214
  0
VERTEX
  5
251
  8
TEAM-HIDE
 10
105.094137
 20
785.0
 30
0.0
  0
VERTEX
  5
252
  8
TEAM-HIDE
 10
100.094137
 20
785.0
 30
0.0
  0
SEQEND
  5
253
  8
TEAM-HIDE
  0
POINT
  5
11D
  8
TEAM-MAS
 10
60.0
 20
634.997355
 30
0.0
  0
POINT
  5
11E
  8
TEAM-MAS
 10
60.0
 20
634.997355
 30
0.0
  0
POINT
  5
11F
  8
TEAM-MAS
 10
60.0
 20
634.997355
 30
0.0
  0
LINE
  5
120
  8
TEAM-AXE
 10
88.094137
 20
795.0
 30
0.0
 11
79.094137
 21
795.0
 31
0.0
  0
ENDSEC
  0
EOF
