  0
SECTION
  2
HEADER
  9
$ACADVER
  1
AC1009
  9
$INSBASE
 10
0.0
 20
0.0
 30
0.0
  9
$EXTMIN
 10
-257.214077
 20
-260.019072
 30
-0.00061
  9
$EXTMAX
 10
343.759826
 20
50.761948
 30
10.00061
  9
$LIMMIN
 10
-257.214077
 20
-260.019072
  9
$LIMMAX
 10
343.759826
 20
50.761948
  9
$ORTHOMODE
 70
     1
  9
$REGENMODE
 70
     1
  9
$FILLMODE
 70
     1
  9
$QTEXTMODE
 70
     0
  9
$MIRRTEXT
 70
     0
  9
$DRAGMODE
 70
     2
  9
$LTSCALE
 40
25.0
  9
$OSMODE
 70
     0
  9
$ATTMODE
 70
     1
  9
$TEXTSIZE
 40
200.0
  9
$TRACEWID
 40
1.0
  9
$TEXTSTYLE
  7
STANDARD
  9
$CLAYER
  8
TEAM-MAS
  9
$CELTYPE
  6
BYLAYER
  9
$CECOLOR
 62
   256
  9
$DIMSCALE
 40
1.0
  9
$DIMASZ
 40
20.0
  9
$DIMEXO
 40
10.0
  9
$DIMDLI
 40
1.0
  9
$DIMRND
 40
0.0
  9
$DIMDLE
 40
0.0
  9
$DIMEXE
 40
1.0
  9
$DIMTP
 40
0.0
  9
$DIMTM
 40
0.0
  9
$DIMTXT
 40
35.0
  9
$DIMCEN
 40
1.0
  9
$DIMTSZ
 40
0.0
  9
$DIMTOL
 70
     0
  9
$DIMLIM
 70
     0
  9
$DIMTIH
 70
     0
  9
$DIMTOH
 70
     0
  9
$DIMSE1
 70
     0
  9
$DIMSE2
 70
     0
  9
$DIMTAD
 70
     0
  9
$DIMZIN
 70
     0
  9
$DIMBLK
  1

  9
$DIMASO
 70
     1
  9
$DIMSHO
 70
     0
  9
$DIMPOST
  1

  9
$DIMAPOST
  1

  9
$DIMALT
 70
     0
  9
$DIMALTD
 70
     2
  9
$DIMALTF
 40
25.4
  9
$DIMLFAC
 40
1.0
  9
$DIMTOFL
 70
     0
  9
$DIMTVP
 40
0.0
  9
$DIMTIX
 70
     0
  9
$DIMSOXD
 70
     0
  9
$DIMSAH
 70
     0
  9
$DIMBLK1
  1

  9
$DIMBLK2
  1

  9
$DIMSTYLE
  2
TEAM
  9
$DIMCLRD
 70
     9
  9
$DIMCLRE
 70
     9
  9
$DIMCLRT
 70
    11
  9
$DIMTFAC
 40
1.0
  9
$DIMGAP
 40
15.0
  9
$LUNITS
 70
     2
  9
$LUPREC
 70
     1
  9
$SKETCHINC
 40
1.0
  9
$FILLETRAD
 40
50.0
  9
$AUNITS
 70
     0
  9
$AUPREC
 70
     0
  9
$MENU
  1
ROPLANS
  9
$ELEVATION
 40
0.0
  9
$PELEVATION
 40
0.0
  9
$THICKNESS
 40
0.0
  9
$LIMCHECK
 70
     0
  9
$BLIPMODE
 70
     1
  9
$CHAMFERA
 40
0.0
  9
$CHAMFERB
 40
0.0
  9
$SKPOLY
 70
     0
  9
$TDCREATE
 40
2450392.957851
  9
$TDUPDATE
 40
2455523.423855
  9
$TDINDWG
 40
2.626044
  9
$TDUSRTIMER
 40
2.626044
  9
$USRTIMER
 70
     1
  9
$ANGBASE
 50
0.0
  9
$ANGDIR
 70
     0
  9
$PDMODE
 70
     0
  9
$PDSIZE
 40
0.0
  9
$PLINEWID
 40
0.0
  9
$COORDS
 70
     2
  9
$SPLFRAME
 70
     0
  9
$SPLINETYPE
 70
     6
  9
$SPLINESEGS
 70
     8
  9
$ATTDIA
 70
     0
  9
$ATTREQ
 70
     0
  9
$HANDLING
 70
     1
  9
$HANDSEED
  5
109
  9
$SURFTAB1
 70
    36
  9
$SURFTAB2
 70
    36
  9
$SURFTYPE
 70
     6
  9
$SURFU
 70
     6
  9
$SURFV
 70
     6
  9
$UCSNAME
  2

  9
$UCSORG
 10
0.0
 20
0.0
 30
0.0
  9
$UCSXDIR
 10
1.0
 20
0.0
 30
0.0
  9
$UCSYDIR
 10
0.0
 20
1.0
 30
0.0
  9
$PUCSNAME
  2

  9
$PUCSORG
 10
0.0
 20
0.0
 30
0.0
  9
$PUCSXDIR
 10
1.0
 20
0.0
 30
0.0
  9
$PUCSYDIR
 10
0.0
 20
1.0
 30
0.0
  9
$USERI1
 70
     0
  9
$USERI2
 70
     0
  9
$USERI3
 70
     0
  9
$USERI4
 70
     0
  9
$USERI5
 70
     0
  9
$USERR1
 40
0.0
  9
$USERR2
 40
0.0
  9
$USERR3
 40
0.0
  9
$USERR4
 40
0.0
  9
$USERR5
 40
0.0
  9
$WORLDVIEW
 70
     1
  9
$SHADEDGE
 70
     0
  9
$SHADEDIF
 70
    70
  9
$TILEMODE
 70
     1
  9
$MAXACTVP
 70
    16
  9
$PLIMCHECK
 70
     0
  9
$PEXTMIN
 10
-0.805942
 20
0.005011
 30
0.0
  9
$PEXTMAX
 10
20.250094
 20
11.356329
 30
0.0
  9
$PLIMMIN
 10
0.0
 20
0.0
  9
$PLIMMAX
 10
12.0
 20
9.0
  9
$UNITMODE
 70
     0
  9
$VISRETAIN
 70
     0
  9
$PLINEGEN
 70
     0
  9
$PSLTSCALE
 70
     0
  0
ENDSEC
  0
SECTION
  2
TABLES
  0
TABLE
  2
VPORT
 70
     2
  0
VPORT
  2
*ACTIVE
 70
     0
 10
0.0
 20
0.0
 11
1.0
 21
1.0
 12
43.272874
 22
-104.628562
 13
0.0
 23
0.0
 14
1.0
 24
1.0
 15
50.0
 25
50.0
 16
0.0
 26
0.0
 36
1.0
 17
0.0
 27
0.0
 37
0.0
 40
323.163741
 41
1.865779
 42
50.0
 43
0.0
 44
0.0
 50
0.0
 51
0.0
 71
     0
 72
   100
 73
     1
 74
     1
 75
     0
 76
     0
 77
     0
 78
     0
  0
ENDTAB
  0
TABLE
  2
LTYPE
 70
     3
  0
LTYPE
  2
CONTINUOUS
 70
     0
  3
Solid Line
 72
    65
 73
     0
 40
0.0
  0
LTYPE
  2
31
 70
     0
  3

 72
    65
 73
     4
 40
2.1
 49
1.5
 49
-0.3
 49
0.0
 49
-0.3
  0
LTYPE
  2
22
 70
     0
  3

 72
    65
 73
     2
 40
1.4
 49
1.2
 49
-0.2
  0
ENDTAB
  0
TABLE
  2
LAYER
 70
     9
  0
LAYER
  2
0
 70
     0
 62
     7
  6
CONTINUOUS
  0
LAYER
  2
DEFPOINTS
 70
     0
 62
     7
  6
CONTINUOUS
  0
LAYER
  2
TEAM-BODY
 70
     0
 62
     2
  6
CONTINUOUS
  0
LAYER
  2
TEAM-AXE
 70
     0
 62
    10
  6
31
  0
LAYER
  2
TEAM-MAS
 70
     0
 62
     9
  6
CONTINUOUS
  0
LAYER
  2
TEAM-TXT
 70
     0
 62
    11
  6
CONTINUOUS
  0
LAYER
  2
TEAM-DET1
 70
     0
 62
     4
  6
CONTINUOUS
  0
LAYER
  2
TEAM-HIDE
 70
     0
 62
     8
  6
22
  0
LAYER
  2
TEAM-INSP
 70
     0
 62
     5
  6
CONTINUOUS
  0
ENDTAB
  0
TABLE
  2
STYLE
 70
     2
  0
STYLE
  2
STANDARD
 70
     0
 40
0.0
 41
1.0
 50
0.0
 71
     0
 42
200.0
  3
txt
  4

  0
STYLE
  2
TEAM
 70
     0
 40
0.0
 41
0.8
 50
15.0
 71
     0
 42
7.0
  3
ROMANS.shx
  4

  0
ENDTAB
  0
TABLE
  2
VIEW
 70
     0
  0
ENDTAB
  0
TABLE
  2
UCS
 70
     0
  0
ENDTAB
  0
TABLE
  2
APPID
 70
     1
  0
APPID
  2
ACAD
 70
     0
  0
ENDTAB
  0
TABLE
  2
DIMSTYLE
 70
     1
  0
DIMSTYLE
  2
TEAM
 70
     0
  3

  4

  5

  6

  7

 40
1.0
 41
20.0
 42
10.0
 43
1.0
 44
1.0
 45
0.0
 46
0.0
 47
0.0
 48
0.0
140
35.0
141
1.0
142
0.0
143
25.4
144
1.0
145
0.0
146
1.0
147
15.0
 71
     0
 72
     0
 73
     0
 74
     0
 75
     0
 76
     0
 77
     0
 78
     0
170
     0
171
     2
172
     0
173
     0
174
     0
175
     0
176
     9
177
     9
178
    11
  0
ENDTAB
  0
ENDSEC
  0
SECTION
  2
BLOCKS
  0
BLOCK
  8
0
  2
$MODEL_SPACE
 70
     0
 10
0.0
 20
0.0
 30
0.0
  3
$MODEL_SPACE
  1

  0
ENDBLK
  5
FB
  8
0
  0
BLOCK
 67
     1
  8
0
  2
$PAPER_SPACE
 70
     0
 10
0.0
 20
0.0
 30
0.0
  3
$PAPER_SPACE
  1

  0
ENDBLK
  5
F9
 67
     1
  8
0
  0
BLOCK
  8
0
  2
*D0
 70
     1
 10
0.0
 20
0.0
 30
0.0
  3
*D0
  1

  0
LINE
  5
3F
  8
0
  6
BYBLOCK
 62
     9
 10
4260.0
 20
44000.0
 30
0.0
 11
4328.970675
 21
44000.0
 31
0.0
  0
LINE
  5
40
  8
0
  6
BYBLOCK
 62
     9
 10
4010.0
 20
43740.0
 30
0.0
 11
4328.970675
 21
43740.0
 31
0.0
  0
LINE
  5
41
  8
0
  6
BYBLOCK
 62
     9
 10
4327.970675
 20
43980.0
 30
0.0
 11
4327.970675
 21
43928.75
 31
0.0
  0
LINE
  5
42
  8
0
  6
BYBLOCK
 62
     9
 10
4327.970675
 20
43760.0
 30
0.0
 11
4327.970675
 21
43811.25
 31
0.0
  0
SOLID
  5
43
  8
0
  6
BYBLOCK
 62
     9
 10
4324.637341
 20
43980.0
 30
0.0
 11
4331.304008
 21
43980.0
 31
0.0
 12
4327.970675
 22
44000.0
 32
0.0
 13
4327.970675
 23
44000.0
 33
0.0
  0
SOLID
  5
44
  8
0
  6
BYBLOCK
 62
     9
 10
4324.637341
 20
43760.0
 30
0.0
 11
4331.304008
 21
43760.0
 31
0.0
 12
4327.970675
 22
43740.0
 32
0.0
 13
4327.970675
 23
43740.0
 33
0.0
  0
TEXT
  5
45
  8
0
  6
BYBLOCK
 62
    11
 10
4345.470675
 20
43826.25
 30
0.0
 40
35.0
  1
260
 50
90.0
  0
POINT
  5
46
  8
DEFPOINTS
  6
BYBLOCK
 62
     0
 10
4250.0
 20
44000.0
 30
0.0
  0
POINT
  5
47
  8
DEFPOINTS
  6
BYBLOCK
 62
     0
 10
4000.0
 20
43740.0
 30
0.0
  0
POINT
  5
48
  8
DEFPOINTS
  6
BYBLOCK
 62
     0
 10
4327.970675
 20
43740.0
 30
10.0
  0
ENDBLK
  5
4A
  8
0
  0
BLOCK
  8
0
  2
*D1
 70
     1
 10
0.0
 20
0.0
 30
0.0
  3
*D1
  1

  0
LINE
  5
22
  8
0
  6
BYBLOCK
 62
     9
 10
3750.0
 20
44010.0
 30
0.0
 11
3750.0
 21
44035.983342
 31
0.0
  0
LINE
  5
23
  8
0
  6
BYBLOCK
 62
     9
 10
4250.0
 20
44010.0
 30
0.0
 11
4250.0
 21
44035.983342
 31
0.0
  0
LINE
  5
24
  8
0
  6
BYBLOCK
 62
     9
 10
3770.0
 20
44034.983342
 30
0.0
 11
3944.166667
 21
44034.983342
 31
0.0
  0
LINE
  5
25
  8
0
  6
BYBLOCK
 62
     9
 10
4230.0
 20
44034.983342
 30
0.0
 11
4055.833333
 21
44034.983342
 31
0.0
  0
SOLID
  5
26
  8
0
  6
BYBLOCK
 62
     9
 10
3770.0
 20
44038.316676
 30
0.0
 11
3770.0
 21
44031.650009
 31
0.0
 12
3750.0
 22
44034.983342
 32
0.0
 13
3750.0
 23
44034.983342
 33
0.0
  0
SOLID
  5
27
  8
0
  6
BYBLOCK
 62
     9
 10
4230.0
 20
44038.316676
 30
0.0
 11
4230.0
 21
44031.650009
 31
0.0
 12
4250.0
 22
44034.983342
 32
0.0
 13
4250.0
 23
44034.983342
 33
0.0
  0
TEXT
  5
28
  8
0
  6
BYBLOCK
 62
    11
 10
3959.166667
 20
44017.483342
 30
0.0
 40
35.0
  1
500
  0
POINT
  5
29
  8
DEFPOINTS
  6
BYBLOCK
 62
     0
 10
3750.0
 20
44000.0
 30
0.0
  0
POINT
  5
2B
  8
DEFPOINTS
  6
BYBLOCK
 62
     0
 10
4250.0
 20
44000.0
 30
0.0
  0
POINT
  5
2C
  8
DEFPOINTS
  6
BYBLOCK
 62
     0
 10
4250.0
 20
44034.983342
 30
0.0
  0
ENDBLK
  5
2E
  8
0
  0
BLOCK
  8
0
  2
*D2
 70
     1
 10
0.0
 20
0.0
 30
0.0
  3
*D2
  1

  0
LINE
  5
31
  8
0
  6
BYBLOCK
 62
     9
 10
4260.0
 20
44000.0
 30
0.0
 11
4284.079423
 21
44000.0
 31
0.0
  0
LINE
  5
32
  8
0
  6
BYBLOCK
 62
     9
 10
4010.427754
 20
43900.0
 30
0.0
 11
4284.079423
 21
43900.0
 31
0.0
  0
LINE
  5
33
  8
0
  6
BYBLOCK
 62
     9
 10
4283.079423
 20
43980.0
 30
0.0
 11
4283.079423
 21
43965.0
 31
0.0
  0
LINE
  5
34
  8
0
  6
BYBLOCK
 62
     9
 10
4283.079423
 20
43920.0
 30
0.0
 11
4283.079423
 21
43935.0
 31
0.0
  0
TEXT
  5
35
  8
0
  6
BYBLOCK
 62
    11
 10
4300.579423
 20
43915.0
 30
0.0
 40
35.0
  1
100
 50
90.0
  0
SOLID
  5
36
  8
0
  6
BYBLOCK
 62
     9
 10
4279.74609
 20
43980.0
 30
0.0
 11
4286.412757
 21
43980.0
 31
0.0
 12
4283.079423
 22
44000.0
 32
0.0
 13
4283.079423
 23
44000.0
 33
0.0
  0
SOLID
  5
37
  8
0
  6
BYBLOCK
 62
     9
 10
4279.74609
 20
43920.0
 30
0.0
 11
4286.412757
 21
43920.0
 31
0.0
 12
4283.079423
 22
43900.0
 32
0.0
 13
4283.079423
 23
43900.0
 33
0.0
  0
POINT
  5
38
  8
DEFPOINTS
  6
BYBLOCK
 62
     0
 10
4250.0
 20
44000.0
 30
0.0
  0
POINT
  5
39
  8
DEFPOINTS
  6
BYBLOCK
 62
     0
 10
4000.427754
 20
43900.0
 30
0.0
  0
POINT
  5
3A
  8
DEFPOINTS
  6
BYBLOCK
 62
     0
 10
4283.079423
 20
43900.0
 30
0.0
  0
ENDBLK
  5
3C
  8
0
  0
ENDSEC
  0
SECTION
  2
ENTITIES
  0
DIMENSION
  5
20
  8
TEAM-MAS
  2
*D1
 10
250.0
 20
34.983342
 30
0.0
 11
0.0
 21
34.983342
 31
0.0
 12
-4000.0
 22
-44000.0
 32
0.0
 13
-250.0
 23
0.0
 33
0.0
 14
250.0
 24
0.0
 34
0.0
1001
ACAD
1000
DSTYLE
1002
{
1070
    40
1040
1.0
1002
}
  0
DIMENSION
  5
2F
  8
TEAM-MAS
  2
*D2
 10
283.079423
 20
-100.0
 30
0.0
 11
283.079423
 21
-50.0
 31
0.0
 12
-4000.0
 22
-44000.0
 32
0.0
 70
   128
 13
250.0
 23
0.0
 33
0.0
 14
0.427754
 24
-100.0
 34
0.0
 50
90.0
1001
ACAD
1000
DSTYLE
1002
{
1070
    40
1040
1.0
1002
}
  0
DIMENSION
  5
3D
  8
TEAM-MAS
  2
*D0
 10
327.970675
 20
-260.0
 30
10.0
 11
327.970675
 21
-130.0
 31
0.0
 12
-4000.0
 22
-44000.0
 32
0.0
 13
250.0
 23
0.0
 33
0.0
 14
0.0
 24
-260.0
 34
0.0
 50
90.0
1001
ACAD
1000
DSTYLE
1002
{
1070
    40
1040
1.0
1002
}
  0
CIRCLE
  5
4B
  8
TEAM-HIDE
 10
178.60146
 20
-100.0
 30
0.0
 40
15.0
  0
CIRCLE
  5
4E
  8
TEAM-HIDE
 10
-178.60146
 20
-100.0
 30
0.0
 40
15.0
  0
LINE
  5
4F
  8
TEAM-AXE
 10
197.92343
 20
-100.0
 30
0.0
 11
159.279489
 21
-100.0
 31
0.0
  0
LINE
  5
52
  8
TEAM-AXE
 10
178.60146
 20
-119.321971
 30
0.0
 11
178.60146
 21
-80.678029
 31
0.0
  0
ARC
  5
53
  8
TEAM-BODY
 10
-133.0
 20
-220.013973
 30
0.0
 40
7.0
 50
180.0
 51
267.427699
  0
ARC
  5
55
  8
TEAM-BODY
 10
-133.0
 20
-42.0
 30
0.0
 40
7.0
 50
90.0
 51
180.0
  0
ARC
  5
56
  8
TEAM-BODY
 10
133.0
 20
-42.0
 30
0.0
 40
7.0
 50
0.0
 51
90.0
  0
ARC
  5
57
  8
TEAM-BODY
 10
133.0
 20
-220.013973
 30
0.0
 40
7.0
 50
272.572301
 51
0.0
  0
LINE
  5
58
  8
TEAM-BODY
 10
-140.0
 20
-42.0
 30
0.0
 11
-140.0
 21
-220.013973
 31
0.0
  0
LINE
  5
59
  8
TEAM-BODY
 10
140.0
 20
-42.0
 30
0.0
 11
140.0
 21
-220.013973
 31
0.0
  0
LINE
  5
5A
  8
TEAM-BODY
 10
219.738108
 20
-35.0
 30
0.0
 11
238.370992
 21
-35.0
 31
0.0
  0
ARC
  5
5B
  8
TEAM-BODY
 10
237.466283
 20
-37.560812
 30
0.0
 40
9.629267
 50
30.197305
 51
96.836
  0
LINE
  5
5C
  8
TEAM-BODY
 10
245.0
 20
0.0
 30
0.0
 11
245.0
 21
-28.0
 31
0.0
  0
ARC
  5
5D
  8
TEAM-BODY
 10
213.0
 20
-42.0
 30
0.0
 40
7.0
 50
0.0
 51
90.0
  0
LINE
  5
5E
  8
TEAM-AXE
 10
-197.92343
 20
-100.0
 30
0.0
 11
-159.279489
 21
-100.0
 31
0.0
  0
LINE
  5
5F
  8
TEAM-AXE
 10
-178.60146
 20
-119.321971
 30
0.0
 11
-178.60146
 21
-80.678029
 31
0.0
  0
ARC
  5
60
  8
TEAM-BODY
 10
213.0
 20
-215.33566
 30
0.0
 40
7.0
 50
274.669056
 51
0.0
  0
LINE
  5
61
  8
TEAM-BODY
 10
220.0
 20
-42.0
 30
0.0
 11
220.0
 21
-215.33566
 31
0.0
  0
ARC
  5
62
  8
TEAM-BODY
 10
-213.0
 20
-42.0
 30
0.0
 40
7.0
 50
90.0
 51
180.0
  0
ARC
  5
63
  8
TEAM-BODY
 10
-237.466283
 20
-37.560812
 30
0.0
 40
9.629267
 50
83.164
 51
149.802695
  0
LINE
  5
64
  8
TEAM-BODY
 10
-245.0
 20
0.0
 30
0.0
 11
-245.0
 21
-28.0
 31
0.0
  0
LINE
  5
65
  8
TEAM-BODY
 10
-219.738108
 20
-35.0
 30
0.0
 11
-238.370992
 21
-35.0
 31
0.0
  0
ARC
  5
66
  8
TEAM-BODY
 10
-213.0
 20
-215.33566
 30
0.0
 40
7.0
 50
180.0
 51
265.330944
  0
LINE
  5
67
  8
TEAM-BODY
 10
-220.0
 20
-42.0
 30
0.0
 11
-220.0
 21
-215.33566
 31
0.0
  0
LINE
  5
68
  8
TEAM-BODY
 10
-236.320132
 20
-28.0
 30
0.0
 11
236.320132
 21
-28.0
 31
0.0
  0
LINE
  5
69
  8
TEAM-BODY
 10
-213.0
 20
-35.0
 30
0.0
 11
213.0
 21
-35.0
 31
0.0
  0
ARC
  5
6A
  8
TEAM-BODY
 10
0.0
 20
2740.455113
 30
0.0
 40
2970.455113
 50
265.87699
 51
274.12301
  0
POLYLINE
  5
6B
  8
TEAM-BODY
 66
     1
 10
0.0
 20
0.0
 30
0.0
 70
     1
  0
VERTEX
  5
101
  8
TEAM-BODY
 10
250.0
 20
0.0
 30
0.0
  0
VERTEX
  5
102
  8
TEAM-BODY
 10
-250.0
 20
0.0
 30
0.0
  0
VERTEX
  5
103
  8
TEAM-BODY
 10
-250.0
 20
-215.370661
 30
0.0
 42
0.390649
  0
VERTEX
  5
104
  8
TEAM-BODY
 10
-215.9981
 20
-252.248994
 30
0.0
 42
0.035885
  0
VERTEX
  5
105
  8
TEAM-BODY
 10
215.9981
 20
-252.248994
 30
0.0
 42
0.390649
  0
VERTEX
  5
106
  8
TEAM-BODY
 10
250.0
 20
-215.370661
 30
0.0
  0
SEQEND
  5
107
  8
TEAM-BODY
  0
CIRCLE
  5
6C
  8
TEAM-INSP
 10
0.0
 20
0.0
 30
0.0
 40
10.0
  0
LINE
  5
6E
  8
TEAM-AXE
 10
45.212708
 20
-100.0
 30
0.0
 11
-44.787292
 21
-100.0
 31
0.0
  0
CIRCLE
  5
6F
  8
TEAM-DET1
 10
0.427754
 20
-100.0
 30
0.0
 40
37.5
  0
ARC
  5
71
  8
TEAM-BODY
 10
0.427754
 20
-100.0
 30
0.0
 40
23.75
 50
180.0
 51
0.0
  0
ARC
  5
72
  8
TEAM-BODY
 10
0.427754
 20
-100.0
 30
0.0
 40
23.75
 50
0.0
 51
180.0
  0
LINE
  5
73
  8
TEAM-AXE
 10
0.427754
 20
-56.0
 30
0.0
 11
0.427754
 21
-146.0
 31
0.0
  0
TEXT
  5
74
  8
TEAM-TXT
 10
-138.185706
 20
-207.599597
 30
0.0
 40
30.0
  1
team 221067
 41
0.8
 51
15.0
  7
TEAM
  0
ENDSEC
  0
EOF
