  0
SECTION
  2
HEADER
  9
$ACADVER
  1
AC1009
  9
$INSBASE
 10
0.0
 20
0.0
 30
0.0
  9
$EXTMIN
 10
-269.272824
 20
-10.034261
 30
-0.000064
  9
$EXTMAX
 10
481.231964
 20
1060.017163
 30
10.000409
  9
$LIMMIN
 10
-269.272824
 20
-10.034261
  9
$LIMMAX
 10
481.231964
 20
1060.017163
  9
$ORTHOMODE
 70
     1
  9
$REGENMODE
 70
     1
  9
$FILLMODE
 70
     1
  9
$QTEXTMODE
 70
     0
  9
$MIRRTEXT
 70
     0
  9
$DRAGMODE
 70
     2
  9
$LTSCALE
 40
25.0
  9
$OSMODE
 70
     0
  9
$ATTMODE
 70
     1
  9
$TEXTSIZE
 40
200.0
  9
$TRACEWID
 40
1.0
  9
$TEXTSTYLE
  7
STANDARD
  9
$CLAYER
  8
TEAM-MAS
  9
$CELTYPE
  6
BYLAYER
  9
$CECOLOR
 62
   256
  9
$DIMSCALE
 40
1.0
  9
$DIMASZ
 40
20.0
  9
$DIMEXO
 40
10.0
  9
$DIMDLI
 40
1.0
  9
$DIMRND
 40
0.0
  9
$DIMDLE
 40
0.0
  9
$DIMEXE
 40
1.0
  9
$DIMTP
 40
0.0
  9
$DIMTM
 40
0.0
  9
$DIMTXT
 40
35.0
  9
$DIMCEN
 40
1.0
  9
$DIMTSZ
 40
0.0
  9
$DIMTOL
 70
     0
  9
$DIMLIM
 70
     0
  9
$DIMTIH
 70
     0
  9
$DIMTOH
 70
     0
  9
$DIMSE1
 70
     0
  9
$DIMSE2
 70
     0
  9
$DIMTAD
 70
     0
  9
$DIMZIN
 70
     0
  9
$DIMBLK
  1

  9
$DIMASO
 70
     1
  9
$DIMSHO
 70
     0
  9
$DIMPOST
  1

  9
$DIMAPOST
  1

  9
$DIMALT
 70
     0
  9
$DIMALTD
 70
     2
  9
$DIMALTF
 40
25.4
  9
$DIMLFAC
 40
1.0
  9
$DIMTOFL
 70
     0
  9
$DIMTVP
 40
0.0
  9
$DIMTIX
 70
     0
  9
$DIMSOXD
 70
     0
  9
$DIMSAH
 70
     0
  9
$DIMBLK1
  1

  9
$DIMBLK2
  1

  9
$DIMSTYLE
  2
TEAM
  9
$DIMCLRD
 70
     9
  9
$DIMCLRE
 70
     9
  9
$DIMCLRT
 70
    11
  9
$DIMTFAC
 40
1.0
  9
$DIMGAP
 40
15.0
  9
$LUNITS
 70
     2
  9
$LUPREC
 70
     1
  9
$SKETCHINC
 40
1.0
  9
$FILLETRAD
 40
50.0
  9
$AUNITS
 70
     0
  9
$AUPREC
 70
     0
  9
$MENU
  1
ROPLANS
  9
$ELEVATION
 40
0.0
  9
$PELEVATION
 40
0.0
  9
$THICKNESS
 40
0.0
  9
$LIMCHECK
 70
     0
  9
$BLIPMODE
 70
     1
  9
$CHAMFERA
 40
0.0
  9
$CHAMFERB
 40
0.0
  9
$SKPOLY
 70
     0
  9
$TDCREATE
 40
2450392.957851
  9
$TDUPDATE
 40
2455523.423855
  9
$TDINDWG
 40
2.626044
  9
$TDUSRTIMER
 40
2.626044
  9
$USRTIMER
 70
     1
  9
$ANGBASE
 50
0.0
  9
$ANGDIR
 70
     0
  9
$PDMODE
 70
     0
  9
$PDSIZE
 40
0.0
  9
$PLINEWID
 40
0.0
  9
$COORDS
 70
     2
  9
$SPLFRAME
 70
     0
  9
$SPLINETYPE
 70
     6
  9
$SPLINESEGS
 70
     8
  9
$ATTDIA
 70
     0
  9
$ATTREQ
 70
     0
  9
$HANDLING
 70
     1
  9
$HANDSEED
  5
27C
  9
$SURFTAB1
 70
    36
  9
$SURFTAB2
 70
    36
  9
$SURFTYPE
 70
     6
  9
$SURFU
 70
     6
  9
$SURFV
 70
     6
  9
$UCSNAME
  2

  9
$UCSORG
 10
0.0
 20
0.0
 30
0.0
  9
$UCSXDIR
 10
1.0
 20
0.0
 30
0.0
  9
$UCSYDIR
 10
0.0
 20
1.0
 30
0.0
  9
$PUCSNAME
  2

  9
$PUCSORG
 10
0.0
 20
0.0
 30
0.0
  9
$PUCSXDIR
 10
1.0
 20
0.0
 30
0.0
  9
$PUCSYDIR
 10
0.0
 20
1.0
 30
0.0
  9
$USERI1
 70
     0
  9
$USERI2
 70
     0
  9
$USERI3
 70
     0
  9
$USERI4
 70
     0
  9
$USERI5
 70
     0
  9
$USERR1
 40
0.0
  9
$USERR2
 40
0.0
  9
$USERR3
 40
0.0
  9
$USERR4
 40
0.0
  9
$USERR5
 40
0.0
  9
$WORLDVIEW
 70
     1
  9
$SHADEDGE
 70
     0
  9
$SHADEDIF
 70
    70
  9
$TILEMODE
 70
     1
  9
$MAXACTVP
 70
    16
  9
$PLIMCHECK
 70
     0
  9
$PEXTMIN
 10
-0.805942
 20
0.005011
 30
0.0
  9
$PEXTMAX
 10
20.250094
 20
11.356329
 30
0.0
  9
$PLIMMIN
 10
0.0
 20
0.0
  9
$PLIMMAX
 10
12.0
 20
9.0
  9
$UNITMODE
 70
     0
  9
$VISRETAIN
 70
     0
  9
$PLINEGEN
 70
     0
  9
$PSLTSCALE
 70
     0
  0
ENDSEC
  0
SECTION
  2
TABLES
  0
TABLE
  2
VPORT
 70
     2
  0
VPORT
  2
*ACTIVE
 70
     0
 10
0.0
 20
0.0
 11
1.0
 21
1.0
 12
105.97957
 22
524.991451
 13
0.0
 23
0.0
 14
1.0
 24
1.0
 15
50.0
 25
50.0
 16
0.0
 26
0.0
 36
1.0
 17
0.0
 27
0.0
 37
0.0
 40
1076.622877
 41
1.865779
 42
50.0
 43
0.0
 44
0.0
 50
0.0
 51
0.0
 71
     0
 72
   100
 73
     1
 74
     1
 75
     0
 76
     0
 77
     0
 78
     0
  0
ENDTAB
  0
TABLE
  2
LTYPE
 70
     3
  0
LTYPE
  2
CONTINUOUS
 70
     0
  3
Solid Line
 72
    65
 73
     0
 40
0.0
  0
LTYPE
  2
31
 70
     0
  3

 72
    65
 73
     4
 40
2.1
 49
1.5
 49
-0.3
 49
0.0
 49
-0.3
  0
LTYPE
  2
22
 70
     0
  3

 72
    65
 73
     2
 40
1.4
 49
1.2
 49
-0.2
  0
ENDTAB
  0
TABLE
  2
LAYER
 70
    11
  0
LAYER
  2
0
 70
     0
 62
     7
  6
CONTINUOUS
  0
LAYER
  2
DEFPOINTS
 70
     0
 62
     7
  6
CONTINUOUS
  0
LAYER
  2
TEAM-BODY
 70
     0
 62
     2
  6
CONTINUOUS
  0
LAYER
  2
TEAM-AXE
 70
     0
 62
    10
  6
31
  0
LAYER
  2
TEAM-MAS
 70
     0
 62
     9
  6
CONTINUOUS
  0
LAYER
  2
TEAM-TXT
 70
     0
 62
    11
  6
CONTINUOUS
  0
LAYER
  2
TEAM-COLD
 70
     0
 62
     3
  6
CONTINUOUS
  0
LAYER
  2
TEAM-HIDE
 70
     0
 62
     8
  6
22
  0
LAYER
  2
TEAM-KAN
 70
     0
 62
     6
  6
CONTINUOUS
  0
LAYER
  2
TEAM-WARM
 70
     0
 62
     1
  6
CONTINUOUS
  0
LAYER
  2
TEAM-INSP
 70
     0
 62
     5
  6
CONTINUOUS
  0
ENDTAB
  0
TABLE
  2
STYLE
 70
     2
  0
STYLE
  2
STANDARD
 70
     0
 40
0.0
 41
1.0
 50
0.0
 71
     0
 42
200.0
  3
txt
  4

  0
STYLE
  2
TEAM
 70
     0
 40
0.0
 41
0.8
 50
15.0
 71
     0
 42
7.0
  3
ROMANS.shx
  4

  0
ENDTAB
  0
TABLE
  2
VIEW
 70
     0
  0
ENDTAB
  0
TABLE
  2
UCS
 70
     0
  0
ENDTAB
  0
TABLE
  2
APPID
 70
     1
  0
APPID
  2
ACAD
 70
     0
  0
ENDTAB
  0
TABLE
  2
DIMSTYLE
 70
     1
  0
DIMSTYLE
  2
TEAM
 70
     0
  3

  4

  5

  6

  7

 40
1.0
 41
20.0
 42
10.0
 43
1.0
 44
1.0
 45
0.0
 46
0.0
 47
0.0
 48
0.0
140
35.0
141
1.0
142
0.0
143
25.4
144
1.0
145
0.0
146
1.0
147
15.0
 71
     0
 72
     0
 73
     0
 74
     0
 75
     0
 76
     0
 77
     0
 78
     0
170
     0
171
     2
172
     0
173
     0
174
     0
175
     0
176
     9
177
     9
178
    11
  0
ENDTAB
  0
ENDSEC
  0
SECTION
  2
BLOCKS
  0
BLOCK
  8
0
  2
$MODEL_SPACE
 70
     0
 10
0.0
 20
0.0
 30
0.0
  3
$MODEL_SPACE
  1

  0
ENDBLK
  5
253
  8
0
  0
BLOCK
 67
     1
  8
0
  2
$PAPER_SPACE
 70
     0
 10
0.0
 20
0.0
 30
0.0
  3
$PAPER_SPACE
  1

  0
ENDBLK
  5
251
 67
     1
  8
0
  0
BLOCK
  8
0
  2
*D0
 70
     1
 10
0.0
 20
0.0
 30
0.0
  3
*D0
  1

  0
LINE
  5
85
  8
0
  6
BYBLOCK
 62
     9
 10
8010.0
 20
44000.0
 30
0.0
 11
8421.298624
 21
44000.0
 31
0.0
  0
LINE
  5
86
  8
0
  6
BYBLOCK
 62
     9
 10
8240.0
 20
44624.997355
 30
0.0
 11
8421.298624
 21
44624.997355
 31
0.0
  0
LINE
  5
87
  8
0
  6
BYBLOCK
 62
     9
 10
8420.298624
 20
44020.0
 30
0.0
 11
8420.298624
 21
44250.832011
 31
0.0
  0
LINE
  5
88
  8
0
  6
BYBLOCK
 62
     9
 10
8420.298624
 20
44604.997355
 30
0.0
 11
8420.298624
 21
44374.165344
 31
0.0
  0
SOLID
  5
89
  8
0
  6
BYBLOCK
 62
     9
 10
8416.965291
 20
44020.0
 30
0.0
 11
8423.631958
 21
44020.0
 31
0.0
 12
8420.298624
 22
44000.0
 32
0.0
 13
8420.298624
 23
44000.0
 33
0.0
  0
SOLID
  5
8A
  8
0
  6
BYBLOCK
 62
     9
 10
8416.965291
 20
44604.997355
 30
0.0
 11
8423.631958
 21
44604.997355
 31
0.0
 12
8420.298624
 22
44624.997355
 32
0.0
 13
8420.298624
 23
44624.997355
 33
0.0
  0
TEXT
  5
8B
  8
0
  6
BYBLOCK
 62
    11
 10
8437.798624
 20
44265.832011
 30
0.0
 40
35.0
  1
625
 50
90.0
  0
POINT
  5
8C
  8
DEFPOINTS
  6
BYBLOCK
 62
     0
 10
8000.0
 20
44000.0
 30
10.0
  0
POINT
  5
8D
  8
DEFPOINTS
  6
BYBLOCK
 62
     0
 10
8230.0
 20
44624.997355
 30
0.0
  0
POINT
  5
8E
  8
DEFPOINTS
  6
BYBLOCK
 62
     0
 10
8420.298624
 20
44624.997355
 30
10.0
  0
ENDBLK
  5
90
  8
0
  0
BLOCK
  8
0
  2
*D1
 70
     1
 10
0.0
 20
0.0
 30
0.0
  3
*D1
  1

  0
LINE
  5
117
  8
0
  6
BYBLOCK
 62
     9
 10
8308.809068
 20
44000.0
 30
0.0
 11
8465.029759
 21
44000.0
 31
0.0
  0
LINE
  5
118
  8
0
  6
BYBLOCK
 62
     9
 10
8218.0
 20
44849.997355
 30
0.0
 11
8465.029759
 21
44849.997355
 31
0.0
  0
LINE
  5
119
  8
0
  6
BYBLOCK
 62
     9
 10
8464.029759
 20
44020.0
 30
0.0
 11
8464.029759
 21
44366.248678
 31
0.0
  0
LINE
  5
11A
  8
0
  6
BYBLOCK
 62
     9
 10
8464.029759
 20
44829.997355
 30
0.0
 11
8464.029759
 21
44483.748678
 31
0.0
  0
SOLID
  5
11B
  8
0
  6
BYBLOCK
 62
     9
 10
8460.696426
 20
44020.0
 30
0.0
 11
8467.363092
 21
44020.0
 31
0.0
 12
8464.029759
 22
44000.0
 32
0.0
 13
8464.029759
 23
44000.0
 33
0.0
  0
SOLID
  5
11C
  8
0
  6
BYBLOCK
 62
     9
 10
8460.696426
 20
44829.997355
 30
0.0
 11
8467.363092
 21
44829.997355
 31
0.0
 12
8464.029759
 22
44849.997355
 32
0.0
 13
8464.029759
 23
44849.997355
 33
0.0
  0
TEXT
  5
11D
  8
0
  6
BYBLOCK
 62
    11
 10
8481.529759
 20
44381.248678
 30
0.0
 40
35.0
  1
850
 50
90.0
  0
POINT
  5
11E
  8
DEFPOINTS
  6
BYBLOCK
 62
     0
 10
8298.809068
 20
44000.0
 30
10.0
  0
POINT
  5
11F
  8
DEFPOINTS
  6
BYBLOCK
 62
     0
 10
8208.0
 20
44849.997355
 30
0.0
  0
POINT
  5
120
  8
DEFPOINTS
  6
BYBLOCK
 62
     0
 10
8464.029759
 20
44849.997355
 30
10.0
  0
ENDBLK
  5
122
  8
0
  0
BLOCK
  8
0
  2
*D2
 70
     1
 10
0.0
 20
0.0
 30
0.0
  3
*D2
  1

  0
LINE
  5
77
  8
0
  6
BYBLOCK
 62
     9
 10
8010.0
 20
44574.997355
 30
0.0
 11
8378.12015
 21
44574.997355
 31
0.0
  0
LINE
  5
78
  8
0
  6
BYBLOCK
 62
     9
 10
8010.0
 20
44000.0
 30
0.0
 11
8378.12015
 21
44000.0
 31
0.0
  0
LINE
  5
79
  8
0
  6
BYBLOCK
 62
     9
 10
8377.12015
 20
44554.997355
 30
0.0
 11
8377.12015
 21
44349.165344
 31
0.0
  0
LINE
  5
7A
  8
0
  6
BYBLOCK
 62
     9
 10
8377.12015
 20
44020.0
 30
0.0
 11
8377.12015
 21
44225.832011
 31
0.0
  0
SOLID
  5
7B
  8
0
  6
BYBLOCK
 62
     9
 10
8373.786816
 20
44554.997355
 30
0.0
 11
8380.453483
 21
44554.997355
 31
0.0
 12
8377.12015
 22
44574.997355
 32
0.0
 13
8377.12015
 23
44574.997355
 33
0.0
  0
SOLID
  5
7C
  8
0
  6
BYBLOCK
 62
     9
 10
8373.786816
 20
44020.0
 30
0.0
 11
8380.453483
 21
44020.0
 31
0.0
 12
8377.12015
 22
44000.0
 32
0.0
 13
8377.12015
 23
44000.0
 33
0.0
  0
TEXT
  5
7D
  8
0
  6
BYBLOCK
 62
    11
 10
8394.62015
 20
44240.832011
 30
0.0
 40
35.0
  1
575
 50
90.0
  0
POINT
  5
7E
  8
DEFPOINTS
  6
BYBLOCK
 62
     0
 10
8000.0
 20
44574.997355
 30
0.0
  0
POINT
  5
7F
  8
DEFPOINTS
  6
BYBLOCK
 62
     0
 10
8000.0
 20
44000.0
 30
10.0
  0
POINT
  5
80
  8
DEFPOINTS
  6
BYBLOCK
 62
     0
 10
8377.12015
 20
44000.0
 30
10.0
  0
ENDBLK
  5
82
  8
0
  0
BLOCK
  8
0
  2
*D3
 70
     1
 10
0.0
 20
0.0
 30
0.0
  3
*D3
  1

  0
LINE
  5
69
  8
0
  6
BYBLOCK
 62
     9
 10
8203.167971
 20
44849.997355
 30
0.0
 11
8335.172432
 21
44849.997355
 31
0.0
  0
LINE
  5
6A
  8
0
  6
BYBLOCK
 62
     9
 10
8010.0
 20
44689.997355
 30
0.0
 11
8335.172432
 21
44689.997355
 31
0.0
  0
LINE
  5
6B
  8
0
  6
BYBLOCK
 62
     9
 10
8334.172432
 20
44869.997355
 30
0.0
 11
8334.172432
 21
44889.997355
 31
0.0
  0
LINE
  5
6C
  8
0
  6
BYBLOCK
 62
     9
 10
8334.172432
 20
44669.997355
 30
0.0
 11
8334.172432
 21
44649.997355
 31
0.0
  0
SOLID
  5
6D
  8
0
  6
BYBLOCK
 62
     9
 10
8330.839099
 20
44869.997355
 30
0.0
 11
8337.505765
 21
44869.997355
 31
0.0
 12
8334.172432
 22
44849.997355
 32
0.0
 13
8334.172432
 23
44849.997355
 33
0.0
  0
SOLID
  5
6E
  8
0
  6
BYBLOCK
 62
     9
 10
8330.839099
 20
44669.997355
 30
0.0
 11
8337.505765
 21
44669.997355
 31
0.0
 12
8334.172432
 22
44689.997355
 32
0.0
 13
8334.172432
 23
44689.997355
 33
0.0
  0
TEXT
  5
6F
  8
0
  6
BYBLOCK
 62
    11
 10
8351.672432
 20
44732.080689
 30
0.0
 40
35.0
  1
160
 50
90.0
  0
POINT
  5
70
  8
DEFPOINTS
  6
BYBLOCK
 62
     0
 10
8193.167971
 20
44849.997355
 30
10.0
  0
POINT
  5
71
  8
DEFPOINTS
  6
BYBLOCK
 62
     0
 10
8000.0
 20
44689.997355
 30
0.0
  0
POINT
  5
72
  8
DEFPOINTS
  6
BYBLOCK
 62
     0
 10
8334.172432
 20
44689.997355
 30
10.0
  0
ENDBLK
  5
74
  8
0
  0
BLOCK
  8
0
  2
*D4
 70
     1
 10
0.0
 20
0.0
 30
0.0
  3
*D4
  1

  0
LINE
  5
FC
  8
0
  6
BYBLOCK
 62
     9
 10
8230.0
 20
44614.997355
 30
0.0
 11
8230.0
 21
44463.342996
 31
0.0
  0
LINE
  5
FD
  8
0
  6
BYBLOCK
 62
     9
 10
8150.0
 20
44614.997355
 30
0.0
 11
8150.0
 21
44463.342996
 31
0.0
  0
LINE
  5
FE
  8
0
  6
BYBLOCK
 62
     9
 10
8210.0
 20
44464.342996
 30
0.0
 11
8170.0
 21
44464.342996
 31
0.0
  0
TEXT
  5
FF
  8
0
  6
BYBLOCK
 62
    11
 10
8163.75
 20
44446.842996
 30
0.0
 40
35.0
  1
80
  0
SOLID
  5
100
  8
0
  6
BYBLOCK
 62
     9
 10
8210.0
 20
44467.67633
 30
0.0
 11
8210.0
 21
44461.009663
 31
0.0
 12
8230.0
 22
44464.342996
 32
0.0
 13
8230.0
 23
44464.342996
 33
0.0
  0
SOLID
  5
101
  8
0
  6
BYBLOCK
 62
     9
 10
8170.0
 20
44467.67633
 30
0.0
 11
8170.0
 21
44461.009663
 31
0.0
 12
8150.0
 22
44464.342996
 32
0.0
 13
8150.0
 23
44464.342996
 33
0.0
  0
POINT
  5
102
  8
DEFPOINTS
  6
BYBLOCK
 62
     0
 10
8230.0
 20
44624.997355
 30
0.0
  0
POINT
  5
103
  8
DEFPOINTS
  6
BYBLOCK
 62
     0
 10
8150.0
 20
44624.997355
 30
0.0
  0
POINT
  5
104
  8
DEFPOINTS
  6
BYBLOCK
 62
     0
 10
8150.0
 20
44464.342996
 30
10.0
  0
ENDBLK
  5
106
  8
0
  0
BLOCK
  8
0
  2
*D5
 70
     1
 10
0.0
 20
0.0
 30
0.0
  3
*D5
  1

  0
LINE
  5
4D
  8
0
  6
BYBLOCK
 62
     9
 10
7810.094137
 20
44824.0
 30
0.0
 11
7810.094137
 21
44898.218479
 31
0.0
  0
LINE
  5
4E
  8
0
  6
BYBLOCK
 62
     9
 10
8190.094137
 20
44824.0
 30
0.0
 11
8190.094137
 21
44898.218479
 31
0.0
  0
LINE
  5
4F
  8
0
  6
BYBLOCK
 62
     9
 10
7830.094137
 20
44897.218479
 30
0.0
 11
7941.344137
 21
44897.218479
 31
0.0
  0
LINE
  5
50
  8
0
  6
BYBLOCK
 62
     9
 10
8170.094137
 20
44897.218479
 30
0.0
 11
8058.844137
 21
44897.218479
 31
0.0
  0
SOLID
  5
51
  8
0
  6
BYBLOCK
 62
     9
 10
7830.094137
 20
44900.551813
 30
0.0
 11
7830.094137
 21
44893.885146
 31
0.0
 12
7810.094137
 22
44897.218479
 32
0.0
 13
7810.094137
 23
44897.218479
 33
0.0
  0
SOLID
  5
52
  8
0
  6
BYBLOCK
 62
     9
 10
8170.094137
 20
44900.551813
 30
0.0
 11
8170.094137
 21
44893.885146
 31
0.0
 12
8190.094137
 22
44897.218479
 32
0.0
 13
8190.094137
 23
44897.218479
 33
0.0
  0
TEXT
  5
53
  8
0
  6
BYBLOCK
 62
    11
 10
7956.344137
 20
44879.718479
 30
0.0
 40
35.0
  1
380
  0
POINT
  5
54
  8
DEFPOINTS
  6
BYBLOCK
 62
     0
 10
7810.094137
 20
44814.0
 30
10.0
  0
POINT
  5
55
  8
DEFPOINTS
  6
BYBLOCK
 62
     0
 10
8190.094137
 20
44814.0
 30
10.0
  0
POINT
  5
56
  8
DEFPOINTS
  6
BYBLOCK
 62
     0
 10
8190.094137
 20
44897.218479
 30
10.0
  0
ENDBLK
  5
58
  8
0
  0
BLOCK
  8
0
  2
*D6
 70
     1
 10
0.0
 20
0.0
 30
0.0
  3
*D6
  1

  0
LINE
  5
5B
  8
0
  6
BYBLOCK
 62
     9
 10
7750.0
 20
44839.997355
 30
0.0
 11
7750.0
 21
44940.957191
 31
0.0
  0
LINE
  5
5C
  8
0
  6
BYBLOCK
 62
     9
 10
8250.0
 20
44839.997355
 30
0.0
 11
8250.0
 21
44940.957191
 31
0.0
  0
LINE
  5
5D
  8
0
  6
BYBLOCK
 62
     9
 10
7770.0
 20
44939.957191
 30
0.0
 11
7944.166667
 21
44939.957191
 31
0.0
  0
LINE
  5
5E
  8
0
  6
BYBLOCK
 62
     9
 10
8230.0
 20
44939.957191
 30
0.0
 11
8055.833333
 21
44939.957191
 31
0.0
  0
SOLID
  5
5F
  8
0
  6
BYBLOCK
 62
     9
 10
7770.0
 20
44943.290525
 30
0.0
 11
7770.0
 21
44936.623858
 31
0.0
 12
7750.0
 22
44939.957191
 32
0.0
 13
7750.0
 23
44939.957191
 33
0.0
  0
SOLID
  5
60
  8
0
  6
BYBLOCK
 62
     9
 10
8230.0
 20
44943.290525
 30
0.0
 11
8230.0
 21
44936.623858
 31
0.0
 12
8250.0
 22
44939.957191
 32
0.0
 13
8250.0
 23
44939.957191
 33
0.0
  0
TEXT
  5
61
  8
0
  6
BYBLOCK
 62
    11
 10
7959.166667
 20
44922.457191
 30
0.0
 40
35.0
  1
500
  0
POINT
  5
62
  8
DEFPOINTS
  6
BYBLOCK
 62
     0
 10
7750.0
 20
44829.997355
 30
0.0
  0
POINT
  5
63
  8
DEFPOINTS
  6
BYBLOCK
 62
     0
 10
8250.0
 20
44829.997355
 30
0.0
  0
POINT
  5
64
  8
DEFPOINTS
  6
BYBLOCK
 62
     0
 10
8250.0
 20
44939.957191
 30
10.0
  0
ENDBLK
  5
66
  8
0
  0
BLOCK
  8
0
  2
*D7
 70
     1
 10
0.0
 20
0.0
 30
0.0
  3
*D7
  1

  0
LINE
  5
109
  8
0
  6
BYBLOCK
 62
     9
 10
8218.0
 20
44849.997355
 30
0.0
 11
8465.029759
 21
44849.997355
 31
0.0
  0
LINE
  5
10A
  8
0
  6
BYBLOCK
 62
     9
 10
8086.5
 20
45049.997355
 30
0.0
 11
8465.029759
 21
45049.997355
 31
0.0
  0
LINE
  5
10B
  8
0
  6
BYBLOCK
 62
     9
 10
8464.029759
 20
44869.997355
 30
0.0
 11
8464.029759
 21
44894.164022
 31
0.0
  0
LINE
  5
10C
  8
0
  6
BYBLOCK
 62
     9
 10
8464.029759
 20
45029.997355
 30
0.0
 11
8464.029759
 21
45005.830689
 31
0.0
  0
SOLID
  5
10D
  8
0
  6
BYBLOCK
 62
     9
 10
8460.696426
 20
44869.997355
 30
0.0
 11
8467.363092
 21
44869.997355
 31
0.0
 12
8464.029759
 22
44849.997355
 32
0.0
 13
8464.029759
 23
44849.997355
 33
0.0
  0
SOLID
  5
10E
  8
0
  6
BYBLOCK
 62
     9
 10
8460.696426
 20
45029.997355
 30
0.0
 11
8467.363092
 21
45029.997355
 31
0.0
 12
8464.029759
 22
45049.997355
 32
0.0
 13
8464.029759
 23
45049.997355
 33
0.0
  0
TEXT
  5
10F
  8
0
  6
BYBLOCK
 62
    11
 10
8481.529759
 20
44909.164022
 30
0.0
 40
35.0
  1
200
 50
90.0
  0
POINT
  5
110
  8
DEFPOINTS
  6
BYBLOCK
 62
     0
 10
8208.0
 20
44849.997355
 30
0.0
  0
POINT
  5
111
  8
DEFPOINTS
  6
BYBLOCK
 62
     0
 10
8076.5
 20
45049.997355
 30
0.0
  0
POINT
  5
112
  8
DEFPOINTS
  6
BYBLOCK
 62
     0
 10
8464.029759
 20
45049.997355
 30
10.0
  0
ENDBLK
  5
114
  8
0
  0
BLOCK
  8
0
  2
*D8
 70
     1
 10
0.0
 20
0.0
 30
0.0
  3
*D8
  1

  0
LINE
  5
EE
  8
0
  6
BYBLOCK
 62
     9
 10
8240.0
 20
44624.997355
 30
0.0
 11
8421.298624
 21
44624.997355
 31
0.0
  0
LINE
  5
EF
  8
0
  6
BYBLOCK
 62
     9
 10
8218.0
 20
44849.997355
 30
0.0
 11
8421.298624
 21
44849.997355
 31
0.0
  0
LINE
  5
F0
  8
0
  6
BYBLOCK
 62
     9
 10
8420.298624
 20
44644.997355
 30
0.0
 11
8420.298624
 21
44675.830689
 31
0.0
  0
LINE
  5
F1
  8
0
  6
BYBLOCK
 62
     9
 10
8420.298624
 20
44829.997355
 30
0.0
 11
8420.298624
 21
44799.164022
 31
0.0
  0
SOLID
  5
F2
  8
0
  6
BYBLOCK
 62
     9
 10
8416.965291
 20
44644.997355
 30
0.0
 11
8423.631958
 21
44644.997355
 31
0.0
 12
8420.298624
 22
44624.997355
 32
0.0
 13
8420.298624
 23
44624.997355
 33
0.0
  0
SOLID
  5
F3
  8
0
  6
BYBLOCK
 62
     9
 10
8416.965291
 20
44829.997355
 30
0.0
 11
8423.631958
 21
44829.997355
 31
0.0
 12
8420.298624
 22
44849.997355
 32
0.0
 13
8420.298624
 23
44849.997355
 33
0.0
  0
TEXT
  5
F4
  8
0
  6
BYBLOCK
 62
    11
 10
8437.798624
 20
44690.830689
 30
0.0
 40
35.0
  1
225
 50
90.0
  0
POINT
  5
F5
  8
DEFPOINTS
  6
BYBLOCK
 62
     0
 10
8230.0
 20
44624.997355
 30
0.0
  0
POINT
  5
F6
  8
DEFPOINTS
  6
BYBLOCK
 62
     0
 10
8208.0
 20
44849.997355
 30
0.0
  0
POINT
  5
F7
  8
DEFPOINTS
  6
BYBLOCK
 62
     0
 10
8420.298624
 20
44849.997355
 30
0.0
  0
ENDBLK
  5
F9
  8
0
  0
BLOCK
  8
0
  2
*D9
 70
     1
 10
0.0
 20
0.0
 30
0.0
  3
*D9
  1

  0
LINE
  5
DF
  8
0
  6
BYBLOCK
 62
     9
 10
8218.0
 20
44849.997355
 30
0.0
 11
8289.580554
 21
44849.997355
 31
0.0
  0
LINE
  5
E0
  8
0
  6
BYBLOCK
 62
     9
 10
8222.094137
 20
44800.0
 30
0.0
 11
8289.580554
 21
44800.0
 31
0.0
  0
LINE
  5
E1
  8
0
  6
BYBLOCK
 62
     9
 10
8288.580554
 20
44869.997355
 30
0.0
 11
8288.580554
 21
44889.997355
 31
0.0
  0
LINE
  5
E2
  8
0
  6
BYBLOCK
 62
     9
 10
8288.580554
 20
44780.0
 30
0.0
 11
8288.580554
 21
44760.0
 31
0.0
  0
TEXT
  5
E3
  8
0
  6
BYBLOCK
 62
    11
 10
8306.080554
 20
44728.75
 30
0.0
 40
35.0
  1
50
 50
90.0
  0
LINE
  5
E4
  8
0
  6
BYBLOCK
 62
     9
 10
8288.580554
 20
44849.997355
 30
0.0
 11
8288.580554
 21
44800.0
 31
0.0
  0
SOLID
  5
E5
  8
0
  6
BYBLOCK
 62
     9
 10
8285.247221
 20
44869.997355
 30
0.0
 11
8291.913888
 21
44869.997355
 31
0.0
 12
8288.580554
 22
44849.997355
 32
0.0
 13
8288.580554
 23
44849.997355
 33
0.0
  0
SOLID
  5
E6
  8
0
  6
BYBLOCK
 62
     9
 10
8285.247221
 20
44780.0
 30
0.0
 11
8291.913888
 21
44780.0
 31
0.0
 12
8288.580554
 22
44800.0
 32
0.0
 13
8288.580554
 23
44800.0
 33
0.0
  0
POINT
  5
E7
  8
DEFPOINTS
  6
BYBLOCK
 62
     0
 10
8208.0
 20
44849.997355
 30
0.0
  0
POINT
  5
E8
  8
DEFPOINTS
  6
BYBLOCK
 62
     0
 10
8212.094137
 20
44800.0
 30
0.0
  0
POINT
  5
E9
  8
DEFPOINTS
  6
BYBLOCK
 62
     0
 10
8288.580554
 20
44800.0
 30
0.0
  0
ENDBLK
  5
EB
  8
0
  0
BLOCK
  8
0
  2
*D10
 70
     1
 10
0.0
 20
0.0
 30
0.0
  3
*D10
  1

  0
LINE
  5
3F
  8
0
  6
BYBLOCK
 62
     9
 10
8010.0
 20
44574.997355
 30
0.0
 11
8378.12015
 21
44574.997355
 31
0.0
  0
LINE
  5
40
  8
0
  6
BYBLOCK
 62
     9
 10
8218.0
 20
44849.997355
 30
0.0
 11
8378.12015
 21
44849.997355
 31
0.0
  0
LINE
  5
41
  8
0
  6
BYBLOCK
 62
     9
 10
8377.12015
 20
44594.997355
 30
0.0
 11
8377.12015
 21
44650.830689
 31
0.0
  0
LINE
  5
42
  8
0
  6
BYBLOCK
 62
     9
 10
8377.12015
 20
44829.997355
 30
0.0
 11
8377.12015
 21
44774.164022
 31
0.0
  0
SOLID
  5
43
  8
0
  6
BYBLOCK
 62
     9
 10
8373.786816
 20
44594.997355
 30
0.0
 11
8380.453483
 21
44594.997355
 31
0.0
 12
8377.12015
 22
44574.997355
 32
0.0
 13
8377.12015
 23
44574.997355
 33
0.0
  0
SOLID
  5
44
  8
0
  6
BYBLOCK
 62
     9
 10
8373.786816
 20
44829.997355
 30
0.0
 11
8380.453483
 21
44829.997355
 31
0.0
 12
8377.12015
 22
44849.997355
 32
0.0
 13
8377.12015
 23
44849.997355
 33
0.0
  0
TEXT
  5
45
  8
0
  6
BYBLOCK
 62
    11
 10
8394.62015
 20
44665.830689
 30
0.0
 40
35.0
  1
275
 50
90.0
  0
POINT
  5
46
  8
DEFPOINTS
  6
BYBLOCK
 62
     0
 10
8000.0
 20
44574.997355
 30
0.0
  0
POINT
  5
47
  8
DEFPOINTS
  6
BYBLOCK
 62
     0
 10
8208.0
 20
44849.997355
 30
0.0
  0
POINT
  5
48
  8
DEFPOINTS
  6
BYBLOCK
 62
     0
 10
8377.12015
 20
44849.997355
 30
0.0
  0
ENDBLK
  5
4A
  8
0
  0
BLOCK
  8
0
  2
*D11
 70
     1
 10
0.0
 20
0.0
 30
0.0
  3
*D11
  1

  0
LINE
  5
31
  8
0
  6
BYBLOCK
 62
     9
 10
8076.5
 20
45039.997355
 30
0.0
 11
8076.5
 21
44983.05961
 31
0.0
  0
LINE
  5
32
  8
0
  6
BYBLOCK
 62
     9
 10
7923.5
 20
45039.997355
 30
0.0
 11
7923.5
 21
44983.05961
 31
0.0
  0
LINE
  5
33
  8
0
  6
BYBLOCK
 62
     9
 10
8056.5
 20
44984.05961
 30
0.0
 11
8041.5
 21
44984.05961
 31
0.0
  0
LINE
  5
34
  8
0
  6
BYBLOCK
 62
     9
 10
7943.5
 20
44984.05961
 30
0.0
 11
7958.5
 21
44984.05961
 31
0.0
  0
TEXT
  5
35
  8
0
  6
BYBLOCK
 62
    11
 10
7959.166667
 20
44966.55961
 30
0.0
 40
35.0
  1
153
  0
SOLID
  5
36
  8
0
  6
BYBLOCK
 62
     9
 10
8056.5
 20
44987.392943
 30
0.0
 11
8056.5
 21
44980.726276
 31
0.0
 12
8076.5
 22
44984.05961
 32
0.0
 13
8076.5
 23
44984.05961
 33
0.0
  0
SOLID
  5
37
  8
0
  6
BYBLOCK
 62
     9
 10
7943.5
 20
44987.392943
 30
0.0
 11
7943.5
 21
44980.726276
 31
0.0
 12
7923.5
 22
44984.05961
 32
0.0
 13
7923.5
 23
44984.05961
 33
0.0
  0
POINT
  5
38
  8
DEFPOINTS
  6
BYBLOCK
 62
     0
 10
8076.5
 20
45049.997355
 30
0.0
  0
POINT
  5
39
  8
DEFPOINTS
  6
BYBLOCK
 62
     0
 10
7923.5
 20
45049.997355
 30
0.0
  0
POINT
  5
3A
  8
DEFPOINTS
  6
BYBLOCK
 62
     0
 10
7923.5
 20
44984.05961
 30
0.0
  0
ENDBLK
  5
3C
  8
0
  0
BLOCK
  8
0
  2
*D12
 70
     1
 10
0.0
 20
0.0
 30
0.0
  3
*D12
  1

  0
LINE
  5
9A
  8
0
  6
BYBLOCK
 62
     9
 10
7850.0
 20
44614.997355
 30
0.0
 11
7850.0
 21
44463.342996
 31
0.0
  0
LINE
  5
9B
  8
0
  6
BYBLOCK
 62
     9
 10
7770.0
 20
44614.997355
 30
0.0
 11
7770.0
 21
44463.342996
 31
0.0
  0
LINE
  5
9C
  8
0
  6
BYBLOCK
 62
     9
 10
7830.0
 20
44464.342996
 30
0.0
 11
7790.0
 21
44464.342996
 31
0.0
  0
TEXT
  5
9D
  8
0
  6
BYBLOCK
 62
    11
 10
7783.75
 20
44446.842996
 30
0.0
 40
35.0
  1
80
  0
SOLID
  5
9E
  8
0
  6
BYBLOCK
 62
     9
 10
7830.0
 20
44467.67633
 30
0.0
 11
7830.0
 21
44461.009663
 31
0.0
 12
7850.0
 22
44464.342996
 32
0.0
 13
7850.0
 23
44464.342996
 33
0.0
  0
SOLID
  5
9F
  8
0
  6
BYBLOCK
 62
     9
 10
7790.0
 20
44467.67633
 30
0.0
 11
7790.0
 21
44461.009663
 31
0.0
 12
7770.0
 22
44464.342996
 32
0.0
 13
7770.0
 23
44464.342996
 33
0.0
  0
POINT
  5
A0
  8
DEFPOINTS
  6
BYBLOCK
 62
     0
 10
7850.0
 20
44624.997355
 30
0.0
  0
POINT
  5
A1
  8
DEFPOINTS
  6
BYBLOCK
 62
     0
 10
7770.0
 20
44624.997355
 30
0.0
  0
POINT
  5
A2
  8
DEFPOINTS
  6
BYBLOCK
 62
     0
 10
7770.0
 20
44464.342996
 30
10.0
  0
ENDBLK
  5
A4
  8
0
  0
BLOCK
  8
0
  2
*D13
 70
     1
 10
0.0
 20
0.0
 30
0.0
  3
*D13
  1

  0
LINE
  5
22
  8
0
  6
BYBLOCK
 62
     9
 10
8150.0
 20
44614.997355
 30
0.0
 11
8150.0
 21
44463.342996
 31
0.0
  0
LINE
  5
23
  8
0
  6
BYBLOCK
 62
     9
 10
7850.0
 20
44614.997355
 30
0.0
 11
7850.0
 21
44463.342996
 31
0.0
  0
LINE
  5
24
  8
0
  6
BYBLOCK
 62
     9
 10
8130.0
 20
44464.342996
 30
0.0
 11
8055.833333
 21
44464.342996
 31
0.0
  0
LINE
  5
25
  8
0
  6
BYBLOCK
 62
     9
 10
7870.0
 20
44464.342996
 30
0.0
 11
7944.166667
 21
44464.342996
 31
0.0
  0
SOLID
  5
26
  8
0
  6
BYBLOCK
 62
     9
 10
8130.0
 20
44467.67633
 30
0.0
 11
8130.0
 21
44461.009663
 31
0.0
 12
8150.0
 22
44464.342996
 32
0.0
 13
8150.0
 23
44464.342996
 33
0.0
  0
SOLID
  5
27
  8
0
  6
BYBLOCK
 62
     9
 10
7870.0
 20
44467.67633
 30
0.0
 11
7870.0
 21
44461.009663
 31
0.0
 12
7850.0
 22
44464.342996
 32
0.0
 13
7850.0
 23
44464.342996
 33
0.0
  0
TEXT
  5
28
  8
0
  6
BYBLOCK
 62
    11
 10
7959.166667
 20
44446.842996
 30
0.0
 40
35.0
  1
300
  0
POINT
  5
29
  8
DEFPOINTS
  6
BYBLOCK
 62
     0
 10
8150.0
 20
44624.997355
 30
0.0
  0
POINT
  5
2B
  8
DEFPOINTS
  6
BYBLOCK
 62
     0
 10
7850.0
 20
44624.997355
 30
0.0
  0
POINT
  5
2C
  8
DEFPOINTS
  6
BYBLOCK
 62
     0
 10
7850.0
 20
44464.342996
 30
0.0
  0
ENDBLK
  5
2E
  8
0
  0
ENDSEC
  0
SECTION
  2
ENTITIES
  0
DIMENSION
  5
20
  8
TEAM-MAS
  2
*D13
 10
-150.0
 20
464.342996
 30
0.0
 11
0.0
 21
464.342996
 31
0.0
 12
-8000.0
 22
-44000.0
 32
0.0
 13
150.0
 23
624.997355
 33
0.0
 14
-150.0
 24
624.997355
 34
0.0
1001
ACAD
1000
DSTYLE
1002
{
1070
    40
1040
1.0
1002
}
  0
DIMENSION
  5
2F
  8
TEAM-MAS
  2
*D11
 10
-76.5
 20
984.05961
 30
0.0
 11
0.0
 21
984.05961
 31
0.0
 12
-8000.0
 22
-44000.0
 32
0.0
 70
   128
 13
76.5
 23
1049.997355
 33
0.0
 14
-76.5
 24
1049.997355
 34
0.0
1001
ACAD
1000
DSTYLE
1002
{
1070
    40
1040
1.0
1002
}
  0
DIMENSION
  5
3D
  8
TEAM-MAS
  2
*D10
 10
377.12015
 20
849.997355
 30
0.0
 11
377.12015
 21
712.497355
 31
0.0
 12
-8000.0
 22
-44000.0
 32
0.0
 13
0.0
 23
574.997355
 33
0.0
 14
208.0
 24
849.997355
 34
0.0
 50
90.0
1001
ACAD
1000
DSTYLE
1002
{
1070
    40
1040
1.0
1002
}
  0
DIMENSION
  5
4B
  8
TEAM-MAS
  2
*D5
 10
190.094137
 20
897.218479
 30
10.0
 11
0.094137
 21
897.218479
 31
0.0
 12
-8000.0
 22
-44000.0
 32
0.0
 13
-189.905863
 23
814.0
 33
10.0
 14
190.094137
 24
814.0
 34
10.0
1001
ACAD
1000
DSTYLE
1002
{
1070
    40
1040
1.0
1002
}
  0
DIMENSION
  5
59
  8
TEAM-MAS
  2
*D6
 10
250.0
 20
939.957191
 30
10.0
 11
0.0
 21
939.957191
 31
0.0
 12
-8000.0
 22
-44000.0
 32
0.0
 13
-250.0
 23
829.997355
 33
0.0
 14
250.0
 24
829.997355
 34
0.0
1001
ACAD
1000
DSTYLE
1002
{
1070
    40
1040
1.0
1002
}
  0
DIMENSION
  5
67
  8
TEAM-MAS
  2
*D3
 10
334.172432
 20
689.997355
 30
10.0
 11
334.172432
 21
769.997355
 31
0.0
 12
-8000.0
 22
-44000.0
 32
0.0
 13
193.167971
 23
849.997355
 33
10.0
 14
0.0
 24
689.997355
 34
0.0
 50
90.0
1001
ACAD
1000
DSTYLE
1002
{
1070
    40
1040
1.0
1002
}
  0
DIMENSION
  5
75
  8
TEAM-MAS
  2
*D2
 10
377.12015
 20
0.0
 30
10.0
 11
377.12015
 21
287.498678
 31
0.0
 12
-8000.0
 22
-44000.0
 32
0.0
 13
0.0
 23
574.997355
 33
0.0
 14
0.0
 24
0.0
 34
10.0
 50
90.0
1001
ACAD
1000
DSTYLE
1002
{
1070
    40
1040
1.0
1002
}
  0
DIMENSION
  5
83
  8
TEAM-MAS
  2
*D0
 10
420.298624
 20
624.997355
 30
10.0
 11
420.298624
 21
312.498678
 31
0.0
 12
-8000.0
 22
-44000.0
 32
0.0
 13
0.0
 23
0.0
 33
10.0
 14
230.0
 24
624.997355
 34
0.0
 50
90.0
1001
ACAD
1000
DSTYLE
1002
{
1070
    40
1040
1.0
1002
}
  0
TEXT
  5
91
  8
TEAM-TXT
 10
-87.834796
 20
734.955021
 30
0.0
 40
30.0
  1
team 221067
 41
0.8
 51
15.0
  7
TEAM
  0
POLYLINE
  5
94
  8
TEAM-BODY
 66
     1
 10
0.0
 20
0.0
 30
0.0
 70
     1
  0
VERTEX
  5
259
  8
TEAM-BODY
 10
245.0
 20
809.997355
 30
0.0
 42
0.414214
  0
VERTEX
  5
25A
  8
TEAM-BODY
 10
250.0
 20
814.997355
 30
0.0
  0
VERTEX
  5
25B
  8
TEAM-BODY
 10
250.0
 20
844.997355
 30
0.0
 42
0.414214
  0
VERTEX
  5
25C
  8
TEAM-BODY
 10
245.0
 20
849.997355
 30
0.0
 42
-0.414214
  0
VERTEX
  5
25D
  8
TEAM-BODY
 10
240.0
 20
854.997355
 30
0.0
  0
VERTEX
  5
25E
  8
TEAM-BODY
 10
240.0
 20
867.997355
 30
0.0
 42
0.414214
  0
VERTEX
  5
25F
  8
TEAM-BODY
 10
233.0
 20
874.997355
 30
0.0
  0
VERTEX
  5
260
  8
TEAM-BODY
 10
-233.0
 20
874.997355
 30
0.0
 42
0.414214
  0
VERTEX
  5
261
  8
TEAM-BODY
 10
-240.0
 20
867.997355
 30
0.0
  0
VERTEX
  5
262
  8
TEAM-BODY
 10
-240.0
 20
854.997355
 30
0.0
 42
-0.414214
  0
VERTEX
  5
263
  8
TEAM-BODY
 10
-245.0
 20
849.997355
 30
0.0
 42
0.414214
  0
VERTEX
  5
264
  8
TEAM-BODY
 10
-250.0
 20
844.997355
 30
0.0
  0
VERTEX
  5
265
  8
TEAM-BODY
 10
-250.0
 20
814.997355
 30
0.0
 42
0.414214
  0
VERTEX
  5
266
  8
TEAM-BODY
 10
-245.0
 20
809.997355
 30
0.0
 42
0.452519
  0
VERTEX
  5
267
  8
TEAM-BODY
 10
-119.367198
 20
702.835677
 30
0.0
 42
-0.098592
  0
VERTEX
  5
268
  8
TEAM-BODY
 10
0.0
 20
720.93187
 30
0.0
 42
-0.098592
  0
VERTEX
  5
269
  8
TEAM-BODY
 10
119.367198
 20
702.835677
 30
0.0
 42
0.452519
  0
SEQEND
  5
26A
  8
TEAM-BODY
  0
LINE
  5
96
  8
TEAM-BODY
 10
-245.0
 20
849.997355
 30
0.0
 11
245.0
 21
849.997355
 31
0.0
  0
LINE
  5
97
  8
TEAM-BODY
 10
-245.0
 20
809.997355
 30
0.0
 11
245.0
 21
809.997355
 31
0.0
  0
DIMENSION
  5
98
  8
TEAM-MAS
  2
*D12
 10
-230.0
 20
464.342996
 30
10.0
 11
-190.0
 21
464.342996
 31
0.0
 12
-8000.0
 22
-44000.0
 32
0.0
 70
   128
 13
-150.0
 23
624.997355
 33
0.0
 14
-230.0
 24
624.997355
 34
0.0
1001
ACAD
1000
DSTYLE
1002
{
1070
    40
1040
1.0
1002
}
  0
LINE
  5
A5
  8
TEAM-AXE
 10
-230.0
 20
624.997355
 30
0.0
 11
-230.0
 21
634.997355
 31
0.0
  0
LINE
  5
A8
  8
TEAM-AXE
 10
-230.0
 20
624.997355
 30
0.0
 11
-220.0
 21
624.997355
 31
0.0
  0
LINE
  5
A9
  8
TEAM-AXE
 10
-230.0
 20
624.997355
 30
0.0
 11
-230.0
 21
614.997355
 31
0.0
  0
CIRCLE
  5
AA
  8
TEAM-WARM
 10
-230.0
 20
624.997355
 30
0.0
 40
10.0
  0
POINT
  5
AC
  8
TEAM-MAS
 10
-230.0
 20
604.997355
 30
0.0
  0
POINT
  5
AD
  8
TEAM-MAS
 10
-230.0
 20
604.997355
 30
0.0
  0
POINT
  5
AE
  8
TEAM-MAS
 10
-230.0
 20
604.997355
 30
0.0
  0
LINE
  5
AF
  8
TEAM-AXE
 10
-230.0
 20
624.997355
 30
0.0
 11
-240.0
 21
624.997355
 31
0.0
  0
LINE
  5
B0
  8
TEAM-AXE
 10
-150.0
 20
624.997355
 30
0.0
 11
-150.0
 21
634.997355
 31
0.0
  0
LINE
  5
B1
  8
TEAM-AXE
 10
-150.0
 20
624.997355
 30
0.0
 11
-150.0
 21
614.997355
 31
0.0
  0
POINT
  5
B2
  8
TEAM-MAS
 10
-150.0
 20
604.997355
 30
0.0
  0
POINT
  5
B3
  8
TEAM-MAS
 10
-150.0
 20
604.997355
 30
0.0
  0
POINT
  5
B4
  8
TEAM-MAS
 10
-150.0
 20
604.997355
 30
0.0
  0
LINE
  5
B5
  8
TEAM-AXE
 10
-150.0
 20
624.997355
 30
0.0
 11
-140.0
 21
624.997355
 31
0.0
  0
LINE
  5
B6
  8
TEAM-AXE
 10
-150.0
 20
624.997355
 30
0.0
 11
-160.0
 21
624.997355
 31
0.0
  0
CIRCLE
  5
B7
  8
TEAM-COLD
 10
-150.0
 20
624.997355
 30
0.0
 40
10.0
  0
CIRCLE
  5
B9
  8
TEAM-INSP
 10
0.0
 20
0.0
 30
0.0
 40
10.0
  0
LINE
  5
BB
  8
TEAM-AXE
 10
-177.905863
 20
800.0
 30
0.0
 11
-168.905863
 21
800.0
 31
0.0
  0
POINT
  5
BC
  8
TEAM-AXE
 10
-179.905863
 20
800.0
 30
0.0
  0
LINE
  5
BD
  8
TEAM-AXE
 10
-189.905863
 20
796.0
 30
0.0
 11
-189.905863
 21
805.0
 31
0.0
  0
POINT
  5
BE
  8
TEAM-AXE
 10
-199.905863
 20
800.0
 30
0.0
  0
POINT
  5
BF
  8
TEAM-AXE
 10
-189.905863
 20
794.0
 30
0.0
  0
POINT
  5
C0
  8
TEAM-AXE
 10
-189.905863
 20
806.0
 30
0.0
  0
LINE
  5
C1
  8
TEAM-AXE
 10
-181.905863
 20
800.0
 30
0.0
 11
-197.905863
 21
800.0
 31
0.0
  0
LINE
  5
C2
  8
TEAM-AXE
 10
-189.905863
 20
814.0
 30
0.0
 11
-189.905863
 21
807.0
 31
0.0
  0
LINE
  5
C3
  8
TEAM-AXE
 10
-201.905863
 20
800.0
 30
0.0
 11
-211.905863
 21
800.0
 31
0.0
  0
LINE
  5
C4
  8
TEAM-AXE
 10
-189.905863
 20
785.0
 30
0.0
 11
-189.905863
 21
793.0
 31
0.0
  0
CIRCLE
  5
C5
  8
TEAM-WARM
 10
-76.5
 20
1049.997355
 30
0.0
 40
10.0
  0
POINT
  5
C6
  8
TEAM-MAS
 10
-76.5
 20
1029.997355
 30
0.0
  0
POINT
  5
C7
  8
TEAM-MAS
 10
-76.5
 20
1029.997355
 30
0.0
  0
POINT
  5
C8
  8
TEAM-MAS
 10
-76.5
 20
1029.997355
 30
0.0
  0
LINE
  5
C9
  8
TEAM-AXE
 10
-76.5
 20
1049.997355
 30
0.0
 11
-66.5
 21
1049.997355
 31
0.0
  0
LINE
  5
CA
  8
TEAM-AXE
 10
-76.5
 20
1049.997355
 30
0.0
 11
-76.5
 21
1059.997355
 31
0.0
  0
LINE
  5
CB
  8
TEAM-AXE
 10
-76.5
 20
1049.997355
 30
0.0
 11
-86.5
 21
1049.997355
 31
0.0
  0
LINE
  5
CC
  8
TEAM-AXE
 10
-76.5
 20
1049.997355
 30
0.0
 11
-76.5
 21
1039.997355
 31
0.0
  0
LINE
  5
CD
  8
TEAM-AXE
 10
0.0
 20
574.997355
 30
0.0
 11
20.0
 21
574.997355
 31
0.0
  0
CIRCLE
  5
CE
  8
TEAM-KAN
 10
0.0
 20
574.997355
 30
0.0
 40
20.0
  0
LINE
  5
D0
  8
TEAM-AXE
 10
0.0
 20
574.997355
 30
0.0
 11
0.0
 21
554.997355
 31
0.0
  0
LINE
  5
D1
  8
TEAM-AXE
 10
0.0
 20
574.997355
 30
0.0
 11
-20.0
 21
574.997355
 31
0.0
  0
POINT
  5
D2
  8
TEAM-MAS
 10
40.0
 20
574.997355
 30
0.0
  0
POINT
  5
D3
  8
TEAM-MAS
 10
40.0
 20
574.997355
 30
0.0
  0
LINE
  5
D4
  8
TEAM-AXE
 10
0.0
 20
574.997355
 30
0.0
 11
0.0
 21
594.997355
 31
0.0
  0
POLYLINE
  5
D5
  8
TEAM-HIDE
 66
     1
 10
0.0
 20
0.0
 30
0.0
 70
     1
  0
VERTEX
  5
26B
  8
TEAM-HIDE
 10
-184.905863
 20
790.0
 30
0.0
 42
0.414214
  0
VERTEX
  5
26C
  8
TEAM-HIDE
 10
-174.905863
 20
800.0
 30
0.0
 42
0.414214
  0
VERTEX
  5
26D
  8
TEAM-HIDE
 10
-184.905863
 20
810.0
 30
0.0
  0
VERTEX
  5
26E
  8
TEAM-HIDE
 10
-194.905863
 20
810.0
 30
0.0
 42
0.414214
  0
VERTEX
  5
26F
  8
TEAM-HIDE
 10
-204.905863
 20
800.0
 30
0.0
 42
0.414214
  0
VERTEX
  5
270
  8
TEAM-HIDE
 10
-194.905863
 20
790.0
 30
0.0
  0
VERTEX
  5
271
  8
TEAM-HIDE
 10
-189.905863
 20
790.0
 30
0.0
  0
SEQEND
  5
272
  8
TEAM-HIDE
  0
ARC
  5
D8
  8
TEAM-BODY
 10
41.830127
 20
715.026724
 30
0.0
 40
5.0
 50
90.0
 51
150.0
  0
LINE
  5
D9
  8
TEAM-BODY
 10
37.5
 20
689.997355
 30
0.0
 11
37.5
 21
717.526724
 31
0.0
  0
LINE
  5
DA
  8
TEAM-BODY
 10
-37.5
 20
689.997355
 30
0.0
 11
-37.5
 21
717.526724
 31
0.0
  0
ARC
  5
DB
  8
TEAM-BODY
 10
-41.830127
 20
715.026724
 30
0.0
 40
5.0
 50
30.0
 51
90.0
  0
LINE
  5
DC
  8
TEAM-BODY
 10
-37.5
 20
689.997355
 30
0.0
 11
37.5
 21
689.997355
 31
0.0
  0
DIMENSION
  5
DD
  8
TEAM-MAS
  2
*D9
 10
288.580554
 20
800.0
 30
0.0
 11
288.580554
 21
755.0
 31
0.0
 12
-8000.0
 22
-44000.0
 32
0.0
 70
   128
 13
208.0
 23
849.997355
 33
0.0
 14
212.094137
 24
800.0
 34
0.0
 50
90.0
1001
ACAD
1000
DSTYLE
1002
{
1070
    40
1040
1.0
1002
}
  0
DIMENSION
  5
EC
  8
TEAM-MAS
  2
*D8
 10
420.298624
 20
849.997355
 30
0.0
 11
420.298624
 21
737.497355
 31
0.0
 12
-8000.0
 22
-44000.0
 32
0.0
 13
230.0
 23
624.997355
 33
0.0
 14
208.0
 24
849.997355
 34
0.0
 50
90.0
1001
ACAD
1000
DSTYLE
1002
{
1070
    40
1040
1.0
1002
}
  0
DIMENSION
  5
FA
  8
TEAM-MAS
  2
*D4
 10
150.0
 20
464.342996
 30
10.0
 11
190.0
 21
464.342996
 31
0.0
 12
-8000.0
 22
-44000.0
 32
0.0
 70
   128
 13
230.0
 23
624.997355
 33
0.0
 14
150.0
 24
624.997355
 34
0.0
1001
ACAD
1000
DSTYLE
1002
{
1070
    40
1040
1.0
1002
}
  0
DIMENSION
  5
107
  8
TEAM-MAS
  2
*D7
 10
464.029759
 20
1049.997355
 30
10.0
 11
464.029759
 21
949.997355
 31
0.0
 12
-8000.0
 22
-44000.0
 32
0.0
 13
208.0
 23
849.997355
 33
0.0
 14
76.5
 24
1049.997355
 34
0.0
 50
90.0
1001
ACAD
1000
DSTYLE
1002
{
1070
    40
1040
1.0
1002
}
  0
DIMENSION
  5
115
  8
TEAM-MAS
  2
*D1
 10
464.029759
 20
849.997355
 30
10.0
 11
464.029759
 21
424.998678
 31
0.0
 12
-8000.0
 22
-44000.0
 32
0.0
 13
298.809068
 23
0.0
 33
10.0
 14
208.0
 24
849.997355
 34
0.0
 50
90.0
1001
ACAD
1000
DSTYLE
1002
{
1070
    40
1040
1.0
1002
}
  0
LINE
  5
123
  8
TEAM-AXE
 10
178.094137
 20
800.0
 30
0.0
 11
169.094137
 21
800.0
 31
0.0
  0
LINE
  5
124
  8
TEAM-AXE
 10
202.094137
 20
800.0
 30
0.0
 11
212.094137
 21
800.0
 31
0.0
  0
POINT
  5
125
  8
TEAM-AXE
 10
200.094137
 20
800.0
 30
0.0
  0
POINT
  5
126
  8
TEAM-AXE
 10
180.094137
 20
800.0
 30
0.0
  0
LINE
  5
127
  8
TEAM-AXE
 10
190.094137
 20
796.0
 30
0.0
 11
190.094137
 21
805.0
 31
0.0
  0
POINT
  5
128
  8
TEAM-AXE
 10
190.094137
 20
794.0
 30
0.0
  0
POINT
  5
129
  8
TEAM-AXE
 10
190.094137
 20
806.0
 30
0.0
  0
LINE
  5
12A
  8
TEAM-AXE
 10
182.094137
 20
800.0
 30
0.0
 11
198.094137
 21
800.0
 31
0.0
  0
LINE
  5
12B
  8
TEAM-AXE
 10
190.094137
 20
814.0
 30
0.0
 11
190.094137
 21
807.0
 31
0.0
  0
LINE
  5
12C
  8
TEAM-AXE
 10
190.094137
 20
785.0
 30
0.0
 11
190.094137
 21
793.0
 31
0.0
  0
POINT
  5
12D
  8
TEAM-MAS
 10
76.5
 20
1029.997355
 30
0.0
  0
POINT
  5
12E
  8
TEAM-MAS
 10
76.5
 20
1029.997355
 30
0.0
  0
POINT
  5
12F
  8
TEAM-MAS
 10
76.5
 20
1029.997355
 30
0.0
  0
POINT
  5
130
  8
TEAM-MAS
 10
96.5
 20
1049.997355
 30
0.0
  0
POINT
  5
131
  8
TEAM-MAS
 10
96.5
 20
1049.997355
 30
0.0
  0
POINT
  5
132
  8
TEAM-MAS
 10
96.5
 20
1049.997355
 30
0.0
  0
LINE
  5
133
  8
TEAM-AXE
 10
76.5
 20
1049.997355
 30
0.0
 11
76.5
 21
1059.997355
 31
0.0
  0
LINE
  5
134
  8
TEAM-AXE
 10
76.5
 20
1049.997355
 30
0.0
 11
86.5
 21
1049.997355
 31
0.0
  0
LINE
  5
135
  8
TEAM-AXE
 10
76.5
 20
1049.997355
 30
0.0
 11
76.5
 21
1039.997355
 31
0.0
  0
CIRCLE
  5
136
  8
TEAM-COLD
 10
76.5
 20
1049.997355
 30
0.0
 40
10.0
  0
LINE
  5
137
  8
TEAM-AXE
 10
76.5
 20
1049.997355
 30
0.0
 11
66.5
 21
1049.997355
 31
0.0
  0
POLYLINE
  5
138
  8
TEAM-HIDE
 66
     1
 10
0.0
 20
0.0
 30
0.0
 70
     1
  0
VERTEX
  5
273
  8
TEAM-HIDE
 10
185.094137
 20
790.0
 30
0.0
 42
-0.414214
  0
VERTEX
  5
274
  8
TEAM-HIDE
 10
175.094137
 20
800.0
 30
0.0
 42
-0.414214
  0
VERTEX
  5
275
  8
TEAM-HIDE
 10
185.094137
 20
810.0
 30
0.0
  0
VERTEX
  5
276
  8
TEAM-HIDE
 10
195.094137
 20
810.0
 30
0.0
 42
-0.414214
  0
VERTEX
  5
277
  8
TEAM-HIDE
 10
205.094137
 20
800.0
 30
0.0
 42
-0.414214
  0
VERTEX
  5
278
  8
TEAM-HIDE
 10
195.094137
 20
790.0
 30
0.0
  0
VERTEX
  5
279
  8
TEAM-HIDE
 10
190.094137
 20
790.0
 30
0.0
  0
SEQEND
  5
27A
  8
TEAM-HIDE
  0
CIRCLE
  5
139
  8
TEAM-COLD
 10
230.0
 20
624.997355
 30
0.0
 40
10.0
  0
LINE
  5
13A
  8
TEAM-AXE
 10
230.0
 20
624.997355
 30
0.0
 11
220.0
 21
624.997355
 31
0.0
  0
LINE
  5
13B
  8
TEAM-AXE
 10
230.0
 20
624.997355
 30
0.0
 11
240.0
 21
624.997355
 31
0.0
  0
POINT
  5
13C
  8
TEAM-MAS
 10
230.0
 20
604.997355
 30
0.0
  0
POINT
  5
13D
  8
TEAM-MAS
 10
230.0
 20
604.997355
 30
0.0
  0
POINT
  5
13E
  8
TEAM-MAS
 10
230.0
 20
604.997355
 30
0.0
  0
LINE
  5
13F
  8
TEAM-AXE
 10
230.0
 20
624.997355
 30
0.0
 11
230.0
 21
614.997355
 31
0.0
  0
LINE
  5
140
  8
TEAM-AXE
 10
230.0
 20
624.997355
 30
0.0
 11
230.0
 21
634.997355
 31
0.0
  0
LINE
  5
141
  8
TEAM-AXE
 10
150.0
 20
624.997355
 30
0.0
 11
140.0
 21
624.997355
 31
0.0
  0
POINT
  5
142
  8
TEAM-MAS
 10
150.0
 20
604.997355
 30
0.0
  0
POINT
  5
143
  8
TEAM-MAS
 10
150.0
 20
604.997355
 30
0.0
  0
POINT
  5
144
  8
TEAM-MAS
 10
150.0
 20
604.997355
 30
0.0
  0
CIRCLE
  5
145
  8
TEAM-WARM
 10
150.0
 20
624.997355
 30
0.0
 40
10.0
  0
LINE
  5
146
  8
TEAM-AXE
 10
150.0
 20
624.997355
 30
0.0
 11
150.0
 21
614.997355
 31
0.0
  0
LINE
  5
147
  8
TEAM-AXE
 10
150.0
 20
624.997355
 30
0.0
 11
160.0
 21
624.997355
 31
0.0
  0
LINE
  5
148
  8
TEAM-AXE
 10
150.0
 20
624.997355
 30
0.0
 11
150.0
 21
634.997355
 31
0.0
  0
ENDSEC
  0
EOF
