  0
SECTION
  2
HEADER
  9
$ACADVER
  1
AC1009
  9
$INSBASE
 10
0.0
 20
0.0
 30
0.0
  9
$EXTMIN
 10
-133.673989
 20
-10.074382
 30
0.0
  9
$EXTMAX
 10
545.944339
 20
974.24491
 30
0.0
  9
$LIMMIN
 10
-133.673989
 20
-10.074382
  9
$LIMMAX
 10
545.944339
 20
974.24491
  9
$ORTHOMODE
 70
     1
  9
$REGENMODE
 70
     1
  9
$FILLMODE
 70
     1
  9
$QTEXTMODE
 70
     0
  9
$MIRRTEXT
 70
     0
  9
$DRAGMODE
 70
     2
  9
$LTSCALE
 40
25.0
  9
$OSMODE
 70
     0
  9
$ATTMODE
 70
     1
  9
$TEXTSIZE
 40
200.0
  9
$TRACEWID
 40
1.0
  9
$TEXTSTYLE
  7
STANDARD
  9
$CLAYER
  8
TEAM-MAS
  9
$CELTYPE
  6
BYLAYER
  9
$CECOLOR
 62
   256
  9
$DIMSCALE
 40
0.0
  9
$DIMASZ
 40
20.0
  9
$DIMEXO
 40
10.0
  9
$DIMDLI
 40
1.0
  9
$DIMRND
 40
0.0
  9
$DIMDLE
 40
0.0
  9
$DIMEXE
 40
1.0
  9
$DIMTP
 40
0.0
  9
$DIMTM
 40
0.0
  9
$DIMTXT
 40
35.0
  9
$DIMCEN
 40
1.0
  9
$DIMTSZ
 40
0.0
  9
$DIMTOL
 70
     0
  9
$DIMLIM
 70
     0
  9
$DIMTIH
 70
     0
  9
$DIMTOH
 70
     0
  9
$DIMSE1
 70
     0
  9
$DIMSE2
 70
     0
  9
$DIMTAD
 70
     0
  9
$DIMZIN
 70
     0
  9
$DIMBLK
  1

  9
$DIMASO
 70
     1
  9
$DIMSHO
 70
     0
  9
$DIMPOST
  1

  9
$DIMAPOST
  1

  9
$DIMALT
 70
     0
  9
$DIMALTD
 70
     2
  9
$DIMALTF
 40
25.4
  9
$DIMLFAC
 40
1.0
  9
$DIMTOFL
 70
     0
  9
$DIMTVP
 40
0.0
  9
$DIMTIX
 70
     0
  9
$DIMSOXD
 70
     0
  9
$DIMSAH
 70
     0
  9
$DIMBLK1
  1

  9
$DIMBLK2
  1

  9
$DIMSTYLE
  2
TEAM
  9
$DIMCLRD
 70
     9
  9
$DIMCLRE
 70
     9
  9
$DIMCLRT
 70
    11
  9
$DIMTFAC
 40
1.0
  9
$DIMGAP
 40
15.0
  9
$LUNITS
 70
     2
  9
$LUPREC
 70
     1
  9
$SKETCHINC
 40
1.0
  9
$FILLETRAD
 40
50.0
  9
$AUNITS
 70
     0
  9
$AUPREC
 70
     0
  9
$MENU
  1
ROPLANS
  9
$ELEVATION
 40
0.0
  9
$PELEVATION
 40
0.0
  9
$THICKNESS
 40
0.0
  9
$LIMCHECK
 70
     0
  9
$BLIPMODE
 70
     1
  9
$CHAMFERA
 40
0.0
  9
$CHAMFERB
 40
0.0
  9
$SKPOLY
 70
     0
  9
$TDCREATE
 40
2450392.957851
  9
$TDUPDATE
 40
2455523.639254
  9
$TDINDWG
 40
2.095041
  9
$TDUSRTIMER
 40
2.095041
  9
$USRTIMER
 70
     1
  9
$ANGBASE
 50
0.0
  9
$ANGDIR
 70
     0
  9
$PDMODE
 70
     0
  9
$PDSIZE
 40
0.0
  9
$PLINEWID
 40
0.0
  9
$COORDS
 70
     2
  9
$SPLFRAME
 70
     0
  9
$SPLINETYPE
 70
     6
  9
$SPLINESEGS
 70
     8
  9
$ATTDIA
 70
     0
  9
$ATTREQ
 70
     0
  9
$HANDLING
 70
     1
  9
$HANDSEED
  5
1D1
  9
$SURFTAB1
 70
    24
  9
$SURFTAB2
 70
    24
  9
$SURFTYPE
 70
     6
  9
$SURFU
 70
     6
  9
$SURFV
 70
     6
  9
$UCSNAME
  2

  9
$UCSORG
 10
0.0
 20
0.0
 30
0.0
  9
$UCSXDIR
 10
1.0
 20
0.0
 30
0.0
  9
$UCSYDIR
 10
0.0
 20
1.0
 30
0.0
  9
$PUCSNAME
  2

  9
$PUCSORG
 10
0.0
 20
0.0
 30
0.0
  9
$PUCSXDIR
 10
1.0
 20
0.0
 30
0.0
  9
$PUCSYDIR
 10
0.0
 20
1.0
 30
0.0
  9
$USERI1
 70
     0
  9
$USERI2
 70
     0
  9
$USERI3
 70
     0
  9
$USERI4
 70
     0
  9
$USERI5
 70
     0
  9
$USERR1
 40
0.0
  9
$USERR2
 40
0.0
  9
$USERR3
 40
0.0
  9
$USERR4
 40
0.0
  9
$USERR5
 40
0.0
  9
$WORLDVIEW
 70
     1
  9
$SHADEDGE
 70
     0
  9
$SHADEDIF
 70
    70
  9
$TILEMODE
 70
     1
  9
$MAXACTVP
 70
    16
  9
$PLIMCHECK
 70
     0
  9
$PEXTMIN
 10
-0.805942
 20
0.005011
 30
0.0
  9
$PEXTMAX
 10
20.392854
 20
13.725274
 30
0.0
  9
$PLIMMIN
 10
0.0
 20
0.0
  9
$PLIMMAX
 10
12.0
 20
9.0
  9
$UNITMODE
 70
     0
  9
$VISRETAIN
 70
     0
  9
$PLINEGEN
 70
     0
  9
$PSLTSCALE
 70
     0
  0
ENDSEC
  0
SECTION
  2
TABLES
  0
TABLE
  2
VPORT
 70
     2
  0
VPORT
  2
*ACTIVE
 70
     0
 10
0.0
 20
0.0
 11
1.0
 21
1.0
 12
206.135175
 22
482.085264
 13
0.0
 23
0.0
 14
1.0
 24
1.0
 15
50.0
 25
50.0
 16
0.0
 26
0.0
 36
1.0
 17
0.0
 27
0.0
 37
0.0
 40
990.364241
 41
1.865779
 42
50.0
 43
0.0
 44
0.0
 50
0.0
 51
0.0
 71
     0
 72
   100
 73
     1
 74
     1
 75
     0
 76
     0
 77
     0
 78
     0
  0
ENDTAB
  0
TABLE
  2
LTYPE
 70
     3
  0
LTYPE
  2
CONTINUOUS
 70
     0
  3
Solid Line
 72
    65
 73
     0
 40
0.0
  0
LTYPE
  2
31
 70
     0
  3

 72
    65
 73
     4
 40
2.1
 49
1.5
 49
-0.3
 49
0.0
 49
-0.3
  0
LTYPE
  2
22
 70
     0
  3

 72
    65
 73
     2
 40
1.4
 49
1.2
 49
-0.2
  0
ENDTAB
  0
TABLE
  2
LAYER
 70
    11
  0
LAYER
  2
0
 70
     0
 62
     7
  6
CONTINUOUS
  0
LAYER
  2
DEFPOINTS
 70
     0
 62
     7
  6
CONTINUOUS
  0
LAYER
  2
TEAM-BODY
 70
     0
 62
     2
  6
CONTINUOUS
  0
LAYER
  2
TEAM-AXE
 70
     0
 62
    10
  6
31
  0
LAYER
  2
TEAM-MAS
 70
     0
 62
     9
  6
CONTINUOUS
  0
LAYER
  2
TEAM-TXT
 70
     0
 62
    11
  6
CONTINUOUS
  0
LAYER
  2
TEAM-COLD
 70
     0
 62
     3
  6
CONTINUOUS
  0
LAYER
  2
TEAM-HIDE
 70
     0
 62
     8
  6
22
  0
LAYER
  2
TEAM-KAN
 70
     0
 62
     6
  6
CONTINUOUS
  0
LAYER
  2
TEAM-WARM
 70
     0
 62
     1
  6
CONTINUOUS
  0
LAYER
  2
TEAM-INSP
 70
     0
 62
     5
  6
CONTINUOUS
  0
ENDTAB
  0
TABLE
  2
STYLE
 70
     2
  0
STYLE
  2
STANDARD
 70
     0
 40
0.0
 41
1.0
 50
0.0
 71
     0
 42
200.0
  3
txt
  4

  0
STYLE
  2
TEAM
 70
     0
 40
0.0
 41
0.8
 50
15.0
 71
     0
 42
7.0
  3
ROMANS.shx
  4

  0
ENDTAB
  0
TABLE
  2
VIEW
 70
     0
  0
ENDTAB
  0
TABLE
  2
UCS
 70
     0
  0
ENDTAB
  0
TABLE
  2
APPID
 70
     1
  0
APPID
  2
ACAD
 70
     0
  0
ENDTAB
  0
TABLE
  2
DIMSTYLE
 70
     1
  0
DIMSTYLE
  2
TEAM
 70
     0
  3

  4

  5

  6

  7

 40
0.0
 41
20.0
 42
10.0
 43
1.0
 44
1.0
 45
0.0
 46
0.0
 47
0.0
 48
0.0
140
35.0
141
1.0
142
0.0
143
25.4
144
1.0
145
0.0
146
1.0
147
15.0
 71
     0
 72
     0
 73
     0
 74
     0
 75
     0
 76
     0
 77
     0
 78
     0
170
     0
171
     2
172
     0
173
     0
174
     0
175
     0
176
     9
177
     9
178
    11
  0
ENDTAB
  0
ENDSEC
  0
SECTION
  2
BLOCKS
  0
BLOCK
  8
0
  2
$MODEL_SPACE
 70
     0
 10
0.0
 20
0.0
 30
0.0
  3
$MODEL_SPACE
  1

  0
ENDBLK
  5
1B6
  8
0
  0
BLOCK
 67
     1
  8
0
  2
$PAPER_SPACE
 70
     0
 10
0.0
 20
0.0
 30
0.0
  3
$PAPER_SPACE
  1

  0
ENDBLK
  5
1B4
 67
     1
  8
0
  0
BLOCK
  8
0
  2
*D0
 70
     1
 10
0.0
 20
0.0
 30
0.0
  3
*D0
  1

  0
LINE
  5
E2
  8
0
  6
BYBLOCK
 62
     9
 10
3950.0
 20
72585.0
 30
0.0
 11
3950.0
 21
72407.358251
 31
0.0
  0
LINE
  5
E3
  8
0
  6
BYBLOCK
 62
     9
 10
4050.0
 20
72585.0
 30
0.0
 11
4050.0
 21
72407.358251
 31
0.0
  0
LINE
  5
E4
  8
0
  6
BYBLOCK
 62
     9
 10
3970.0
 20
72408.358251
 30
0.0
 11
3985.0
 21
72408.358251
 31
0.0
  0
LINE
  5
E5
  8
0
  6
BYBLOCK
 62
     9
 10
4030.0
 20
72408.358251
 30
0.0
 11
4015.0
 21
72408.358251
 31
0.0
  0
TEXT
  5
E6
  8
0
  6
BYBLOCK
 62
    11
 10
3965.0
 20
72415.914536
 30
0.0
 40
35.0
  1
100
  0
SOLID
  5
E7
  8
0
  6
BYBLOCK
 62
     9
 10
3970.0
 20
72411.691584
 30
0.0
 11
3970.0
 21
72405.024917
 31
0.0
 12
3950.0
 22
72408.358251
 32
0.0
 13
3950.0
 23
72408.358251
 33
0.0
  0
SOLID
  5
E8
  8
0
  6
BYBLOCK
 62
     9
 10
4030.0
 20
72411.691584
 30
0.0
 11
4030.0
 21
72405.024917
 31
0.0
 12
4050.0
 22
72408.358251
 32
0.0
 13
4050.0
 23
72408.358251
 33
0.0
  0
POINT
  5
E9
  8
DEFPOINTS
  6
BYBLOCK
 62
     0
 10
3950.0
 20
72595.0
 30
0.0
  0
POINT
  5
EA
  8
DEFPOINTS
  6
BYBLOCK
 62
     0
 10
4050.0
 20
72595.0
 30
0.0
  0
POINT
  5
EB
  8
DEFPOINTS
  6
BYBLOCK
 62
     0
 10
4050.0
 20
72408.358251
 30
0.0
  0
ENDBLK
  5
ED
  8
0
  0
BLOCK
  8
0
  2
*D1
 70
     1
 10
0.0
 20
0.0
 30
0.0
  3
*D1
  1

  0
LINE
  5
D4
  8
0
  6
BYBLOCK
 62
     9
 10
4040.0
 20
72540.0
 30
0.0
 11
4452.049157
 21
72540.0
 31
0.0
  0
LINE
  5
D5
  8
0
  6
BYBLOCK
 62
     9
 10
4010.0
 20
72000.0
 30
0.0
 11
4452.049157
 21
72000.0
 31
0.0
  0
LINE
  5
D6
  8
0
  6
BYBLOCK
 62
     9
 10
4451.049157
 20
72520.0
 30
0.0
 11
4451.049157
 21
72328.75
 31
0.0
  0
LINE
  5
D7
  8
0
  6
BYBLOCK
 62
     9
 10
4451.049157
 20
72020.0
 30
0.0
 11
4451.049157
 21
72211.25
 31
0.0
  0
SOLID
  5
D8
  8
0
  6
BYBLOCK
 62
     9
 10
4447.715823
 20
72520.0
 30
0.0
 11
4454.38249
 21
72520.0
 31
0.0
 12
4451.049157
 22
72540.0
 32
0.0
 13
4451.049157
 23
72540.0
 33
0.0
  0
SOLID
  5
D9
  8
0
  6
BYBLOCK
 62
     9
 10
4447.715823
 20
72020.0
 30
0.0
 11
4454.38249
 21
72020.0
 31
0.0
 12
4451.049157
 22
72000.0
 32
0.0
 13
4451.049157
 23
72000.0
 33
0.0
  0
TEXT
  5
DA
  8
0
  6
BYBLOCK
 62
    11
 10
4468.549157
 20
72226.25
 30
0.0
 40
35.0
  1
540
 50
90.0
  0
POINT
  5
DB
  8
DEFPOINTS
  6
BYBLOCK
 62
     0
 10
4030.0
 20
72540.0
 30
0.0
  0
POINT
  5
DC
  8
DEFPOINTS
  6
BYBLOCK
 62
     0
 10
4000.0
 20
72000.0
 30
0.0
  0
POINT
  5
DD
  8
DEFPOINTS
  6
BYBLOCK
 62
     0
 10
4451.049157
 20
72000.0
 30
0.0
  0
ENDBLK
  5
DF
  8
0
  0
BLOCK
  8
0
  2
*D2
 70
     1
 10
0.0
 20
0.0
 30
0.0
  3
*D2
  1

  0
LINE
  5
C6
  8
0
  6
BYBLOCK
 62
     9
 10
4085.0
 20
72620.0
 30
0.0
 11
4372.668483
 21
72620.0
 31
0.0
  0
LINE
  5
C7
  8
0
  6
BYBLOCK
 62
     9
 10
4010.0
 20
72000.0
 30
0.0
 11
4372.668483
 21
72000.0
 31
0.0
  0
LINE
  5
C8
  8
0
  6
BYBLOCK
 62
     9
 10
4371.668483
 20
72600.0
 30
0.0
 11
4371.668483
 21
72368.75
 31
0.0
  0
LINE
  5
C9
  8
0
  6
BYBLOCK
 62
     9
 10
4371.668483
 20
72020.0
 30
0.0
 11
4371.668483
 21
72251.25
 31
0.0
  0
SOLID
  5
CA
  8
0
  6
BYBLOCK
 62
     9
 10
4368.33515
 20
72600.0
 30
0.0
 11
4375.001816
 21
72600.0
 31
0.0
 12
4371.668483
 22
72620.0
 32
0.0
 13
4371.668483
 23
72620.0
 33
0.0
  0
SOLID
  5
CB
  8
0
  6
BYBLOCK
 62
     9
 10
4368.33515
 20
72020.0
 30
0.0
 11
4375.001816
 21
72020.0
 31
0.0
 12
4371.668483
 22
72000.0
 32
0.0
 13
4371.668483
 23
72000.0
 33
0.0
  0
TEXT
  5
CC
  8
0
  6
BYBLOCK
 62
    11
 10
4389.168483
 20
72266.25
 30
0.0
 40
35.0
  1
620
 50
90.0
  0
POINT
  5
CD
  8
DEFPOINTS
  6
BYBLOCK
 62
     0
 10
4075.0
 20
72620.0
 30
0.0
  0
POINT
  5
CE
  8
DEFPOINTS
  6
BYBLOCK
 62
     0
 10
4000.0
 20
72000.0
 30
0.0
  0
POINT
  5
CF
  8
DEFPOINTS
  6
BYBLOCK
 62
     0
 10
4371.668483
 20
72000.0
 30
0.0
  0
ENDBLK
  5
D1
  8
0
  0
BLOCK
  8
0
  2
*D3
 70
     1
 10
0.0
 20
0.0
 30
0.0
  3
*D3
  1

  0
LINE
  5
B8
  8
0
  6
BYBLOCK
 62
     9
 10
4125.122101
 20
72850.0
 30
0.0
 11
4529.740318
 21
72850.0
 31
0.0
  0
LINE
  5
B9
  8
0
  6
BYBLOCK
 62
     9
 10
4010.0
 20
72000.0
 30
0.0
 11
4529.740318
 21
72000.0
 31
0.0
  0
LINE
  5
BA
  8
0
  6
BYBLOCK
 62
     9
 10
4528.740318
 20
72830.0
 30
0.0
 11
4528.740318
 21
72483.75
 31
0.0
  0
LINE
  5
BB
  8
0
  6
BYBLOCK
 62
     9
 10
4528.740318
 20
72020.0
 30
0.0
 11
4528.740318
 21
72366.25
 31
0.0
  0
SOLID
  5
BC
  8
0
  6
BYBLOCK
 62
     9
 10
4525.406985
 20
72830.0
 30
0.0
 11
4532.073652
 21
72830.0
 31
0.0
 12
4528.740318
 22
72850.0
 32
0.0
 13
4528.740318
 23
72850.0
 33
0.0
  0
SOLID
  5
BD
  8
0
  6
BYBLOCK
 62
     9
 10
4525.406985
 20
72020.0
 30
0.0
 11
4532.073652
 21
72020.0
 31
0.0
 12
4528.740318
 22
72000.0
 32
0.0
 13
4528.740318
 23
72000.0
 33
0.0
  0
TEXT
  5
BE
  8
0
  6
BYBLOCK
 62
    11
 10
4546.240318
 20
72381.25
 30
0.0
 40
35.0
  1
850
 50
90.0
  0
POINT
  5
BF
  8
DEFPOINTS
  6
BYBLOCK
 62
     0
 10
4115.122101
 20
72850.0
 30
0.0
  0
POINT
  5
C0
  8
DEFPOINTS
  6
BYBLOCK
 62
     0
 10
4000.0
 20
72000.0
 30
0.0
  0
POINT
  5
C1
  8
DEFPOINTS
  6
BYBLOCK
 62
     0
 10
4528.740318
 20
72000.0
 30
0.0
  0
ENDBLK
  5
C3
  8
0
  0
BLOCK
  8
0
  2
*D4
 70
     1
 10
0.0
 20
0.0
 30
0.0
  3
*D4
  1

  0
LINE
  5
A9
  8
0
  6
BYBLOCK
 62
     9
 10
4050.0
 20
72810.0
 30
0.0
 11
4050.0
 21
72918.470812
 31
0.0
  0
LINE
  5
AA
  8
0
  6
BYBLOCK
 62
     9
 10
3950.0
 20
72815.0
 30
0.0
 11
3950.0
 21
72918.470812
 31
0.0
  0
LINE
  5
AB
  8
0
  6
BYBLOCK
 62
     9
 10
4030.0
 20
72917.470812
 30
0.0
 11
3970.0
 21
72917.470812
 31
0.0
  0
TEXT
  5
AC
  8
0
  6
BYBLOCK
 62
    11
 10
3965.0
 20
72940.970812
 30
0.0
 40
35.0
  1
100
  0
SOLID
  5
AD
  8
0
  6
BYBLOCK
 62
     9
 10
4030.0
 20
72920.804145
 30
0.0
 11
4030.0
 21
72914.137479
 31
0.0
 12
4050.0
 22
72917.470812
 32
0.0
 13
4050.0
 23
72917.470812
 33
0.0
  0
SOLID
  5
AE
  8
0
  6
BYBLOCK
 62
     9
 10
3970.0
 20
72920.804145
 30
0.0
 11
3970.0
 21
72914.137479
 31
0.0
 12
3950.0
 22
72917.470812
 32
0.0
 13
3950.0
 23
72917.470812
 33
0.0
  0
POINT
  5
AF
  8
DEFPOINTS
  6
BYBLOCK
 62
     0
 10
4050.0
 20
72800.0
 30
0.0
  0
POINT
  5
B0
  8
DEFPOINTS
  6
BYBLOCK
 62
     0
 10
3950.0
 20
72805.0
 30
0.0
  0
POINT
  5
B1
  8
DEFPOINTS
  6
BYBLOCK
 62
     0
 10
3950.0
 20
72917.470812
 30
0.0
  0
ENDBLK
  5
B3
  8
0
  0
BLOCK
  8
0
  2
*D5
 70
     1
 10
0.0
 20
0.0
 30
0.0
  3
*D5
  1

  0
LINE
  5
9B
  8
0
  6
BYBLOCK
 62
     9
 10
4125.122101
 20
72850.0
 30
0.0
 11
4293.317125
 21
72850.0
 31
0.0
  0
LINE
  5
9C
  8
0
  6
BYBLOCK
 62
     9
 10
4047.5
 20
72705.0
 30
0.0
 11
4293.317125
 21
72705.0
 31
0.0
  0
LINE
  5
9D
  8
0
  6
BYBLOCK
 62
     9
 10
4292.317125
 20
72830.0
 30
0.0
 11
4292.317125
 21
72815.0
 31
0.0
  0
LINE
  5
9E
  8
0
  6
BYBLOCK
 62
     9
 10
4292.317125
 20
72725.0
 30
0.0
 11
4292.317125
 21
72740.0
 31
0.0
  0
TEXT
  5
9F
  8
0
  6
BYBLOCK
 62
    11
 10
4309.817125
 20
72736.666667
 30
0.0
 40
35.0
  1
145
 50
90.0
  0
SOLID
  5
A0
  8
0
  6
BYBLOCK
 62
     9
 10
4288.983791
 20
72830.0
 30
0.0
 11
4295.650458
 21
72830.0
 31
0.0
 12
4292.317125
 22
72850.0
 32
0.0
 13
4292.317125
 23
72850.0
 33
0.0
  0
SOLID
  5
A1
  8
0
  6
BYBLOCK
 62
     9
 10
4288.983791
 20
72725.0
 30
0.0
 11
4295.650458
 21
72725.0
 31
0.0
 12
4292.317125
 22
72705.0
 32
0.0
 13
4292.317125
 23
72705.0
 33
0.0
  0
POINT
  5
A2
  8
DEFPOINTS
  6
BYBLOCK
 62
     0
 10
4115.122101
 20
72850.0
 30
0.0
  0
POINT
  5
A3
  8
DEFPOINTS
  6
BYBLOCK
 62
     0
 10
4037.5
 20
72705.0
 30
0.0
  0
POINT
  5
A4
  8
DEFPOINTS
  6
BYBLOCK
 62
     0
 10
4292.317125
 20
72705.0
 30
0.0
  0
ENDBLK
  5
A6
  8
0
  0
BLOCK
  8
0
  2
*D6
 70
     1
 10
0.0
 20
0.0
 30
0.0
  3
*D6
  1

  0
LINE
  5
8D
  8
0
  6
BYBLOCK
 62
     9
 10
4040.0
 20
72540.0
 30
0.0
 11
4452.049157
 21
72540.0
 31
0.0
  0
LINE
  5
8E
  8
0
  6
BYBLOCK
 62
     9
 10
4211.595095
 20
72850.0
 30
0.0
 11
4452.049157
 21
72850.0
 31
0.0
  0
LINE
  5
8F
  8
0
  6
BYBLOCK
 62
     9
 10
4451.049157
 20
72560.0
 30
0.0
 11
4451.049157
 21
72642.083333
 31
0.0
  0
LINE
  5
90
  8
0
  6
BYBLOCK
 62
     9
 10
4451.049157
 20
72830.0
 30
0.0
 11
4451.049157
 21
72747.916667
 31
0.0
  0
SOLID
  5
91
  8
0
  6
BYBLOCK
 62
     9
 10
4447.715823
 20
72560.0
 30
0.0
 11
4454.38249
 21
72560.0
 31
0.0
 12
4451.049157
 22
72540.0
 32
0.0
 13
4451.049157
 23
72540.0
 33
0.0
  0
SOLID
  5
92
  8
0
  6
BYBLOCK
 62
     9
 10
4447.715823
 20
72830.0
 30
0.0
 11
4454.38249
 21
72830.0
 31
0.0
 12
4451.049157
 22
72850.0
 32
0.0
 13
4451.049157
 23
72850.0
 33
0.0
  0
TEXT
  5
93
  8
0
  6
BYBLOCK
 62
    11
 10
4468.549157
 20
72657.083333
 30
0.0
 40
35.0
  1
310
 50
90.0
  0
POINT
  5
94
  8
DEFPOINTS
  6
BYBLOCK
 62
     0
 10
4030.0
 20
72540.0
 30
0.0
  0
POINT
  5
95
  8
DEFPOINTS
  6
BYBLOCK
 62
     0
 10
4201.595095
 20
72850.0
 30
0.0
  0
POINT
  5
96
  8
DEFPOINTS
  6
BYBLOCK
 62
     0
 10
4451.049157
 20
72850.0
 30
0.0
  0
ENDBLK
  5
98
  8
0
  0
BLOCK
  8
0
  2
*D7
 70
     1
 10
0.0
 20
0.0
 30
0.0
  3
*D7
  1

  0
LINE
  5
31
  8
0
  6
BYBLOCK
 62
     9
 10
4125.122101
 20
72850.0
 30
0.0
 11
4218.894637
 21
72850.0
 31
0.0
  0
LINE
  5
32
  8
0
  6
BYBLOCK
 62
     9
 10
4079.983464
 20
72800.0
 30
0.0
 11
4218.894637
 21
72800.0
 31
0.0
  0
LINE
  5
33
  8
0
  6
BYBLOCK
 62
     9
 10
4217.894637
 20
72870.0
 30
0.0
 11
4217.894637
 21
72890.0
 31
0.0
  0
LINE
  5
34
  8
0
  6
BYBLOCK
 62
     9
 10
4217.894637
 20
72780.0
 30
0.0
 11
4217.894637
 21
72760.0
 31
0.0
  0
TEXT
  5
35
  8
0
  6
BYBLOCK
 62
    11
 10
4236.394637
 20
72737.383527
 30
0.0
 40
35.0
  1
50
 50
90.0
  0
LINE
  5
36
  8
0
  6
BYBLOCK
 62
     9
 10
4217.894637
 20
72850.0
 30
0.0
 11
4217.894637
 21
72800.0
 31
0.0
  0
SOLID
  5
37
  8
0
  6
BYBLOCK
 62
     9
 10
4214.561304
 20
72870.0
 30
0.0
 11
4221.227971
 21
72870.0
 31
0.0
 12
4217.894637
 22
72850.0
 32
0.0
 13
4217.894637
 23
72850.0
 33
0.0
  0
SOLID
  5
38
  8
0
  6
BYBLOCK
 62
     9
 10
4214.561304
 20
72780.0
 30
0.0
 11
4221.227971
 21
72780.0
 31
0.0
 12
4217.894637
 22
72800.0
 32
0.0
 13
4217.894637
 23
72800.0
 33
0.0
  0
POINT
  5
39
  8
DEFPOINTS
  6
BYBLOCK
 62
     0
 10
4115.122101
 20
72850.0
 30
0.0
  0
POINT
  5
3A
  8
DEFPOINTS
  6
BYBLOCK
 62
     0
 10
4069.983464
 20
72800.0
 30
0.0
  0
POINT
  5
3B
  8
DEFPOINTS
  6
BYBLOCK
 62
     0
 10
4217.894637
 20
72800.0
 30
0.0
  0
ENDBLK
  5
3D
  8
0
  0
BLOCK
  8
0
  2
*D8
 70
     1
 10
0.0
 20
0.0
 30
0.0
  3
*D8
  1

  0
LINE
  5
22
  8
0
  6
BYBLOCK
 62
     9
 10
4085.0
 20
72620.0
 30
0.0
 11
4372.668483
 21
72620.0
 31
0.0
  0
LINE
  5
23
  8
0
  6
BYBLOCK
 62
     9
 10
4125.122101
 20
72850.0
 30
0.0
 11
4372.668483
 21
72850.0
 31
0.0
  0
LINE
  5
24
  8
0
  6
BYBLOCK
 62
     9
 10
4371.668483
 20
72640.0
 30
0.0
 11
4371.668483
 21
72676.25
 31
0.0
  0
LINE
  5
25
  8
0
  6
BYBLOCK
 62
     9
 10
4371.668483
 20
72830.0
 30
0.0
 11
4371.668483
 21
72793.75
 31
0.0
  0
SOLID
  5
26
  8
0
  6
BYBLOCK
 62
     9
 10
4368.33515
 20
72640.0
 30
0.0
 11
4375.001816
 21
72640.0
 31
0.0
 12
4371.668483
 22
72620.0
 32
0.0
 13
4371.668483
 23
72620.0
 33
0.0
  0
SOLID
  5
27
  8
0
  6
BYBLOCK
 62
     9
 10
4368.33515
 20
72830.0
 30
0.0
 11
4375.001816
 21
72830.0
 31
0.0
 12
4371.668483
 22
72850.0
 32
0.0
 13
4371.668483
 23
72850.0
 33
0.0
  0
TEXT
  5
28
  8
0
  6
BYBLOCK
 62
    11
 10
4389.168483
 20
72691.25
 30
0.0
 40
35.0
  1
230
 50
90.0
  0
POINT
  5
29
  8
DEFPOINTS
  6
BYBLOCK
 62
     0
 10
4075.0
 20
72620.0
 30
0.0
  0
POINT
  5
2B
  8
DEFPOINTS
  6
BYBLOCK
 62
     0
 10
4115.122101
 20
72850.0
 30
0.0
  0
POINT
  5
2C
  8
DEFPOINTS
  6
BYBLOCK
 62
     0
 10
4371.668483
 20
72850.0
 30
0.0
  0
ENDBLK
  5
2E
  8
0
  0
ENDSEC
  0
SECTION
  2
ENTITIES
  0
DIMENSION
  5
20
  8
TEAM-MAS
  2
*D8
 10
371.668483
 20
850.0
 30
0.0
 11
371.668483
 21
735.0
 31
0.0
 12
-4000.0
 22
-72000.0
 32
0.0
 13
75.0
 23
620.0
 33
0.0
 14
115.122101
 24
850.0
 34
0.0
 50
90.0
1001
ACAD
1000
DSTYLE
1002
{
1070
    40
1040
1.0
1002
}
  0
DIMENSION
  5
2F
  8
TEAM-MAS
  2
*D7
 10
217.894637
 20
800.0
 30
0.0
 11
218.894637
 21
763.633527
 31
0.0
 12
-4000.0
 22
-72000.0
 32
0.0
 70
   128
 13
115.122101
 23
850.0
 33
0.0
 14
69.983464
 24
800.0
 34
0.0
 50
90.0
1001
ACAD
1000
DSTYLE
1002
{
1070
    40
1040
1.0
1002
}
  0
LINE
  5
3E
  8
TEAM-AXE
 10
0.0
 20
687.914932
 30
0.0
 11
0.0
 21
850.0
 31
0.0
  0
POLYLINE
  5
41
  8
TEAM-AXE
 66
     1
 10
0.0
 20
0.0
 30
0.0
  0
VERTEX
  5
1BC
  8
TEAM-AXE
 10
0.122101
 20
750.663628
 30
0.0
  0
VERTEX
  5
1BD
  8
TEAM-AXE
 10
0.122101
 20
695.0
 30
0.0
  0
SEQEND
  5
1BE
  8
TEAM-AXE
  0
LINE
  5
42
  8
TEAM-HIDE
 10
-85.108306
 20
739.327465
 30
0.0
 11
-94.113864
 21
842.261467
 31
0.0
  0
LINE
  5
45
  8
TEAM-HIDE
 10
-116.347612
 20
731.825503
 30
0.0
 11
-120.200813
 21
842.166731
 31
0.0
  0
LINE
  5
46
  8
TEAM-HIDE
 10
-80.222874
 20
740.855284
 30
0.0
 11
-89.304226
 21
844.655613
 31
0.0
  0
LINE
  5
47
  8
TEAM-AXE
 10
50.0
 20
620.0
 30
0.0
 11
50.0
 21
645.0
 31
0.0
  0
LINE
  5
48
  8
TEAM-AXE
 10
50.0
 20
620.0
 30
0.0
 11
25.0
 21
620.0
 31
0.0
  0
LINE
  5
49
  8
TEAM-AXE
 10
50.0
 20
620.0
 30
0.0
 11
50.0
 21
595.0
 31
0.0
  0
LINE
  5
4A
  8
TEAM-AXE
 10
-50.0
 20
620.0
 30
0.0
 11
-25.0
 21
620.0
 31
0.0
  0
LINE
  5
4B
  8
TEAM-AXE
 10
-50.0
 20
620.0
 30
0.0
 11
-50.0
 21
645.0
 31
0.0
  0
LINE
  5
4C
  8
TEAM-AXE
 10
-50.0
 20
620.0
 30
0.0
 11
-75.0
 21
620.0
 31
0.0
  0
CIRCLE
  5
4D
  8
TEAM-WARM
 10
-50.0
 20
620.0
 30
0.0
 40
12.0
  0
LINE
  5
4F
  8
TEAM-AXE
 10
-50.0
 20
620.0
 30
0.0
 11
-50.0
 21
595.0
 31
0.0
  0
CIRCLE
  5
50
  8
TEAM-KAN
 10
0.0
 20
540.0
 30
0.0
 40
20.0
  0
LINE
  5
52
  8
TEAM-AXE
 10
0.0
 20
540.0
 30
0.0
 11
30.0
 21
540.0
 31
0.0
  0
LINE
  5
53
  8
TEAM-AXE
 10
0.0
 20
540.0
 30
0.0
 11
0.0
 21
565.0
 31
0.0
  0
LINE
  5
54
  8
TEAM-AXE
 10
0.0
 20
540.0
 30
0.0
 11
-30.0
 21
540.0
 31
0.0
  0
LINE
  5
55
  8
TEAM-AXE
 10
0.0
 20
540.0
 30
0.0
 11
0.0
 21
510.0
 31
0.0
  0
ARC
  5
56
  8
TEAM-BODY
 10
50.480764
 20
715.0
 30
0.0
 40
5.0
 50
90.0
 51
149.83675
  0
ARC
  5
58
  8
TEAM-BODY
 10
-50.269634
 20
715.0
 30
0.0
 40
5.0
 50
30.16325
 51
90.0
  0
LINE
  5
59
  8
TEAM-BODY
 10
41.999113
 20
710.356472
 30
0.0
 11
46.157778
 21
717.512327
 31
0.0
  0
LINE
  5
5A
  8
TEAM-BODY
 10
-45.946648
 20
717.512327
 30
0.0
 11
-41.787983
 21
710.356472
 31
0.0
  0
ARC
  5
5B
  8
TEAM-HIDE
 10
-97.809273
 20
727.0
 30
0.0
 40
5.0
 50
270.0
 51
301.863023
  0
ARC
  5
5C
  8
TEAM-HIDE
 10
-97.809273
 20
732.0
 30
0.0
 40
5.0
 50
270.0
 51
301.863023
  0
LINE
  5
5D
  8
TEAM-HIDE
 10
-110.622199
 20
722.0
 30
0.0
 11
-113.450516
 21
720.238217
 31
0.0
  0
LINE
  5
5E
  8
TEAM-HIDE
 10
-95.169822
 20
722.753437
 30
0.0
 11
-80.59393
 21
731.813084
 31
0.0
  0
LINE
  5
5F
  8
TEAM-HIDE
 10
-95.169822
 20
727.753437
 30
0.0
 11
-83.639485
 21
734.92012
 31
0.0
  0
ARC
  5
60
  8
TEAM-HIDE
 10
-111.350658
 20
732.0
 30
0.0
 40
5.0
 50
182.0
 51
270.0
  0
LINE
  5
61
  8
TEAM-HIDE
 10
-110.622199
 20
722.0
 30
0.0
 11
-97.809273
 21
722.0
 31
0.0
  0
LINE
  5
62
  8
TEAM-HIDE
 10
-111.350658
 20
727.0
 30
0.0
 11
-97.809273
 21
727.0
 31
0.0
  0
ARC
  5
63
  8
TEAM-HIDE
 10
-75.2419
 20
741.291063
 30
0.0
 40
5.0
 50
185.0
 51
265.0
  0
ARC
  5
64
  8
TEAM-HIDE
 10
-75.146359
 20
740.199023
 30
0.0
 40
10.0
 50
185.0
 51
265.0
  0
LINE
  5
65
  8
TEAM-HIDE
 10
-25.877899
 20
725.850393
 30
0.0
 11
-76.017916
 21
730.237076
 31
0.0
  0
LINE
  5
66
  8
TEAM-HIDE
 10
-33.661671
 20
732.634165
 30
0.0
 11
-25.877899
 21
725.850393
 31
0.0
  0
LINE
  5
67
  8
TEAM-HIDE
 10
-25.877899
 20
725.850393
 30
0.0
 11
0.122101
 21
725.850393
 31
0.0
  0
LINE
  5
68
  8
TEAM-HIDE
 10
-33.661671
 20
732.634165
 30
0.0
 11
-75.677679
 21
736.31009
 31
0.0
  0
LINE
  5
69
  8
TEAM-HIDE
 10
-25.877899
 20
725.850393
 30
0.0
 11
-25.877899
 21
705.0
 31
0.0
  0
LINE
  5
6A
  8
TEAM-HIDE
 10
-33.661671
 20
732.634165
 30
0.0
 11
0.122101
 21
732.634165
 31
0.0
  0
LINE
  5
6B
  8
TEAM-AXE
 10
-50.016536
 20
800.0
 30
0.0
 11
-50.016536
 21
780.0
 31
0.0
  0
LINE
  5
6C
  8
TEAM-AXE
 10
-50.016536
 20
800.0
 30
0.0
 11
-70.016536
 21
800.0
 31
0.0
  0
LINE
  5
6D
  8
TEAM-AXE
 10
-50.016536
 20
800.0
 30
0.0
 11
-50.016536
 21
820.0
 31
0.0
  0
ARC
  5
6E
  8
TEAM-HIDE
 10
-44.016536
 20
800.0
 30
0.0
 40
10.0
 50
270.0
 51
90.0
  0
LINE
  5
6F
  8
TEAM-AXE
 10
-50.016536
 20
800.0
 30
0.0
 11
-30.016536
 21
800.0
 31
0.0
  0
ARC
  5
70
  8
TEAM-HIDE
 10
-56.016536
 20
800.0
 30
0.0
 40
10.0
 50
90.0
 51
270.0
  0
LINE
  5
71
  8
TEAM-HIDE
 10
-56.016536
 20
790.0
 30
0.0
 11
-53.016536
 21
790.0
 31
0.0
  0
LINE
  5
72
  8
TEAM-HIDE
 10
-47.016536
 20
790.0
 30
0.0
 11
-44.016536
 21
790.0
 31
0.0
  0
LINE
  5
73
  8
TEAM-HIDE
 10
-56.016536
 20
810.0
 30
0.0
 11
-53.016536
 21
810.0
 31
0.0
  0
LINE
  5
74
  8
TEAM-HIDE
 10
-47.016536
 20
810.0
 30
0.0
 11
-44.016536
 21
810.0
 31
0.0
  0
LINE
  5
75
  8
TEAM-AXE
 10
49.983464
 20
800.0
 30
0.0
 11
49.983464
 21
780.0
 31
0.0
  0
LINE
  5
76
  8
TEAM-AXE
 10
49.983464
 20
800.0
 30
0.0
 11
29.983464
 21
800.0
 31
0.0
  0
LINE
  5
77
  8
TEAM-AXE
 10
49.983464
 20
800.0
 30
0.0
 11
49.983464
 21
820.0
 31
0.0
  0
ARC
  5
78
  8
TEAM-HIDE
 10
55.983464
 20
800.0
 30
0.0
 40
10.0
 50
270.0
 51
90.0
  0
ARC
  5
79
  8
TEAM-HIDE
 10
43.983464
 20
800.0
 30
0.0
 40
10.0
 50
90.0
 51
270.0
  0
LINE
  5
7A
  8
TEAM-HIDE
 10
43.983464
 20
790.0
 30
0.0
 11
46.983464
 21
790.0
 31
0.0
  0
LINE
  5
7B
  8
TEAM-HIDE
 10
52.983464
 20
790.0
 30
0.0
 11
55.983464
 21
790.0
 31
0.0
  0
LINE
  5
7C
  8
TEAM-HIDE
 10
43.983464
 20
810.0
 30
0.0
 11
46.983464
 21
810.0
 31
0.0
  0
LINE
  5
7D
  8
TEAM-HIDE
 10
52.983464
 20
810.0
 30
0.0
 11
55.983464
 21
810.0
 31
0.0
  0
ARC
  5
7E
  8
TEAM-HIDE
 10
-95.687468
 20
843.616758
 30
0.0
 40
6.467225
 50
9.24369
 51
99.24369
  0
LINE
  5
7F
  8
TEAM-HIDE
 10
-100.648492
 20
845.0
 30
0.0
 11
-116.877899
 21
845.0
 31
0.0
  0
ARC
  5
80
  8
TEAM-HIDE
 10
-116.877899
 20
842.0
 30
0.0
 40
3.0
 50
90.0
 51
180.0
  0
ARC
  5
81
  8
TEAM-HIDE
 10
-97.102448
 20
842.0
 30
0.0
 40
3.0
 50
5.0
 51
90.0
  0
POLYLINE
  5
82
  8
TEAM-BODY
 66
     1
 10
0.0
 20
0.0
 30
0.0
 70
     1
  0
VERTEX
  5
1BF
  8
TEAM-BODY
 10
125.122101
 20
840.0
 30
0.0
 42
0.414214
  0
VERTEX
  5
1C0
  8
TEAM-BODY
 10
115.122101
 20
850.0
 30
0.0
  0
VERTEX
  5
1C1
  8
TEAM-BODY
 10
-115.122101
 20
850.0
 30
0.0
 42
0.424475
  0
VERTEX
  5
1C2
  8
TEAM-BODY
 10
-125.11601
 20
839.651005
 30
0.0
  0
VERTEX
  5
1C3
  8
TEAM-BODY
 10
-121.274725
 20
729.651005
 30
0.0
 42
0.404026
  0
VERTEX
  5
1C4
  8
TEAM-BODY
 10
-111.280817
 20
720.0
 30
0.0
  0
VERTEX
  5
1C5
  8
TEAM-BODY
 10
-73.723024
 20
720.0
 30
0.0
 42
0.414214
  0
VERTEX
  5
1C6
  8
TEAM-BODY
 10
-63.25226
 20
710.356472
 30
0.0
  0
VERTEX
  5
1C7
  8
TEAM-BODY
 10
-41.787983
 20
710.356472
 30
0.0
  0
VERTEX
  5
1C8
  8
TEAM-BODY
 10
-38.67504
 20
705.0
 30
0.0
  0
VERTEX
  5
1C9
  8
TEAM-BODY
 10
38.886169
 20
705.0
 30
0.0
  0
VERTEX
  5
1CA
  8
TEAM-BODY
 10
41.999113
 20
710.356472
 30
0.0
  0
VERTEX
  5
1CB
  8
TEAM-BODY
 10
63.496463
 20
710.356472
 30
0.0
 42
0.414214
  0
VERTEX
  5
1CC
  8
TEAM-BODY
 10
73.967227
 20
720.0
 30
0.0
  0
VERTEX
  5
1CD
  8
TEAM-BODY
 10
111.274721
 20
720.0
 30
0.0
 42
0.404026
  0
VERTEX
  5
1CE
  8
TEAM-BODY
 10
121.26863
 20
729.651005
 30
0.0
  0
SEQEND
  5
1CF
  8
TEAM-BODY
  0
TEXT
  5
83
  8
TEAM-TXT
 10
-140.907864
 20
659.922055
 30
0.0
 40
30.0
  1
team 221070
 41
0.8
 51
15.0
  7
TEAM
  0
LINE
  5
86
  8
TEAM-AXE
 10
50.0
 20
620.0
 30
0.0
 11
75.0
 21
620.0
 31
0.0
  0
CIRCLE
  5
87
  8
TEAM-COLD
 10
50.0
 20
620.0
 30
0.0
 40
12.0
  0
LINE
  5
89
  8
TEAM-BODY
 10
-73.723024
 20
720.0
 30
0.0
 11
73.967227
 21
720.0
 31
0.0
  0
LINE
  5
8A
  8
TEAM-AXE
 10
49.983464
 20
800.0
 30
0.0
 11
69.983464
 21
800.0
 31
0.0
  0
DIMENSION
  5
8B
  8
TEAM-MAS
  2
*D6
 10
451.049157
 20
850.0
 30
0.0
 11
451.049157
 21
695.0
 31
0.0
 12
-4000.0
 22
-72000.0
 32
0.0
 13
30.0
 23
540.0
 33
0.0
 14
201.595095
 24
850.0
 34
0.0
 50
90.0
1001
ACAD
1000
DSTYLE
1002
{
1070
    40
1040
1.0
1002
}
  0
DIMENSION
  5
99
  8
TEAM-MAS
  2
*D5
 10
292.317125
 20
705.0
 30
0.0
 11
292.317125
 21
777.5
 31
0.0
 12
-4000.0
 22
-72000.0
 32
0.0
 70
   128
 13
115.122101
 23
850.0
 33
0.0
 14
37.5
 24
705.0
 34
0.0
 50
90.0
1001
ACAD
1000
DSTYLE
1002
{
1070
    40
1040
1.0
1002
}
  0
DIMENSION
  5
A7
  8
TEAM-MAS
  2
*D4
 10
-50.0
 20
917.470812
 30
0.0
 11
0.0
 21
958.470812
 31
0.0
 12
-4000.0
 22
-72000.0
 32
0.0
 13
50.0
 23
800.0
 33
0.0
 14
-50.0
 24
805.0
 34
0.0
1001
ACAD
1000
DSTYLE
1002
{
1070
    40
1040
1.0
1002
}
  0
CIRCLE
  5
B4
  8
TEAM-INSP
 10
0.0
 20
0.0
 30
0.0
 40
10.0
  0
DIMENSION
  5
B6
  8
TEAM-MAS
  2
*D3
 10
528.740318
 20
0.0
 30
0.0
 11
528.740318
 21
425.0
 31
0.0
 12
-4000.0
 22
-72000.0
 32
0.0
 13
115.122101
 23
850.0
 33
0.0
 14
0.0
 24
0.0
 34
0.0
 50
90.0
1001
ACAD
1000
DSTYLE
1002
{
1070
    40
1040
1.0
1002
}
  0
DIMENSION
  5
C4
  8
TEAM-MAS
  2
*D2
 10
371.668483
 20
0.0
 30
0.0
 11
371.668483
 21
310.0
 31
0.0
 12
-4000.0
 22
-72000.0
 32
0.0
 13
75.0
 23
620.0
 33
0.0
 14
0.0
 24
0.0
 34
0.0
 50
90.0
1001
ACAD
1000
DSTYLE
1002
{
1070
    40
1040
1.0
1002
}
  0
DIMENSION
  5
D2
  8
TEAM-MAS
  2
*D1
 10
451.049157
 20
0.0
 30
0.0
 11
451.049157
 21
270.0
 31
0.0
 12
-4000.0
 22
-72000.0
 32
0.0
 13
30.0
 23
540.0
 33
0.0
 14
0.0
 24
0.0
 34
0.0
 50
90.0
1001
ACAD
1000
DSTYLE
1002
{
1070
    40
1040
1.0
1002
}
  0
DIMENSION
  5
E0
  8
TEAM-MAS
  2
*D0
 10
50.0
 20
408.358251
 30
0.0
 11
0.0
 21
433.414536
 31
0.0
 12
-4000.0
 22
-72000.0
 32
0.0
 70
   128
 13
-50.0
 23
595.0
 33
0.0
 14
50.0
 24
595.0
 34
0.0
1001
ACAD
1000
DSTYLE
1002
{
1070
    40
1040
1.0
1002
}
  0
ENDSEC
  0
EOF
