  0
SECTION
  2
HEADER
  9
$ACADVER
  1
AC1009
  9
$INSBASE
 10
0.0
 20
0.0
 30
0.0
  9
$EXTMIN
 10
-227.092457
 20
-10.04755
 30
-20.002135
  9
$EXTMAX
 10
541.906937
 20
1027.236503
 30
20.001209
  9
$LIMMIN
 10
-227.092457
 20
-10.04755
  9
$LIMMAX
 10
541.906937
 20
1027.236503
  9
$ORTHOMODE
 70
     1
  9
$REGENMODE
 70
     1
  9
$FILLMODE
 70
     1
  9
$QTEXTMODE
 70
     0
  9
$MIRRTEXT
 70
     0
  9
$DRAGMODE
 70
     2
  9
$LTSCALE
 40
25.0
  9
$OSMODE
 70
     0
  9
$ATTMODE
 70
     1
  9
$TEXTSIZE
 40
200.0
  9
$TRACEWID
 40
1.0
  9
$TEXTSTYLE
  7
STANDARD
  9
$CLAYER
  8
TEAM-MAS
  9
$CELTYPE
  6
BYLAYER
  9
$CECOLOR
 62
   256
  9
$DIMSCALE
 40
0.0
  9
$DIMASZ
 40
20.0
  9
$DIMEXO
 40
10.0
  9
$DIMDLI
 40
1.0
  9
$DIMRND
 40
0.0
  9
$DIMDLE
 40
0.0
  9
$DIMEXE
 40
1.0
  9
$DIMTP
 40
0.0
  9
$DIMTM
 40
0.0
  9
$DIMTXT
 40
35.0
  9
$DIMCEN
 40
1.0
  9
$DIMTSZ
 40
0.0
  9
$DIMTOL
 70
     0
  9
$DIMLIM
 70
     0
  9
$DIMTIH
 70
     0
  9
$DIMTOH
 70
     0
  9
$DIMSE1
 70
     0
  9
$DIMSE2
 70
     0
  9
$DIMTAD
 70
     0
  9
$DIMZIN
 70
     0
  9
$DIMBLK
  1

  9
$DIMASO
 70
     1
  9
$DIMSHO
 70
     0
  9
$DIMPOST
  1

  9
$DIMAPOST
  1

  9
$DIMALT
 70
     0
  9
$DIMALTD
 70
     2
  9
$DIMALTF
 40
25.4
  9
$DIMLFAC
 40
1.0
  9
$DIMTOFL
 70
     0
  9
$DIMTVP
 40
0.0
  9
$DIMTIX
 70
     0
  9
$DIMSOXD
 70
     0
  9
$DIMSAH
 70
     0
  9
$DIMBLK1
  1

  9
$DIMBLK2
  1

  9
$DIMSTYLE
  2
TEAM
  9
$DIMCLRD
 70
     9
  9
$DIMCLRE
 70
     9
  9
$DIMCLRT
 70
    11
  9
$DIMTFAC
 40
1.0
  9
$DIMGAP
 40
15.0
  9
$LUNITS
 70
     2
  9
$LUPREC
 70
     1
  9
$SKETCHINC
 40
1.0
  9
$FILLETRAD
 40
50.0
  9
$AUNITS
 70
     0
  9
$AUPREC
 70
     0
  9
$MENU
  1
ROPLANS
  9
$ELEVATION
 40
0.0
  9
$PELEVATION
 40
0.0
  9
$THICKNESS
 40
0.0
  9
$LIMCHECK
 70
     0
  9
$BLIPMODE
 70
     1
  9
$CHAMFERA
 40
0.0
  9
$CHAMFERB
 40
0.0
  9
$SKPOLY
 70
     0
  9
$TDCREATE
 40
2450392.957851
  9
$TDUPDATE
 40
2455505.390806
  9
$TDINDWG
 40
2.108696
  9
$TDUSRTIMER
 40
2.108696
  9
$USRTIMER
 70
     1
  9
$ANGBASE
 50
0.0
  9
$ANGDIR
 70
     0
  9
$PDMODE
 70
     0
  9
$PDSIZE
 40
0.0
  9
$PLINEWID
 40
0.0
  9
$COORDS
 70
     2
  9
$SPLFRAME
 70
     0
  9
$SPLINETYPE
 70
     6
  9
$SPLINESEGS
 70
     8
  9
$ATTDIA
 70
     0
  9
$ATTREQ
 70
     0
  9
$HANDLING
 70
     1
  9
$HANDSEED
  5
1CB
  9
$SURFTAB1
 70
    24
  9
$SURFTAB2
 70
    24
  9
$SURFTYPE
 70
     6
  9
$SURFU
 70
     6
  9
$SURFV
 70
     6
  9
$UCSNAME
  2

  9
$UCSORG
 10
0.0
 20
0.0
 30
0.0
  9
$UCSXDIR
 10
1.0
 20
0.0
 30
0.0
  9
$UCSYDIR
 10
0.0
 20
1.0
 30
0.0
  9
$PUCSNAME
  2

  9
$PUCSORG
 10
0.0
 20
0.0
 30
0.0
  9
$PUCSXDIR
 10
1.0
 20
0.0
 30
0.0
  9
$PUCSYDIR
 10
0.0
 20
1.0
 30
0.0
  9
$USERI1
 70
     0
  9
$USERI2
 70
     0
  9
$USERI3
 70
     0
  9
$USERI4
 70
     0
  9
$USERI5
 70
     0
  9
$USERR1
 40
0.0
  9
$USERR2
 40
0.0
  9
$USERR3
 40
0.0
  9
$USERR4
 40
0.0
  9
$USERR5
 40
0.0
  9
$WORLDVIEW
 70
     1
  9
$SHADEDGE
 70
     0
  9
$SHADEDIF
 70
    70
  9
$TILEMODE
 70
     1
  9
$MAXACTVP
 70
    16
  9
$PLIMCHECK
 70
     0
  9
$PEXTMIN
 10
-0.805942
 20
0.005011
 30
0.0
  9
$PEXTMAX
 10
20.250094
 20
11.356329
 30
0.0
  9
$PLIMMIN
 10
0.0
 20
0.0
  9
$PLIMMAX
 10
12.0
 20
9.0
  9
$UNITMODE
 70
     0
  9
$VISRETAIN
 70
     0
  9
$PLINEGEN
 70
     0
  9
$PSLTSCALE
 70
     0
  0
ENDSEC
  0
SECTION
  2
TABLES
  0
TABLE
  2
VPORT
 70
     2
  0
VPORT
  2
*ACTIVE
 70
     0
 10
0.0
 20
0.0
 11
1.0
 21
1.0
 12
157.40724
 22
508.594476
 13
0.0
 23
0.0
 14
1.0
 24
1.0
 15
50.0
 25
50.0
 16
0.0
 26
0.0
 36
1.0
 17
0.0
 27
0.0
 37
0.0
 40
1043.654273
 41
1.865779
 42
50.0
 43
0.0
 44
0.0
 50
0.0
 51
0.0
 71
     0
 72
   100
 73
     1
 74
     1
 75
     0
 76
     0
 77
     0
 78
     0
  0
ENDTAB
  0
TABLE
  2
LTYPE
 70
     3
  0
LTYPE
  2
CONTINUOUS
 70
     0
  3
Solid Line
 72
    65
 73
     0
 40
0.0
  0
LTYPE
  2
31
 70
     0
  3

 72
    65
 73
     4
 40
2.1
 49
1.5
 49
-0.3
 49
0.0
 49
-0.3
  0
LTYPE
  2
22
 70
     0
  3

 72
    65
 73
     2
 40
1.4
 49
1.2
 49
-0.2
  0
ENDTAB
  0
TABLE
  2
LAYER
 70
    11
  0
LAYER
  2
0
 70
     0
 62
     7
  6
CONTINUOUS
  0
LAYER
  2
DEFPOINTS
 70
     0
 62
     7
  6
CONTINUOUS
  0
LAYER
  2
TEAM-BODY
 70
     0
 62
     2
  6
CONTINUOUS
  0
LAYER
  2
TEAM-AXE
 70
     0
 62
    10
  6
31
  0
LAYER
  2
TEAM-MAS
 70
     0
 62
     9
  6
CONTINUOUS
  0
LAYER
  2
TEAM-TXT
 70
     0
 62
    11
  6
CONTINUOUS
  0
LAYER
  2
TEAM-COLD
 70
     0
 62
     3
  6
CONTINUOUS
  0
LAYER
  2
TEAM-HIDE
 70
     0
 62
     8
  6
22
  0
LAYER
  2
TEAM-KAN
 70
     0
 62
     6
  6
CONTINUOUS
  0
LAYER
  2
TEAM-WARM
 70
     0
 62
     1
  6
CONTINUOUS
  0
LAYER
  2
TEAM-INSP
 70
     0
 62
     5
  6
CONTINUOUS
  0
ENDTAB
  0
TABLE
  2
STYLE
 70
     2
  0
STYLE
  2
STANDARD
 70
     0
 40
0.0
 41
1.0
 50
0.0
 71
     0
 42
200.0
  3
txt
  4

  0
STYLE
  2
TEAM
 70
     0
 40
0.0
 41
0.8
 50
15.0
 71
     0
 42
7.0
  3
ROMANS.shx
  4

  0
ENDTAB
  0
TABLE
  2
VIEW
 70
     0
  0
ENDTAB
  0
TABLE
  2
UCS
 70
     0
  0
ENDTAB
  0
TABLE
  2
APPID
 70
     1
  0
APPID
  2
ACAD
 70
     0
  0
ENDTAB
  0
TABLE
  2
DIMSTYLE
 70
     1
  0
DIMSTYLE
  2
TEAM
 70
     0
  3

  4

  5

  6

  7

 40
0.0
 41
20.0
 42
10.0
 43
1.0
 44
1.0
 45
0.0
 46
0.0
 47
0.0
 48
0.0
140
35.0
141
1.0
142
0.0
143
25.4
144
1.0
145
0.0
146
1.0
147
15.0
 71
     0
 72
     0
 73
     0
 74
     0
 75
     0
 76
     0
 77
     0
 78
     0
170
     0
171
     2
172
     0
173
     0
174
     0
175
     0
176
     9
177
     9
178
    11
  0
ENDTAB
  0
ENDSEC
  0
SECTION
  2
BLOCKS
  0
BLOCK
  8
0
  2
$MODEL_SPACE
 70
     0
 10
0.0
 20
0.0
 30
0.0
  3
$MODEL_SPACE
  1

  0
ENDBLK
  5
1AB
  8
0
  0
BLOCK
 67
     1
  8
0
  2
$PAPER_SPACE
 70
     0
 10
0.0
 20
0.0
 30
0.0
  3
$PAPER_SPACE
  1

  0
ENDBLK
  5
1A9
 67
     1
  8
0
  0
BLOCK
  8
0
  2
*D0
 70
     1
 10
0.0
 20
0.0
 30
0.0
  3
*D0
  1

  0
LINE
  5
A4
  8
0
  6
BYBLOCK
 62
     9
 10
11884.983464
 20
100874.0
 30
0.0
 11
11884.983464
 21
100957.631183
 31
0.0
  0
LINE
  5
A5
  8
0
  6
BYBLOCK
 62
     9
 10
12114.983464
 20
100874.0
 30
0.0
 11
12114.983464
 21
100957.631183
 31
0.0
  0
LINE
  5
A6
  8
0
  6
BYBLOCK
 62
     9
 10
11904.983464
 20
100956.631183
 30
0.0
 11
11953.025294
 21
100956.631183
 31
0.0
  0
LINE
  5
A7
  8
0
  6
BYBLOCK
 62
     9
 10
12094.983464
 20
100956.631183
 30
0.0
 11
12046.941633
 21
100956.631183
 31
0.0
  0
SOLID
  5
A8
  8
0
  6
BYBLOCK
 62
     9
 10
11904.983464
 20
100959.964516
 30
0.0
 11
11904.983464
 21
100953.297849
 31
0.0
 12
11884.983464
 22
100956.631183
 32
0.0
 13
11884.983464
 23
100956.631183
 33
0.0
  0
SOLID
  5
A9
  8
0
  6
BYBLOCK
 62
     9
 10
12094.983464
 20
100959.964516
 30
0.0
 11
12094.983464
 21
100953.297849
 31
0.0
 12
12114.983464
 22
100956.631183
 32
0.0
 13
12114.983464
 23
100956.631183
 33
0.0
  0
TEXT
  5
AA
  8
0
  6
BYBLOCK
 62
    11
 10
11963.664074
 20
100939.131183
 30
0.0
 40
35.0
  1
230
  0
POINT
  5
AB
  8
DEFPOINTS
  6
BYBLOCK
 62
     0
 10
11884.983464
 20
100864.0
 30
0.0
  0
POINT
  5
AC
  8
DEFPOINTS
  6
BYBLOCK
 62
     0
 10
12114.983464
 20
100864.0
 30
0.0
  0
POINT
  5
AD
  8
DEFPOINTS
  6
BYBLOCK
 62
     0
 10
12114.983464
 20
100956.631183
 30
0.0
  0
ENDBLK
  5
AF
  8
0
  0
BLOCK
  8
0
  2
*D1
 70
     1
 10
0.0
 20
0.0
 30
0.0
  3
*D1
  1

  0
LINE
  5
96
  8
0
  6
BYBLOCK
 62
     9
 10
11775.0
 20
100900.0
 30
0.0
 11
11775.0
 21
101012.41997
 31
0.0
  0
LINE
  5
97
  8
0
  6
BYBLOCK
 62
     9
 10
12225.0
 20
100900.0
 30
0.0
 11
12225.0
 21
101012.41997
 31
0.0
  0
LINE
  5
98
  8
0
  6
BYBLOCK
 62
     9
 10
11795.0
 20
101011.41997
 30
0.0
 11
11951.73622
 21
101011.41997
 31
0.0
  0
LINE
  5
99
  8
0
  6
BYBLOCK
 62
     9
 10
12205.0
 20
101011.41997
 30
0.0
 11
12048.26378
 21
101011.41997
 31
0.0
  0
SOLID
  5
9A
  8
0
  6
BYBLOCK
 62
     9
 10
11795.0
 20
101014.753304
 30
0.0
 11
11795.0
 21
101008.086637
 31
0.0
 12
11775.0
 22
101011.41997
 32
0.0
 13
11775.0
 23
101011.41997
 33
0.0
  0
SOLID
  5
9B
  8
0
  6
BYBLOCK
 62
     9
 10
12205.0
 20
101014.753304
 30
0.0
 11
12205.0
 21
101008.086637
 31
0.0
 12
12225.0
 22
101011.41997
 32
0.0
 13
12225.0
 23
101011.41997
 33
0.0
  0
TEXT
  5
9C
  8
0
  6
BYBLOCK
 62
    11
 10
11961.48622
 20
100993.91997
 30
0.0
 40
35.0
  1
450
  0
POINT
  5
9D
  8
DEFPOINTS
  6
BYBLOCK
 62
     0
 10
11775.0
 20
100890.0
 30
0.0
  0
POINT
  5
9E
  8
DEFPOINTS
  6
BYBLOCK
 62
     0
 10
12225.0
 20
100890.0
 30
0.0
  0
POINT
  5
9F
  8
DEFPOINTS
  6
BYBLOCK
 62
     0
 10
12225.0
 20
101011.41997
 30
0.0
  0
ENDBLK
  5
A1
  8
0
  0
BLOCK
  8
0
  2
*D2
 70
     1
 10
0.0
 20
0.0
 30
0.0
  3
*D2
  1

  0
LINE
  5
69
  8
0
  6
BYBLOCK
 62
     9
 10
11940.0
 20
100629.783522
 30
0.0
 11
11940.0
 21
100473.761843
 31
0.0
  0
LINE
  5
6A
  8
0
  6
BYBLOCK
 62
     9
 10
12060.0
 20
100630.0
 30
0.0
 11
12060.0
 21
100473.761843
 31
0.0
  0
LINE
  5
6B
  8
0
  6
BYBLOCK
 62
     9
 10
11960.0
 20
100474.761843
 30
0.0
 11
11975.0
 21
100474.761843
 31
0.0
  0
LINE
  5
6C
  8
0
  6
BYBLOCK
 62
     9
 10
12040.0
 20
100474.761843
 30
0.0
 11
12025.0
 21
100474.761843
 31
0.0
  0
TEXT
  5
6D
  8
0
  6
BYBLOCK
 62
    11
 10
11966.73622
 20
100457.261843
 30
0.0
 40
35.0
  1
120
  0
SOLID
  5
6E
  8
0
  6
BYBLOCK
 62
     9
 10
11960.0
 20
100478.095176
 30
0.0
 11
11960.0
 21
100471.428509
 31
0.0
 12
11940.0
 22
100474.761843
 32
0.0
 13
11940.0
 23
100474.761843
 33
0.0
  0
SOLID
  5
6F
  8
0
  6
BYBLOCK
 62
     9
 10
12040.0
 20
100478.095176
 30
0.0
 11
12040.0
 21
100471.428509
 31
0.0
 12
12060.0
 22
100474.761843
 32
0.0
 13
12060.0
 23
100474.761843
 33
0.0
  0
POINT
  5
70
  8
DEFPOINTS
  6
BYBLOCK
 62
     0
 10
11940.0
 20
100639.783522
 30
20.0
  0
POINT
  5
71
  8
DEFPOINTS
  6
BYBLOCK
 62
     0
 10
12060.0
 20
100640.0
 30
20.0
  0
POINT
  5
72
  8
DEFPOINTS
  6
BYBLOCK
 62
     0
 10
12060.0
 20
100474.761843
 30
30.0
  0
ENDBLK
  5
74
  8
0
  0
BLOCK
  8
0
  2
*D3
 70
     1
 10
0.0
 20
0.0
 30
0.0
  3
*D3
  1

  0
LINE
  5
5B
  8
0
  6
BYBLOCK
 62
     9
 10
12030.0
 20
100590.0
 30
0.0
 11
12471.958071
 21
100590.0
 31
0.0
  0
LINE
  5
5C
  8
0
  6
BYBLOCK
 62
     9
 10
12160.0
 20
100000.0
 30
0.0
 11
12471.958071
 21
100000.0
 31
0.0
  0
LINE
  5
5D
  8
0
  6
BYBLOCK
 62
     9
 10
12470.958071
 20
100570.0
 30
0.0
 11
12470.958071
 21
100341.57493
 31
0.0
  0
LINE
  5
5E
  8
0
  6
BYBLOCK
 62
     9
 10
12470.958071
 20
100020.0
 30
0.0
 11
12470.958071
 21
100248.42507
 31
0.0
  0
SOLID
  5
5F
  8
0
  6
BYBLOCK
 62
     9
 10
12467.624738
 20
100570.0
 30
0.0
 11
12474.291405
 21
100570.0
 31
0.0
 12
12470.958071
 22
100590.0
 32
0.0
 13
12470.958071
 23
100590.0
 33
0.0
  0
SOLID
  5
60
  8
0
  6
BYBLOCK
 62
     9
 10
12467.624738
 20
100020.0
 30
0.0
 11
12474.291405
 21
100020.0
 31
0.0
 12
12470.958071
 22
100000.0
 32
0.0
 13
12470.958071
 23
100000.0
 33
0.0
  0
TEXT
  5
61
  8
0
  6
BYBLOCK
 62
    11
 10
12488.458071
 20
100258.17507
 30
0.0
 40
35.0
  1
590
 50
90.0
  0
POINT
  5
62
  8
DEFPOINTS
  6
BYBLOCK
 62
     0
 10
12020.0
 20
100590.0
 30
10.0
  0
POINT
  5
63
  8
DEFPOINTS
  6
BYBLOCK
 62
     0
 10
12150.0
 20
100000.0
 30
20.0
  0
POINT
  5
64
  8
DEFPOINTS
  6
BYBLOCK
 62
     0
 10
12470.958071
 20
100000.0
 30
10.0
  0
ENDBLK
  5
66
  8
0
  0
BLOCK
  8
0
  2
*D4
 70
     1
 10
0.0
 20
0.0
 30
0.0
  3
*D4
  1

  0
LINE
  5
4D
  8
0
  6
BYBLOCK
 62
     9
 10
12010.0
 20
100900.0
 30
0.0
 11
12471.958071
 21
100900.0
 31
0.0
  0
LINE
  5
4E
  8
0
  6
BYBLOCK
 62
     9
 10
12030.0
 20
100590.0
 30
0.0
 11
12471.958071
 21
100590.0
 31
0.0
  0
LINE
  5
4F
  8
0
  6
BYBLOCK
 62
     9
 10
12470.958071
 20
100880.0
 30
0.0
 11
12470.958071
 21
100788.01378
 31
0.0
  0
LINE
  5
50
  8
0
  6
BYBLOCK
 62
     9
 10
12470.958071
 20
100610.0
 30
0.0
 11
12470.958071
 21
100701.98622
 31
0.0
  0
SOLID
  5
51
  8
0
  6
BYBLOCK
 62
     9
 10
12467.624738
 20
100880.0
 30
0.0
 11
12474.291405
 21
100880.0
 31
0.0
 12
12470.958071
 22
100900.0
 32
0.0
 13
12470.958071
 23
100900.0
 33
0.0
  0
SOLID
  5
52
  8
0
  6
BYBLOCK
 62
     9
 10
12467.624738
 20
100610.0
 30
0.0
 11
12474.291405
 21
100610.0
 31
0.0
 12
12470.958071
 22
100590.0
 32
0.0
 13
12470.958071
 23
100590.0
 33
0.0
  0
TEXT
  5
53
  8
0
  6
BYBLOCK
 62
    11
 10
12488.458071
 20
100711.73622
 30
0.0
 40
35.0
  1
310
 50
90.0
  0
POINT
  5
54
  8
DEFPOINTS
  6
BYBLOCK
 62
     0
 10
12000.0
 20
100900.0
 30
10.0
  0
POINT
  5
55
  8
DEFPOINTS
  6
BYBLOCK
 62
     0
 10
12020.0
 20
100590.0
 30
10.0
  0
POINT
  5
56
  8
DEFPOINTS
  6
BYBLOCK
 62
     0
 10
12470.958071
 20
100590.0
 30
20.0
  0
ENDBLK
  5
58
  8
0
  0
BLOCK
  8
0
  2
*D5
 70
     1
 10
0.0
 20
0.0
 30
0.0
  3
*D5
  1

  0
LINE
  5
3F
  8
0
  6
BYBLOCK
 62
     9
 10
12010.0
 20
100900.0
 30
0.0
 11
12354.364064
 21
100900.0
 31
0.0
  0
LINE
  5
40
  8
0
  6
BYBLOCK
 62
     9
 10
12045.0
 20
100740.0
 30
0.0
 11
12354.364064
 21
100740.0
 31
0.0
  0
LINE
  5
41
  8
0
  6
BYBLOCK
 62
     9
 10
12353.364064
 20
100880.0
 30
0.0
 11
12353.364064
 21
100863.01378
 31
0.0
  0
LINE
  5
42
  8
0
  6
BYBLOCK
 62
     9
 10
12353.364064
 20
100760.0
 30
0.0
 11
12353.364064
 21
100776.98622
 31
0.0
  0
SOLID
  5
43
  8
0
  6
BYBLOCK
 62
     9
 10
12350.030731
 20
100880.0
 30
0.0
 11
12356.697397
 21
100880.0
 31
0.0
 12
12353.364064
 22
100900.0
 32
0.0
 13
12353.364064
 23
100900.0
 33
0.0
  0
SOLID
  5
44
  8
0
  6
BYBLOCK
 62
     9
 10
12350.030731
 20
100760.0
 30
0.0
 11
12356.697397
 21
100760.0
 31
0.0
 12
12353.364064
 22
100740.0
 32
0.0
 13
12353.364064
 23
100740.0
 33
0.0
  0
TEXT
  5
45
  8
0
  6
BYBLOCK
 62
    11
 10
12370.864064
 20
100786.73622
 30
0.0
 40
35.0
  1
160
 50
90.0
  0
POINT
  5
46
  8
DEFPOINTS
  6
BYBLOCK
 62
     0
 10
12000.0
 20
100900.0
 30
0.0
  0
POINT
  5
47
  8
DEFPOINTS
  6
BYBLOCK
 62
     0
 10
12035.0
 20
100740.0
 30
0.0
  0
POINT
  5
48
  8
DEFPOINTS
  6
BYBLOCK
 62
     0
 10
12353.364064
 20
100740.0
 30
10.0
  0
ENDBLK
  5
4A
  8
0
  0
BLOCK
  8
0
  2
*D6
 70
     1
 10
0.0
 20
0.0
 30
0.0
  3
*D6
  1

  0
LINE
  5
31
  8
0
  6
BYBLOCK
 62
     9
 10
12010.0
 20
100900.0
 30
0.0
 11
12525.433307
 21
100900.0
 31
0.0
  0
LINE
  5
32
  8
0
  6
BYBLOCK
 62
     9
 10
12010.0
 20
100000.0
 30
0.0
 11
12525.433307
 21
100000.0
 31
0.0
  0
LINE
  5
33
  8
0
  6
BYBLOCK
 62
     9
 10
12524.433307
 20
100880.0
 30
0.0
 11
12524.433307
 21
100497.238653
 31
0.0
  0
LINE
  5
34
  8
0
  6
BYBLOCK
 62
     9
 10
12524.433307
 20
100020.0
 30
0.0
 11
12524.433307
 21
100402.761347
 31
0.0
  0
SOLID
  5
35
  8
0
  6
BYBLOCK
 62
     9
 10
12521.099974
 20
100880.0
 30
0.0
 11
12527.76664
 21
100880.0
 31
0.0
 12
12524.433307
 22
100900.0
 32
0.0
 13
12524.433307
 23
100900.0
 33
0.0
  0
SOLID
  5
36
  8
0
  6
BYBLOCK
 62
     9
 10
12521.099974
 20
100020.0
 30
0.0
 11
12527.76664
 21
100020.0
 31
0.0
 12
12524.433307
 22
100000.0
 32
0.0
 13
12524.433307
 23
100000.0
 33
0.0
  0
TEXT
  5
37
  8
0
  6
BYBLOCK
 62
    11
 10
12541.933307
 20
100413.838793
 30
0.0
 40
35.0
  1
900
 50
90.0
  0
POINT
  5
38
  8
DEFPOINTS
  6
BYBLOCK
 62
     0
 10
12000.0
 20
100900.0
 30
0.0
  0
POINT
  5
39
  8
DEFPOINTS
  6
BYBLOCK
 62
     0
 10
12000.0
 20
100000.0
 30
0.0
  0
POINT
  5
3A
  8
DEFPOINTS
  6
BYBLOCK
 62
     0
 10
12524.433307
 20
100000.0
 30
10.0
  0
ENDBLK
  5
3C
  8
0
  0
BLOCK
  8
0
  2
*D7
 70
     1
 10
0.0
 20
0.0
 30
0.0
  3
*D7
  1

  0
LINE
  5
88
  8
0
  6
BYBLOCK
 62
     9
 10
12079.949874
 20
100640.0
 30
0.0
 11
12412.822276
 21
100640.0
 31
0.0
  0
LINE
  5
89
  8
0
  6
BYBLOCK
 62
     9
 10
12010.0
 20
100900.0
 30
0.0
 11
12412.822276
 21
100900.0
 31
0.0
  0
LINE
  5
8A
  8
0
  6
BYBLOCK
 62
     9
 10
12411.822276
 20
100660.0
 30
0.0
 11
12411.822276
 21
100723.041831
 31
0.0
  0
LINE
  5
8B
  8
0
  6
BYBLOCK
 62
     9
 10
12411.822276
 20
100880.0
 30
0.0
 11
12411.822276
 21
100816.958169
 31
0.0
  0
SOLID
  5
8C
  8
0
  6
BYBLOCK
 62
     9
 10
12408.488943
 20
100660.0
 30
0.0
 11
12415.155609
 21
100660.0
 31
0.0
 12
12411.822276
 22
100640.0
 32
0.0
 13
12411.822276
 23
100640.0
 33
0.0
  0
SOLID
  5
8D
  8
0
  6
BYBLOCK
 62
     9
 10
12408.488943
 20
100880.0
 30
0.0
 11
12415.155609
 21
100880.0
 31
0.0
 12
12411.822276
 22
100900.0
 32
0.0
 13
12411.822276
 23
100900.0
 33
0.0
  0
TEXT
  5
8E
  8
0
  6
BYBLOCK
 62
    11
 10
12429.322276
 20
100733.68061
 30
0.0
 40
35.0
  1
260
 50
90.0
  0
POINT
  5
8F
  8
DEFPOINTS
  6
BYBLOCK
 62
     0
 10
12069.949874
 20
100640.0
 30
0.0
  0
POINT
  5
90
  8
DEFPOINTS
  6
BYBLOCK
 62
     0
 10
12000.0
 20
100900.0
 30
0.0
  0
POINT
  5
91
  8
DEFPOINTS
  6
BYBLOCK
 62
     0
 10
12411.822276
 20
100900.0
 30
0.0
  0
ENDBLK
  5
93
  8
0
  0
BLOCK
  8
0
  2
*D8
 70
     1
 10
0.0
 20
0.0
 30
0.0
  3
*D8
  1

  0
LINE
  5
22
  8
0
  6
BYBLOCK
 62
     9
 10
12079.949874
 20
100640.0
 30
0.0
 11
12412.822276
 21
100640.0
 31
0.0
  0
LINE
  5
23
  8
0
  6
BYBLOCK
 62
     9
 10
12220.0
 20
100000.0
 30
0.0
 11
12412.822276
 21
100000.0
 31
0.0
  0
LINE
  5
24
  8
0
  6
BYBLOCK
 62
     9
 10
12411.822276
 20
100620.0
 30
0.0
 11
12411.822276
 21
100369.311024
 31
0.0
  0
LINE
  5
25
  8
0
  6
BYBLOCK
 62
     9
 10
12411.822276
 20
100020.0
 30
0.0
 11
12411.822276
 21
100270.688976
 31
0.0
  0
SOLID
  5
26
  8
0
  6
BYBLOCK
 62
     9
 10
12408.488943
 20
100620.0
 30
0.0
 11
12415.155609
 21
100620.0
 31
0.0
 12
12411.822276
 22
100640.0
 32
0.0
 13
12411.822276
 23
100640.0
 33
0.0
  0
SOLID
  5
27
  8
0
  6
BYBLOCK
 62
     9
 10
12408.488943
 20
100020.0
 30
0.0
 11
12415.155609
 21
100020.0
 31
0.0
 12
12411.822276
 22
100000.0
 32
0.0
 13
12411.822276
 23
100000.0
 33
0.0
  0
TEXT
  5
28
  8
0
  6
BYBLOCK
 62
    11
 10
12429.322276
 20
100282.533465
 30
0.0
 40
35.0
  1
640
 50
90.0
  0
POINT
  5
29
  8
DEFPOINTS
  6
BYBLOCK
 62
     0
 10
12069.949874
 20
100640.0
 30
0.0
  0
POINT
  5
2B
  8
DEFPOINTS
  6
BYBLOCK
 62
     0
 10
12210.0
 20
100000.0
 30
10.0
  0
POINT
  5
2C
  8
DEFPOINTS
  6
BYBLOCK
 62
     0
 10
12411.822276
 20
100000.0
 30
20.0
  0
ENDBLK
  5
2E
  8
0
  0
BLOCK
  8
0
  2
*D9
 70
     1
 10
0.0
 20
0.0
 30
0.0
  3
*D9
  1

  0
LINE
  5
79
  8
0
  6
BYBLOCK
 62
     9
 10
12149.983464
 20
100850.0
 30
0.0
 11
12305.789045
 21
100850.0
 31
0.0
  0
LINE
  5
7A
  8
0
  6
BYBLOCK
 62
     9
 10
12250.0
 20
100900.0
 30
0.0
 11
12305.789045
 21
100900.0
 31
0.0
  0
LINE
  5
7B
  8
0
  6
BYBLOCK
 62
     9
 10
12304.789045
 20
100830.0
 30
0.0
 11
12304.789045
 21
100810.0
 31
0.0
  0
LINE
  5
7C
  8
0
  6
BYBLOCK
 62
     9
 10
12304.789045
 20
100920.0
 30
0.0
 11
12304.789045
 21
100940.0
 31
0.0
  0
TEXT
  5
7D
  8
0
  6
BYBLOCK
 62
    11
 10
12322.289045
 20
100772.263003
 30
0.0
 40
35.0
  1
50
 50
90.0
  0
LINE
  5
7E
  8
0
  6
BYBLOCK
 62
     9
 10
12304.789045
 20
100850.0
 30
0.0
 11
12304.789045
 21
100900.0
 31
0.0
  0
SOLID
  5
7F
  8
0
  6
BYBLOCK
 62
     9
 10
12301.455712
 20
100830.0
 30
0.0
 11
12308.122378
 21
100830.0
 31
0.0
 12
12304.789045
 22
100850.0
 32
0.0
 13
12304.789045
 23
100850.0
 33
0.0
  0
SOLID
  5
80
  8
0
  6
BYBLOCK
 62
     9
 10
12301.455712
 20
100920.0
 30
0.0
 11
12308.122378
 21
100920.0
 31
0.0
 12
12304.789045
 22
100900.0
 32
0.0
 13
12304.789045
 23
100900.0
 33
0.0
  0
POINT
  5
81
  8
DEFPOINTS
  6
BYBLOCK
 62
     0
 10
12139.983464
 20
100850.0
 30
0.0
  0
POINT
  5
82
  8
DEFPOINTS
  6
BYBLOCK
 62
     0
 10
12240.0
 20
100900.0
 30
0.0
  0
POINT
  5
83
  8
DEFPOINTS
  6
BYBLOCK
 62
     0
 10
12304.789045
 20
100900.0
 30
0.0
  0
ENDBLK
  5
85
  8
0
  0
ENDSEC
  0
SECTION
  2
ENTITIES
  0
DIMENSION
  5
20
  8
TEAM-MAS
  2
*D8
 10
411.822276
 20
0.0
 30
20.0
 11
411.822276
 21
320.0
 31
0.0
 12
-12000.0
 22
-100000.0
 32
0.0
 13
69.949874
 23
640.0
 33
0.0
 14
210.0
 24
0.0
 34
10.0
 50
90.0
1001
ACAD
1000
DSTYLE
1002
{
1070
    40
1040
1.0
1002
}
  0
DIMENSION
  5
2F
  8
TEAM-MAS
  2
*D6
 10
524.433307
 20
0.0
 30
10.0
 11
524.433307
 21
450.0
 31
0.0
 12
-12000.0
 22
-100000.0
 32
0.0
 13
0.0
 23
900.0
 33
0.0
 14
0.0
 24
0.0
 34
0.0
 50
90.0
1001
ACAD
1000
DSTYLE
1002
{
1070
    40
1040
1.0
1002
}
  0
DIMENSION
  5
3D
  8
TEAM-MAS
  2
*D5
 10
353.364064
 20
740.0
 30
10.0
 11
353.364064
 21
820.0
 31
0.0
 12
-12000.0
 22
-100000.0
 32
0.0
 13
0.0
 23
900.0
 33
0.0
 14
35.0
 24
740.0
 34
0.0
 50
90.0
1001
ACAD
1000
DSTYLE
1002
{
1070
    40
1040
1.0
1002
}
  0
DIMENSION
  5
4B
  8
TEAM-MAS
  2
*D4
 10
470.958071
 20
590.0
 30
10.0
 11
470.958071
 21
745.0
 31
-10.0
 12
-12000.0
 22
-100000.0
 32
-10.0
 13
0.0
 23
900.0
 33
0.0
 14
20.0
 24
590.0
 34
0.0
 50
90.0
1001
ACAD
1000
DSTYLE
1002
{
1070
    40
1040
1.0
1002
}
  0
DIMENSION
  5
59
  8
TEAM-MAS
  2
*D3
 10
470.958071
 20
0.0
 30
0.0
 11
470.958071
 21
295.0
 31
-10.0
 12
-12000.0
 22
-100000.0
 32
-10.0
 13
20.0
 23
590.0
 33
0.0
 14
150.0
 24
0.0
 34
10.0
 50
90.0
1001
ACAD
1000
DSTYLE
1002
{
1070
    40
1040
1.0
1002
}
  0
DIMENSION
  5
67
  8
TEAM-MAS
  2
*D2
 10
60.0
 20
474.761843
 30
10.0
 11
0.0
 21
474.761843
 31
-20.0
 12
-12000.0
 22
-100000.0
 32
-20.0
 70
   128
 13
-60.0
 23
639.783522
 33
0.0
 14
60.0
 24
640.0
 34
0.0
1001
ACAD
1000
DSTYLE
1002
{
1070
    40
1040
1.0
1002
}
  0
CIRCLE
  5
75
  8
TEAM-INSP
 10
0.0
 20
0.0
 30
0.0
 40
10.0
  0
DIMENSION
  5
77
  8
TEAM-MAS
  2
*D9
 10
304.789045
 20
900.0
 30
0.0
 11
304.789045
 21
796.776782
 31
0.0
 12
-12000.0
 22
-100000.0
 32
0.0
 70
   128
 13
139.983464
 23
850.0
 33
0.0
 14
240.0
 24
900.0
 34
0.0
 50
90.0
1001
ACAD
1000
DSTYLE
1002
{
1070
    40
1040
1.0
1002
}
  0
DIMENSION
  5
86
  8
TEAM-MAS
  2
*D7
 10
411.822276
 20
900.0
 30
0.0
 11
411.822276
 21
770.0
 31
0.0
 12
-12000.0
 22
-100000.0
 32
0.0
 13
69.949874
 23
640.0
 33
0.0
 14
0.0
 24
900.0
 34
0.0
 50
90.0
1001
ACAD
1000
DSTYLE
1002
{
1070
    40
1040
1.0
1002
}
  0
DIMENSION
  5
94
  8
TEAM-MAS
  2
*D1
 10
225.0
 20
1011.41997
 30
0.0
 11
0.0
 21
1011.41997
 31
0.0
 12
-12000.0
 22
-100000.0
 32
0.0
 13
-225.0
 23
890.0
 33
0.0
 14
225.0
 24
890.0
 34
0.0
1001
ACAD
1000
DSTYLE
1002
{
1070
    40
1040
1.0
1002
}
  0
DIMENSION
  5
A2
  8
TEAM-MAS
  2
*D0
 10
114.983464
 20
956.631183
 30
0.0
 11
-0.016536
 21
956.631183
 31
0.0
 12
-12000.0
 22
-100000.0
 32
0.0
 13
-115.016536
 23
864.0
 33
0.0
 14
114.983464
 24
864.0
 34
0.0
1001
ACAD
1000
DSTYLE
1002
{
1070
    40
1040
1.0
1002
}
  0
LINE
  5
B0
  8
TEAM-AXE
 10
60.0
 20
630.0
 30
0.0
 11
60.0
 21
650.0
 31
0.0
  0
LINE
  5
B3
  8
TEAM-AXE
 10
89.983464
 20
850.0
 30
0.0
 11
139.983464
 21
850.0
 31
0.0
  0
LINE
  5
B4
  8
TEAM-AXE
 10
114.983464
 20
864.0
 30
0.0
 11
114.983464
 21
836.0
 31
0.0
  0
POLYLINE
  5
B5
  8
TEAM-HIDE
 66
     1
 10
0.0
 20
0.0
 30
0.0
 70
     1
  0
VERTEX
  5
1B1
  8
TEAM-HIDE
 10
125.983464
 20
841.0
 30
0.0
 42
1.0
  0
VERTEX
  5
1B2
  8
TEAM-HIDE
 10
125.983464
 20
859.0
 30
0.0
  0
VERTEX
  5
1B3
  8
TEAM-HIDE
 10
103.983464
 20
859.0
 30
0.0
 42
1.0
  0
VERTEX
  5
1B4
  8
TEAM-HIDE
 10
103.983464
 20
841.0
 30
0.0
  0
SEQEND
  5
1B5
  8
TEAM-HIDE
  0
LINE
  5
B8
  8
TEAM-BODY
 10
-49.988474
 20
775.0
 30
0.0
 11
49.922329
 21
775.0
 31
0.0
  0
LINE
  5
BA
  8
TEAM-AXE
 10
0.0
 20
570.0
 30
0.0
 11
0.0
 21
610.0
 31
0.0
  0
LINE
  5
BB
  8
TEAM-AXE
 10
20.0
 20
590.0
 30
0.0
 11
-20.0
 21
590.0
 31
0.0
  0
CIRCLE
  5
BC
  8
TEAM-KAN
 10
0.0
 20
590.0
 30
0.0
 40
20.0
  0
LINE
  5
BE
  8
TEAM-AXE
 10
0.0
 20
738.977716
 30
0.0
 11
0.0
 21
900.0
 31
0.0
  0
LINE
  5
BF
  8
TEAM-AXE
 10
-60.0
 20
629.783522
 30
0.0
 11
-60.0
 21
649.783522
 31
0.0
  0
CIRCLE
  5
C0
  8
TEAM-WARM
 10
-60.0
 20
639.783522
 30
0.0
 40
10.0
  0
LINE
  5
C2
  8
TEAM-AXE
 10
-50.050126
 20
639.783522
 30
0.0
 11
-69.949874
 21
639.783522
 31
0.0
  0
LINE
  5
C3
  8
TEAM-AXE
 10
-140.016536
 20
850.0
 30
0.0
 11
-90.016536
 21
850.0
 31
0.0
  0
LINE
  5
C4
  8
TEAM-AXE
 10
-115.016536
 20
864.0
 30
0.0
 11
-115.016536
 21
836.0
 31
0.0
  0
POLYLINE
  5
C5
  8
TEAM-HIDE
 66
     1
 10
0.0
 20
0.0
 30
0.0
 70
     1
  0
VERTEX
  5
1B6
  8
TEAM-HIDE
 10
-104.016536
 20
841.0
 30
0.0
 42
1.0
  0
VERTEX
  5
1B7
  8
TEAM-HIDE
 10
-104.016536
 20
859.0
 30
0.0
  0
VERTEX
  5
1B8
  8
TEAM-HIDE
 10
-126.016536
 20
859.0
 30
0.0
 42
1.0
  0
VERTEX
  5
1B9
  8
TEAM-HIDE
 10
-126.016536
 20
841.0
 30
0.0
  0
SEQEND
  5
1BA
  8
TEAM-HIDE
  0
TEXT
  5
C6
  8
TEAM-TXT
 10
-107.19698
 20
800.274426
 30
0.0
 40
30.0
  1
team 221071
 41
0.8
 51
15.0
  7
TEAM
  0
POLYLINE
  5
C9
  8
TEAM-BODY
 66
     1
 10
0.0
 20
0.0
 30
0.0
 70
   129
  0
VERTEX
  5
1BB
  8
TEAM-BODY
 10
225.0
 20
890.0
 30
0.0
 42
0.414214
  0
VERTEX
  5
1BC
  8
TEAM-BODY
 10
215.0
 20
900.0
 30
0.0
  0
VERTEX
  5
1BD
  8
TEAM-BODY
 10
-215.0
 20
900.0
 30
0.0
 42
0.414214
  0
VERTEX
  5
1BE
  8
TEAM-BODY
 10
-225.0
 20
890.0
 30
0.0
  0
VERTEX
  5
1BF
  8
TEAM-BODY
 10
-225.0
 20
785.0
 30
0.0
 42
0.414214
  0
VERTEX
  5
1C0
  8
TEAM-BODY
 10
-215.0
 20
775.0
 30
0.0
  0
VERTEX
  5
1C1
  8
TEAM-BODY
 10
-49.971938
 20
775.0
 30
0.0
 42
-0.372902
  0
VERTEX
  5
1C2
  8
TEAM-BODY
 10
-45.023028
 20
770.712944
 30
0.0
  0
VERTEX
  5
1C3
  8
TEAM-BODY
 10
-39.87819
 20
740.0
 30
0.0
  0
VERTEX
  5
1C4
  8
TEAM-BODY
 10
39.845117
 20
740.0
 30
0.0
  0
VERTEX
  5
1C5
  8
TEAM-BODY
 10
44.989955
 20
770.712944
 30
0.0
 42
-0.372902
  0
VERTEX
  5
1C6
  8
TEAM-BODY
 10
49.938865
 20
775.0
 30
0.0
  0
VERTEX
  5
1C7
  8
TEAM-BODY
 10
214.299872
 20
775.0
 30
0.0
 42
0.394544
  0
VERTEX
  5
1C8
  8
TEAM-BODY
 10
225.0
 20
785.0
 30
0.0
  0
SEQEND
  5
1C9
  8
TEAM-BODY
  0
CIRCLE
  5
CA
  8
TEAM-COLD
 10
60.0
 20
640.0
 30
0.0
 40
10.0
  0
LINE
  5
CC
  8
TEAM-AXE
 10
69.949874
 20
640.0
 30
0.0
 11
50.050126
 21
640.0
 31
0.0
  0
ENDSEC
  0
EOF
