  0
SECTION
  2
HEADER
  9
$ACADVER
  1
AC1009
  9
$INSBASE
 10
0.0
 20
0.0
 30
0.0
  9
$EXTMIN
 10
-175.734244
 20
-327.343512
 30
-0.024519
  9
$EXTMAX
 10
354.876699
 20
57.31297
 30
10.009736
  9
$LIMMIN
 10
-10000.0
 20
-10000.0
  9
$LIMMAX
 10
50000.0
 20
50000.0
  9
$ORTHOMODE
 70
     1
  9
$REGENMODE
 70
     1
  9
$FILLMODE
 70
     1
  9
$QTEXTMODE
 70
     0
  9
$MIRRTEXT
 70
     0
  9
$DRAGMODE
 70
     2
  9
$LTSCALE
 40
50.0
  9
$OSMODE
 70
     0
  9
$ATTMODE
 70
     1
  9
$TEXTSIZE
 40
200.0
  9
$TRACEWID
 40
1.0
  9
$TEXTSTYLE
  7
STANDARD
  9
$CLAYER
  8
TEAM-MAS
  9
$CELTYPE
  6
BYLAYER
  9
$CECOLOR
 62
   256
  9
$DIMSCALE
 40
0.0
  9
$DIMASZ
 40
20.0
  9
$DIMEXO
 40
10.0
  9
$DIMDLI
 40
1.0
  9
$DIMRND
 40
0.0
  9
$DIMDLE
 40
0.0
  9
$DIMEXE
 40
1.0
  9
$DIMTP
 40
0.0
  9
$DIMTM
 40
0.0
  9
$DIMTXT
 40
35.0
  9
$DIMCEN
 40
1.0
  9
$DIMTSZ
 40
0.0
  9
$DIMTOL
 70
     0
  9
$DIMLIM
 70
     0
  9
$DIMTIH
 70
     0
  9
$DIMTOH
 70
     0
  9
$DIMSE1
 70
     0
  9
$DIMSE2
 70
     0
  9
$DIMTAD
 70
     0
  9
$DIMZIN
 70
     0
  9
$DIMBLK
  1

  9
$DIMASO
 70
     1
  9
$DIMSHO
 70
     0
  9
$DIMPOST
  1

  9
$DIMAPOST
  1

  9
$DIMALT
 70
     0
  9
$DIMALTD
 70
     2
  9
$DIMALTF
 40
25.4
  9
$DIMLFAC
 40
1.0
  9
$DIMTOFL
 70
     0
  9
$DIMTVP
 40
0.0
  9
$DIMTIX
 70
     0
  9
$DIMSOXD
 70
     0
  9
$DIMSAH
 70
     0
  9
$DIMBLK1
  1

  9
$DIMBLK2
  1

  9
$DIMSTYLE
  2
TEAM
  9
$DIMCLRD
 70
     9
  9
$DIMCLRE
 70
     9
  9
$DIMCLRT
 70
    11
  9
$DIMTFAC
 40
1.0
  9
$DIMGAP
 40
7.0
  9
$LUNITS
 70
     2
  9
$LUPREC
 70
     1
  9
$SKETCHINC
 40
1.0
  9
$FILLETRAD
 40
20.0
  9
$AUNITS
 70
     0
  9
$AUPREC
 70
     0
  9
$MENU
  1
ROPLANS
  9
$ELEVATION
 40
0.0
  9
$PELEVATION
 40
0.0
  9
$THICKNESS
 40
0.0
  9
$LIMCHECK
 70
     0
  9
$BLIPMODE
 70
     1
  9
$CHAMFERA
 40
0.0
  9
$CHAMFERB
 40
0.0
  9
$SKPOLY
 70
     0
  9
$TDCREATE
 40
2450392.957851
  9
$TDUPDATE
 40
2458000.038528
  9
$TDINDWG
 40
2.255173
  9
$TDUSRTIMER
 40
2.255173
  9
$USRTIMER
 70
     1
  9
$ANGBASE
 50
0.0
  9
$ANGDIR
 70
     0
  9
$PDMODE
 70
     0
  9
$PDSIZE
 40
0.0
  9
$PLINEWID
 40
0.0
  9
$COORDS
 70
     2
  9
$SPLFRAME
 70
     0
  9
$SPLINETYPE
 70
     6
  9
$SPLINESEGS
 70
     8
  9
$ATTDIA
 70
     0
  9
$ATTREQ
 70
     0
  9
$HANDLING
 70
     1
  9
$HANDSEED
  5
91
  9
$SURFTAB1
 70
    48
  9
$SURFTAB2
 70
    48
  9
$SURFTYPE
 70
     6
  9
$SURFU
 70
     6
  9
$SURFV
 70
     6
  9
$UCSNAME
  2

  9
$UCSORG
 10
0.0
 20
0.0
 30
0.0
  9
$UCSXDIR
 10
1.0
 20
0.0
 30
0.0
  9
$UCSYDIR
 10
0.0
 20
1.0
 30
0.0
  9
$PUCSNAME
  2

  9
$PUCSORG
 10
0.0
 20
0.0
 30
0.0
  9
$PUCSXDIR
 10
1.0
 20
0.0
 30
0.0
  9
$PUCSYDIR
 10
0.0
 20
1.0
 30
0.0
  9
$USERI1
 70
     0
  9
$USERI2
 70
     0
  9
$USERI3
 70
     0
  9
$USERI4
 70
     0
  9
$USERI5
 70
     0
  9
$USERR1
 40
0.0
  9
$USERR2
 40
0.0
  9
$USERR3
 40
0.0
  9
$USERR4
 40
0.0
  9
$USERR5
 40
0.0
  9
$WORLDVIEW
 70
     1
  9
$SHADEDGE
 70
     0
  9
$SHADEDIF
 70
    70
  9
$TILEMODE
 70
     1
  9
$MAXACTVP
 70
    16
  9
$PLIMCHECK
 70
     0
  9
$PEXTMIN
 10
-0.805942
 20
0.005011
 30
0.0
  9
$PEXTMAX
 10
20.250094
 20
11.356329
 30
0.0
  9
$PLIMMIN
 10
0.0
 20
0.0
  9
$PLIMMAX
 10
12.0
 20
9.0
  9
$UNITMODE
 70
     0
  9
$VISRETAIN
 70
     0
  9
$PLINEGEN
 70
     0
  9
$PSLTSCALE
 70
     0
  0
ENDSEC
  0
SECTION
  2
TABLES
  0
TABLE
  2
VPORT
 70
     5
  0
VPORT
  2
*ACTIVE
 70
     0
 10
0.0
 20
0.0
 11
1.0
 21
1.0
 12
89.571227
 22
-135.015271
 13
0.0
 23
0.0
 14
1.0
 24
1.0
 15
50.0
 25
50.0
 16
0.0
 26
0.0
 36
1.0
 17
0.0
 27
0.0
 37
0.0
 40
387.122229
 41
1.942246
 42
50.0
 43
0.0
 44
0.0
 50
0.0
 51
0.0
 71
     0
 72
   100
 73
     1
 74
     1
 75
     0
 76
     0
 77
     0
 78
     0
  0
ENDTAB
  0
TABLE
  2
LTYPE
 70
     1
  0
LTYPE
  2
CONTINUOUS
 70
     0
  3
Solid Line
 72
    65
 73
     0
 40
0.0
  0
ENDTAB
  0
TABLE
  2
LAYER
 70
     7
  0
LAYER
  2
0
 70
     0
 62
     7
  6
CONTINUOUS
  0
LAYER
  2
DEFPOINTS
 70
     0
 62
     7
  6
CONTINUOUS
  0
LAYER
  2
TEAM-BODY
 70
     0
 62
     2
  6
CONTINUOUS
  0
LAYER
  2
TEAM-MAS
 70
     0
 62
     9
  6
CONTINUOUS
  0
LAYER
  2
TEAM-TXT
 70
     0
 62
    11
  6
CONTINUOUS
  0
LAYER
  2
TEAM-DET1
 70
     0
 62
     4
  6
CONTINUOUS
  0
LAYER
  2
TEAM-INSP
 70
     0
 62
     5
  6
CONTINUOUS
  0
ENDTAB
  0
TABLE
  2
STYLE
 70
     2
  0
STYLE
  2
STANDARD
 70
     0
 40
0.0
 41
1.0
 50
0.0
 71
     0
 42
200.0
  3
txt
  4

  0
STYLE
  2
TEAM
 70
     0
 40
0.0
 41
0.8
 50
15.0
 71
     0
 42
7.0
  3
ROMANS.shx
  4

  0
ENDTAB
  0
TABLE
  2
VIEW
 70
     0
  0
ENDTAB
  0
TABLE
  2
UCS
 70
     0
  0
ENDTAB
  0
TABLE
  2
APPID
 70
     1
  0
APPID
  2
ACAD
 70
     0
  0
ENDTAB
  0
TABLE
  2
DIMSTYLE
 70
     1
  0
DIMSTYLE
  2
TEAM
 70
     0
  3

  4

  5

  6

  7

 40
0.0
 41
20.0
 42
10.0
 43
1.0
 44
1.0
 45
0.0
 46
0.0
 47
0.0
 48
0.0
140
35.0
141
1.0
142
0.0
143
25.4
144
1.0
145
0.0
146
1.0
147
7.0
 71
     0
 72
     0
 73
     0
 74
     0
 75
     0
 76
     0
 77
     0
 78
     0
170
     0
171
     2
172
     0
173
     0
174
     0
175
     0
176
     9
177
     9
178
    11
  0
ENDTAB
  0
ENDSEC
  0
SECTION
  2
BLOCKS
  0
BLOCK
  8
0
  2
$MODEL_SPACE
 70
     0
 10
0.0
 20
0.0
 30
0.0
  3
$MODEL_SPACE
  1

  0
ENDBLK
  5
6
  8
0
  0
BLOCK
 67
     1
  8
0
  2
$PAPER_SPACE
 70
     0
 10
0.0
 20
0.0
 30
0.0
  3
$PAPER_SPACE
  1

  0
ENDBLK
  5
9
 67
     1
  8
0
  0
BLOCK
  8
0
  2
*D0
 70
     1
 10
0.0
 20
0.0
 30
0.0
  3
*D0
  1

  0
LINE
  5
31
  8
0
  6
BYBLOCK
 62
     9
 10
4250.43
 20
4000.0
 30
0.0
 11
4328.863
 21
4000.0
 31
0.0
  0
LINE
  5
32
  8
0
  6
BYBLOCK
 62
     9
 10
4220.642656
 20
3740.002242
 30
0.0
 11
4328.863
 21
3740.002242
 31
0.0
  0
LINE
  5
33
  8
0
  6
BYBLOCK
 62
     9
 10
4327.863
 20
3980.0
 30
0.0
 11
4327.863
 21
3955.751121
 31
0.0
  0
LINE
  5
34
  8
0
  6
BYBLOCK
 62
     9
 10
4327.863
 20
3760.002242
 30
0.0
 11
4327.863
 21
3784.251121
 31
0.0
  0
SOLID
  5
35
  8
0
  6
BYBLOCK
 62
     9
 10
4324.529666
 20
3980.0
 30
0.0
 11
4331.196333
 21
3980.0
 31
0.0
 12
4327.863
 22
4000.0
 32
0.0
 13
4327.863
 23
4000.0
 33
0.0
  0
SOLID
  5
36
  8
0
  6
BYBLOCK
 62
     9
 10
4324.529666
 20
3760.002242
 30
0.0
 11
4331.196333
 21
3760.002242
 31
0.0
 12
4327.863
 22
3740.002242
 32
0.0
 13
4327.863
 23
3740.002242
 33
0.0
  0
TEXT
  8
0
  40
35
  5
8D
  62
11
  72
0
  71
0
 10
4257.86
 20
3808.05
 30
0.000000
  1
260.00
  0
POINT
  5
38
  8
DEFPOINTS
  6
BYBLOCK
 62
     0
 10
4240.43
 20
4000.0
 30
10.0
  0
POINT
  5
39
  8
DEFPOINTS
  6
BYBLOCK
 62
     0
 10
4210.642656
 20
3740.002242
 30
0.0
  0
POINT
  5
3A
  8
DEFPOINTS
  6
BYBLOCK
 62
     0
 10
4327.863
 20
3740.002242
 30
10.0
  0
ENDBLK
  5
3C
  8
0
  0
BLOCK
  8
0
  2
*D1
 70
     1
 10
0.0
 20
0.0
 30
0.0
  3
*D1
  1

  0
LINE
  5
22
  8
0
  6
BYBLOCK
 62
     9
 10
3840.64276
 20
3760.002239
 30
0.0
 11
3840.64276
 21
3695.657607
 31
0.0
  0
LINE
  5
23
  8
0
  6
BYBLOCK
 62
     9
 10
4240.642664
 20
3832.502251
 30
0.0
 11
4240.642664
 21
3695.657607
 31
0.0
  0
LINE
  5
24
  8
0
  6
BYBLOCK
 62
     9
 10
3860.64276
 20
3696.657607
 30
0.0
 11
3957.809379
 21
3696.657607
 31
0.0
  0
LINE
  5
25
  8
0
  6
BYBLOCK
 62
     9
 10
4220.642664
 20
3696.657607
 30
0.0
 11
4123.476045
 21
3696.657607
 31
0.0
  0
SOLID
  5
26
  8
0
  6
BYBLOCK
 62
     9
 10
3860.64276
 20
3699.99094
 30
0.0
 11
3860.64276
 21
3693.324273
 31
0.0
 12
3840.64276
 22
3696.657607
 32
0.0
 13
3840.64276
 23
3696.657607
 33
0.0
  0
SOLID
  5
27
  8
0
  6
BYBLOCK
 62
     9
 10
4220.642664
 20
3699.99094
 30
0.0
 11
4220.642664
 21
3693.324273
 31
0.0
 12
4240.642664
 22
3696.657607
 32
0.0
 13
4240.642664
 23
3696.657607
 33
0.0
  0
TEXT
  8
0
  40
35
  5
8E
  62
11
  72
0
  71
0
 10
3970.64
 20
3634.71
 30
0.000000
  1
400.00
  0
POINT
  5
29
  8
DEFPOINTS
  6
BYBLOCK
 62
     0
 10
3840.64276
 20
3770.002239
 30
0.0
  0
POINT
  5
2B
  8
DEFPOINTS
  6
BYBLOCK
 62
     0
 10
4240.642664
 20
3842.502251
 30
0.0
  0
POINT
  5
2C
  8
DEFPOINTS
  6
BYBLOCK
 62
     0
 10
4240.642664
 20
3696.657607
 30
10.0
  0
ENDBLK
  5
2E
  8
0
  0
BLOCK
  8
0
  2
*D2
 70
     1
 10
0.0
 20
0.0
 30
0.0
  3
*D2
  1

  0
LINE
  5
44
  8
0
  6
BYBLOCK
 62
     9
 10
3867.93
 20
3947.439006
 30
0.0
 11
3867.93
 21
4040.374873
 31
0.0
  0
LINE
  5
45
  8
0
  6
BYBLOCK
 62
     9
 10
4127.93
 20
3969.87575
 30
0.0
 11
4127.93
 21
4040.374873
 31
0.0
  0
LINE
  5
46
  8
0
  6
BYBLOCK
 62
     9
 10
3887.93
 20
4039.374873
 30
0.0
 11
3912.18
 21
4039.374873
 31
0.0
  0
LINE
  5
47
  8
0
  6
BYBLOCK
 62
     9
 10
4107.93
 20
4039.374873
 30
0.0
 11
4083.68
 21
4039.374873
 31
0.0
  0
SOLID
  5
48
  8
0
  6
BYBLOCK
 62
     9
 10
3887.93
 20
4042.708207
 30
0.0
 11
3887.93
 21
4036.04154
 31
0.0
 12
3867.93
 22
4039.374873
 32
0.0
 13
3867.93
 23
4039.374873
 33
0.0
  0
SOLID
  5
49
  8
0
  6
BYBLOCK
 62
     9
 10
4107.93
 20
4042.708207
 30
0.0
 11
4107.93
 21
4036.04154
 31
0.0
 12
4127.93
 22
4039.374873
 32
0.0
 13
4127.93
 23
4039.374873
 33
0.0
  0
TEXT
  8
0
  40
35
  5
8F
  62
11
  72
0
  71
0
 10
3927.93
 20
3977.42
 30
0.000000
  1
260.00
  0
POINT
  5
4B
  8
DEFPOINTS
  6
BYBLOCK
 62
     0
 10
3867.93
 20
3937.439006
 30
0.0
  0
POINT
  5
4C
  8
DEFPOINTS
  6
BYBLOCK
 62
     0
 10
4127.93
 20
3959.87575
 30
0.0
  0
POINT
  5
4D
  8
DEFPOINTS
  6
BYBLOCK
 62
     0
 10
4127.93
 20
4039.374873
 30
0.0
  0
ENDBLK
  5
4F
  8
0
  0
BLOCK
  8
0
  2
*D3
 70
     1
 10
0.0
 20
0.0
 30
0.0
  3
*D3
  1

  0
LINE
  5
61
  8
0
  6
BYBLOCK
 62
     9
 10
4250.43
 20
4000.0
 30
0.0
 11
4283.971748
 21
4000.0
 31
0.0
  0
LINE
  5
62
  8
0
  6
BYBLOCK
 62
     9
 10
4010.427754
 20
3895.0
 30
0.0
 11
4283.971748
 21
3895.0
 31
0.0
  0
LINE
  5
63
  8
0
  6
BYBLOCK
 62
     9
 10
4282.971748
 20
3980.0
 30
0.0
 11
4282.971748
 21
3915.0
 31
0.0
  0
TEXT
  8
0
  40
35
  5
90
  62
11
  72
0
  71
0
 10
4212.97
 20
3885.55
 30
0.000000
  1
105.00
  0
SOLID
  5
65
  8
0
  6
BYBLOCK
 62
     9
 10
4279.638415
 20
3980.0
 30
0.0
 11
4286.305082
 21
3980.0
 31
0.0
 12
4282.971748
 22
4000.0
 32
0.0
 13
4282.971748
 23
4000.0
 33
0.0
  0
SOLID
  5
66
  8
0
  6
BYBLOCK
 62
     9
 10
4279.638415
 20
3915.0
 30
0.0
 11
4286.305082
 21
3915.0
 31
0.0
 12
4282.971748
 22
3895.0
 32
0.0
 13
4282.971748
 23
3895.0
 33
0.0
  0
POINT
  5
67
  8
DEFPOINTS
  6
BYBLOCK
 62
     0
 10
4240.43
 20
4000.0
 30
0.0
  0
POINT
  5
68
  8
DEFPOINTS
  6
BYBLOCK
 62
     0
 10
4000.427754
 20
3895.0
 30
0.0
  0
POINT
  5
69
  8
DEFPOINTS
  6
BYBLOCK
 62
     0
 10
4282.971748
 20
3895.0
 30
0.0
  0
ENDBLK
  5
6B
  8
0
  0
ENDSEC
  0
SECTION
  2
ENTITIES
  0
DIMENSION
  5
20
  8
TEAM-MAS
  2
*D1
 10
240.642664
 20
-303.342393
 30
10.0
 11
40.642712
 21
-303.342393
 31
0.0
 12
-4000.0
 22
-4000.0
 32
0.0
 13
-159.35724
 23
-229.997761
 33
0.0
 14
240.642664
 24
-157.497749
 34
0.0
1001
ACAD
1000
DSTYLE
1002
{
1070
    40
1040
1.0
1002
}
  0
DIMENSION
  5
2F
  8
TEAM-MAS
  2
*D0
 10
327.863
 20
-259.997758
 30
10.0
 11
327.863
 21
-129.998879
 31
0.0
 12
-4000.0
 22
-4000.0
 32
0.0
 13
240.43
 23
0.0
 33
10.0
 14
210.642656
 24
-259.997758
 34
0.0
 50
90.0
1001
ACAD
1000
DSTYLE
1002
{
1070
    40
1040
1.0
1002
}
  0
POLYLINE
  5
3D
  8
TEAM-BODY
 66
     1
 10
0.0
 20
0.0
 30
0.0
  0
VERTEX
  5
71
  8
TEAM-BODY
 10
-159.357258
 20
-84.997738
 30
0.0
  0
VERTEX
  5
72
  8
TEAM-BODY
 10
-159.57
 20
0.0
 30
0.0
  0
VERTEX
  5
73
  8
TEAM-BODY
 10
0.0
 20
0.0
 30
0.0
  0
VERTEX
  5
74
  8
TEAM-BODY
 10
240.43
 20
0.0
 30
0.0
  0
VERTEX
  5
75
  8
TEAM-BODY
 10
240.642673
 20
-84.997738
 30
0.0
  0
SEQEND
  5
76
  8
TEAM-BODY
  0
POLYLINE
  5
3F
  8
TEAM-BODY
 66
     1
 10
0.0
 20
0.0
 30
0.0
  0
VERTEX
  5
77
  8
TEAM-BODY
 10
-132.069991
 20
-84.997738
 30
0.0
  0
VERTEX
  5
78
  8
TEAM-BODY
 10
-132.070009
 20
-40.124251
 30
0.0
 42
-0.414214
  0
VERTEX
  5
79
  8
TEAM-BODY
 10
-122.070009
 20
-30.12425
 30
0.0
  0
VERTEX
  5
7A
  8
TEAM-BODY
 10
202.930018
 20
-30.12425
 30
0.0
 42
-0.414214
  0
VERTEX
  5
7B
  8
TEAM-BODY
 10
212.930018
 20
-40.124251
 30
0.0
  0
VERTEX
  5
7C
  8
TEAM-BODY
 10
212.93
 20
-84.997738
 30
0.0
  0
SEQEND
  5
7D
  8
TEAM-BODY
  0
POLYLINE
  5
40
  8
TEAM-BODY
 66
     1
 10
0.0
 20
0.0
 30
0.0
  0
VERTEX
  5
7E
  8
TEAM-BODY
 10
240.642673
 20
-84.997738
 30
0.0
  0
VERTEX
  5
7F
  8
TEAM-BODY
 10
240.642656
 20
-229.997761
 30
0.0
 42
-0.414214
  0
VERTEX
  5
80
  8
TEAM-BODY
 10
210.642656
 20
-259.997758
 30
0.0
  0
VERTEX
  5
81
  8
TEAM-BODY
 10
-129.35724
 20
-259.997758
 30
0.0
 42
-0.414214
  0
VERTEX
  5
82
  8
TEAM-BODY
 10
-159.35724
 20
-229.997761
 30
0.0
  0
VERTEX
  5
83
  8
TEAM-BODY
 10
-159.357258
 20
-84.997738
 30
0.0
  0
SEQEND
  5
84
  8
TEAM-BODY
  0
POLYLINE
  5
41
  8
TEAM-BODY
 66
     1
 10
0.0
 20
0.0
 30
0.0
  0
VERTEX
  5
85
  8
TEAM-BODY
 10
-132.069991
 20
-84.997738
 30
0.0
  0
VERTEX
  5
86
  8
TEAM-BODY
 10
-132.069974
 20
-219.235156
 30
0.0
 42
0.414214
  0
VERTEX
  5
87
  8
TEAM-BODY
 10
-122.069974
 20
-229.235154
 30
0.0
  0
VERTEX
  5
88
  8
TEAM-BODY
 10
202.929983
 20
-229.235154
 30
0.0
 42
0.414214
  0
VERTEX
  5
89
  8
TEAM-BODY
 10
212.929983
 20
-219.235156
 30
0.0
  0
VERTEX
  5
8A
  8
TEAM-BODY
 10
212.93
 20
-84.997738
 30
0.0
  0
SEQEND
  5
8B
  8
TEAM-BODY
  0
DIMENSION
  5
42
  8
TEAM-MAS
  2
*D2
 10
127.93
 20
39.374873
 30
0.0
 11
-2.07
 21
39.374873
 31
0.0
 12
-4000.0
 22
-4000.0
 32
0.0
 13
-132.07
 23
-62.560994
 33
0.0
 14
127.93
 24
-40.12425
 34
0.0
1001
ACAD
1000
DSTYLE
1002
{
1070
    40
1040
1.0
1002
}
  0
LINE
  5
50
  8
TEAM-BODY
 10
-122.070009
 20
-30.12425
 30
0.0
 11
-159.494367
 21
-30.21792
 31
0.0
  0
ARC
  5
51
  8
TEAM-BODY
 10
0.427754
 20
-105.0
 30
0.0
 40
23.75
 50
0.0
 51
180.0
  0
ARC
  5
52
  8
TEAM-BODY
 10
0.427754
 20
-105.0
 30
0.0
 40
23.75
 50
180.0
 51
0.0
  0
CIRCLE
  5
53
  8
TEAM-DET1
 10
0.427754
 20
-105.0
 30
0.0
 40
37.5
  0
CIRCLE
  5
55
  8
TEAM-INSP
 10
0.0
 20
0.0
 30
0.0
 40
10.0
  0
TEXT
  5
57
  8
TEAM-TXT
 10
-72.509364
 20
-190.912053
 30
0.0
 40
30.0
  1
team 221078
 41
0.8
 51
15.0
  7
TEAM
  0
LINE
  5
5A
  8
TEAM-BODY
 10
202.930018
 20
-30.12425
 30
0.0
 11
240.505139
 21
-30.030233
 31
0.0
  0
LINE
  5
5B
  8
TEAM-BODY
 10
127.93
 20
-40.12425
 30
0.0
 11
127.93
 21
-219.235154
 31
0.0
  0
ARC
  5
5C
  8
TEAM-BODY
 10
117.93
 20
-219.235154
 30
0.0
 40
10.0
 50
270.0
 51
0.0
  0
ARC
  5
5D
  8
TEAM-BODY
 10
117.93
 20
-40.12425
 30
0.0
 40
10.0
 50
0.0
 51
90.0
  0
CIRCLE
  5
5E
  8
TEAM-DET1
 10
172.374321
 20
-80.195474
 30
0.0
 40
15.0
  0
DIMENSION
  5
5F
  8
TEAM-MAS
  2
*D3
 10
282.971748
 20
-105.0
 30
0.0
 11
282.971748
 21
-52.5
 31
0.0
 12
-4000.0
 22
-4000.0
 32
0.0
 70
   128
 13
240.43
 23
0.0
 33
0.0
 14
0.427754
 24
-105.0
 34
0.0
 50
90.0
1001
ACAD
1000
DSTYLE
1002
{
1070
    40
1040
1.0
1002
}
  0
ENDSEC
  0
EOF
