  0
SECTION
  2
HEADER
  9
$ACADVER
  1
AC1009
  9
$INSBASE
 10
0.0
 20
0.0
 30
0.0
  9
$EXTMIN
 10
-295.121751
 20
-22.270969
 30
-0.024519
  9
$EXTMAX
 10
593.651714
 20
1025.586693
 30
10.009736
  9
$LIMMIN
 10
-10000.0
 20
-10000.0
  9
$LIMMAX
 10
50000.0
 20
50000.0
  9
$ORTHOMODE
 70
     1
  9
$REGENMODE
 70
     1
  9
$FILLMODE
 70
     1
  9
$QTEXTMODE
 70
     0
  9
$MIRRTEXT
 70
     0
  9
$DRAGMODE
 70
     2
  9
$LTSCALE
 40
50.0
  9
$OSMODE
 70
     0
  9
$ATTMODE
 70
     1
  9
$TEXTSIZE
 40
200.0
  9
$TRACEWID
 40
1.0
  9
$TEXTSTYLE
  7
STANDARD
  9
$CLAYER
  8
TEAM-MAS
  9
$CELTYPE
  6
BYLAYER
  9
$CECOLOR
 62
   256
  9
$DIMSCALE
 40
0.0
  9
$DIMASZ
 40
20.0
  9
$DIMEXO
 40
10.0
  9
$DIMDLI
 40
1.0
  9
$DIMRND
 40
0.0
  9
$DIMDLE
 40
0.0
  9
$DIMEXE
 40
1.0
  9
$DIMTP
 40
0.0
  9
$DIMTM
 40
0.0
  9
$DIMTXT
 40
35.0
  9
$DIMCEN
 40
1.0
  9
$DIMTSZ
 40
0.0
  9
$DIMTOL
 70
     0
  9
$DIMLIM
 70
     0
  9
$DIMTIH
 70
     0
  9
$DIMTOH
 70
     0
  9
$DIMSE1
 70
     0
  9
$DIMSE2
 70
     0
  9
$DIMTAD
 70
     0
  9
$DIMZIN
 70
     0
  9
$DIMBLK
  1

  9
$DIMASO
 70
     1
  9
$DIMSHO
 70
     0
  9
$DIMPOST
  1

  9
$DIMAPOST
  1

  9
$DIMALT
 70
     0
  9
$DIMALTD
 70
     2
  9
$DIMALTF
 40
25.4
  9
$DIMLFAC
 40
1.0
  9
$DIMTOFL
 70
     0
  9
$DIMTVP
 40
0.0
  9
$DIMTIX
 70
     0
  9
$DIMSOXD
 70
     0
  9
$DIMSAH
 70
     0
  9
$DIMBLK1
  1

  9
$DIMBLK2
  1

  9
$DIMSTYLE
  2
TEAM
  9
$DIMCLRD
 70
     9
  9
$DIMCLRE
 70
     9
  9
$DIMCLRT
 70
    11
  9
$DIMTFAC
 40
1.0
  9
$DIMGAP
 40
7.0
  9
$LUNITS
 70
     2
  9
$LUPREC
 70
     1
  9
$SKETCHINC
 40
1.0
  9
$FILLETRAD
 40
20.0
  9
$AUNITS
 70
     0
  9
$AUPREC
 70
     0
  9
$MENU
  1
ROPLANS
  9
$ELEVATION
 40
0.0
  9
$PELEVATION
 40
0.0
  9
$THICKNESS
 40
0.0
  9
$LIMCHECK
 70
     0
  9
$BLIPMODE
 70
     1
  9
$CHAMFERA
 40
0.0
  9
$CHAMFERB
 40
0.0
  9
$SKPOLY
 70
     0
  9
$TDCREATE
 40
2450392.957851
  9
$TDUPDATE
 40
2458000.039503
  9
$TDINDWG
 40
2.255183
  9
$TDUSRTIMER
 40
2.255183
  9
$USRTIMER
 70
     1
  9
$ANGBASE
 50
0.0
  9
$ANGDIR
 70
     0
  9
$PDMODE
 70
     0
  9
$PDSIZE
 40
0.0
  9
$PLINEWID
 40
0.0
  9
$COORDS
 70
     2
  9
$SPLFRAME
 70
     0
  9
$SPLINETYPE
 70
     6
  9
$SPLINESEGS
 70
     8
  9
$ATTDIA
 70
     0
  9
$ATTREQ
 70
     0
  9
$HANDLING
 70
     1
  9
$HANDSEED
  5
13A
  9
$SURFTAB1
 70
    48
  9
$SURFTAB2
 70
    48
  9
$SURFTYPE
 70
     6
  9
$SURFU
 70
     6
  9
$SURFV
 70
     6
  9
$UCSNAME
  2

  9
$UCSORG
 10
0.0
 20
0.0
 30
0.0
  9
$UCSXDIR
 10
1.0
 20
0.0
 30
0.0
  9
$UCSYDIR
 10
0.0
 20
1.0
 30
0.0
  9
$PUCSNAME
  2

  9
$PUCSORG
 10
0.0
 20
0.0
 30
0.0
  9
$PUCSXDIR
 10
1.0
 20
0.0
 30
0.0
  9
$PUCSYDIR
 10
0.0
 20
1.0
 30
0.0
  9
$USERI1
 70
     0
  9
$USERI2
 70
     0
  9
$USERI3
 70
     0
  9
$USERI4
 70
     0
  9
$USERI5
 70
     0
  9
$USERR1
 40
0.0
  9
$USERR2
 40
0.0
  9
$USERR3
 40
0.0
  9
$USERR4
 40
0.0
  9
$USERR5
 40
0.0
  9
$WORLDVIEW
 70
     1
  9
$SHADEDGE
 70
     0
  9
$SHADEDIF
 70
    70
  9
$TILEMODE
 70
     1
  9
$MAXACTVP
 70
    16
  9
$PLIMCHECK
 70
     0
  9
$PEXTMIN
 10
-0.805942
 20
0.005011
 30
0.0
  9
$PEXTMAX
 10
20.250094
 20
11.356329
 30
0.0
  9
$PLIMMIN
 10
0.0
 20
0.0
  9
$PLIMMAX
 10
12.0
 20
9.0
  9
$UNITMODE
 70
     0
  9
$VISRETAIN
 70
     0
  9
$PLINEGEN
 70
     0
  9
$PSLTSCALE
 70
     0
  0
ENDSEC
  0
SECTION
  2
TABLES
  0
TABLE
  2
VPORT
 70
     5
  0
VPORT
  2
*ACTIVE
 70
     0
 10
0.0
 20
0.0
 11
1.0
 21
1.0
 12
149.264981
 22
501.657862
 13
0.0
 23
0.0
 14
1.0
 24
1.0
 15
50.0
 25
50.0
 16
0.0
 26
0.0
 36
1.0
 17
0.0
 27
0.0
 37
0.0
 40
1054.574698
 41
1.942246
 42
50.0
 43
0.0
 44
0.0
 50
0.0
 51
0.0
 71
     0
 72
   100
 73
     1
 74
     1
 75
     0
 76
     0
 77
     0
 78
     0
  0
ENDTAB
  0
TABLE
  2
LTYPE
 70
     2
  0
LTYPE
  2
CONTINUOUS
 70
     0
  3
Solid Line
 72
    65
 73
     0
 40
0.0
  0
LTYPE
  2
22
 70
     0
  3

 72
    65
 73
     2
 40
1.4
 49
1.2
 49
-0.2
  0
ENDTAB
  0
TABLE
  2
LAYER
 70
    10
  0
LAYER
  2
0
 70
     0
 62
     7
  6
CONTINUOUS
  0
LAYER
  2
DEFPOINTS
 70
     0
 62
     7
  6
CONTINUOUS
  0
LAYER
  2
TEAM-BODY
 70
     0
 62
     2
  6
CONTINUOUS
  0
LAYER
  2
TEAM-MAS
 70
     0
 62
     9
  6
CONTINUOUS
  0
LAYER
  2
TEAM-TXT
 70
     0
 62
    11
  6
CONTINUOUS
  0
LAYER
  2
TEAM-COLD
 70
     0
 62
     3
  6
CONTINUOUS
  0
LAYER
  2
TEAM-HIDE
 70
     0
 62
     8
  6
22
  0
LAYER
  2
TEAM-KAN
 70
     0
 62
     6
  6
CONTINUOUS
  0
LAYER
  2
TEAM-WARM
 70
     0
 62
     1
  6
CONTINUOUS
  0
LAYER
  2
TEAM-INSP
 70
     0
 62
     5
  6
CONTINUOUS
  0
ENDTAB
  0
TABLE
  2
STYLE
 70
     2
  0
STYLE
  2
STANDARD
 70
     0
 40
0.0
 41
1.0
 50
0.0
 71
     0
 42
200.0
  3
txt
  4

  0
STYLE
  2
TEAM
 70
     0
 40
0.0
 41
0.8
 50
15.0
 71
     0
 42
7.0
  3
ROMANS.shx
  4

  0
ENDTAB
  0
TABLE
  2
VIEW
 70
     0
  0
ENDTAB
  0
TABLE
  2
UCS
 70
     0
  0
ENDTAB
  0
TABLE
  2
APPID
 70
     1
  0
APPID
  2
ACAD
 70
     0
  0
ENDTAB
  0
TABLE
  2
DIMSTYLE
 70
     1
  0
DIMSTYLE
  2
TEAM
 70
     0
  3

  4

  5

  6

  7

 40
0.0
 41
20.0
 42
10.0
 43
1.0
 44
1.0
 45
0.0
 46
0.0
 47
0.0
 48
0.0
140
35.0
141
1.0
142
0.0
143
25.4
144
1.0
145
0.0
146
1.0
147
7.0
 71
     0
 72
     0
 73
     0
 74
     0
 75
     0
 76
     0
 77
     0
 78
     0
170
     0
171
     2
172
     0
173
     0
174
     0
175
     0
176
     9
177
     9
178
    11
  0
ENDTAB
  0
ENDSEC
  0
SECTION
  2
BLOCKS
  0
BLOCK
  8
0
  2
$MODEL_SPACE
 70
     0
 10
0.0
 20
0.0
 30
0.0
  3
$MODEL_SPACE
  1

  0
ENDBLK
  5
6
  8
0
  0
BLOCK
 67
     1
  8
0
  2
$PAPER_SPACE
 70
     0
 10
0.0
 20
0.0
 30
0.0
  3
$PAPER_SPACE
  1

  0
ENDBLK
  5
9
 67
     1
  8
0
  0
BLOCK
  8
0
  2
*D0
 70
     1
 10
0.0
 20
0.0
 30
0.0
  3
*D0
  1

  0
LINE
  5
75
  8
0
  6
BYBLOCK
 62
     9
 10
7840.642742
 20
4879.997355
 30
0.0
 11
7840.642742
 21
4969.995852
 31
0.0
  0
LINE
  5
76
  8
0
  6
BYBLOCK
 62
     9
 10
8240.642611
 20
4879.997355
 30
0.0
 11
8240.642611
 21
4969.995852
 31
0.0
  0
LINE
  5
77
  8
0
  6
BYBLOCK
 62
     9
 10
7860.642742
 20
4968.995852
 30
0.0
 11
7957.809343
 21
4968.995852
 31
0.0
  0
LINE
  5
78
  8
0
  6
BYBLOCK
 62
     9
 10
8220.642611
 20
4968.995852
 30
0.0
 11
8123.47601
 21
4968.995852
 31
0.0
  0
SOLID
  5
79
  8
0
  6
BYBLOCK
 62
     9
 10
7860.642742
 20
4972.329186
 30
0.0
 11
7860.642742
 21
4965.662519
 31
0.0
 12
7840.642742
 22
4968.995852
 32
0.0
 13
7840.642742
 23
4968.995852
 33
0.0
  0
SOLID
  5
7A
  8
0
  6
BYBLOCK
 62
     9
 10
8220.642611
 20
4972.329186
 30
0.0
 11
8220.642611
 21
4965.662519
 31
0.0
 12
8240.642611
 22
4968.995852
 32
0.0
 13
8240.642611
 23
4968.995852
 33
0.0
  0
TEXT
  8
0
  40
35
  5
12C
  62
11
  72
0
  71
0
 10
7970.64
 20
4907.05
 30
0.000000
  1
400.00
  0
POINT
  5
7C
  8
DEFPOINTS
  6
BYBLOCK
 62
     0
 10
7840.642742
 20
4869.997355
 30
0.0
  0
POINT
  5
7D
  8
DEFPOINTS
  6
BYBLOCK
 62
     0
 10
8240.642611
 20
4869.997355
 30
0.0
  0
POINT
  5
7E
  8
DEFPOINTS
  6
BYBLOCK
 62
     0
 10
8240.642611
 20
4968.995852
 30
10.0
  0
ENDBLK
  5
80
  8
0
  0
BLOCK
  8
0
  2
*D1
 70
     1
 10
0.0
 20
0.0
 30
0.0
  3
*D1
  1

  0
LINE
  5
3E
  8
0
  6
BYBLOCK
 62
     9
 10
8000.0
 20
4694.997335
 30
0.0
 11
8000.0
 21
4918.67806
 31
0.0
  0
LINE
  5
3F
  8
0
  6
BYBLOCK
 62
     9
 10
8175.0
 20
4810.0
 30
0.0
 11
8175.0
 21
4918.67806
 31
0.0
  0
LINE
  5
40
  8
0
  6
BYBLOCK
 62
     9
 10
7980.0
 20
4917.67806
 30
0.0
 11
7960.0
 21
4917.67806
 31
0.0
  0
LINE
  5
41
  8
0
  6
BYBLOCK
 62
     9
 10
8195.0
 20
4917.67806
 30
0.0
 11
8215.0
 21
4917.67806
 31
0.0
  0
SOLID
  5
42
  8
0
  6
BYBLOCK
 62
     9
 10
7980.0
 20
4921.011393
 30
0.0
 11
7980.0
 21
4914.344726
 31
0.0
 12
8000.0
 22
4917.67806
 32
0.0
 13
8000.0
 23
4917.67806
 33
0.0
  0
SOLID
  5
43
  8
0
  6
BYBLOCK
 62
     9
 10
8195.0
 20
4921.011393
 30
0.0
 11
8195.0
 21
4914.344726
 31
0.0
 12
8175.0
 22
4917.67806
 32
0.0
 13
8175.0
 23
4917.67806
 33
0.0
  0
TEXT
  8
0
  40
35
  5
12D
  62
11
  72
0
  71
0
 10
8017.50
 20
4855.73
 30
0.000000
  1
175.00
  0
POINT
  5
45
  8
DEFPOINTS
  6
BYBLOCK
 62
     0
 10
8000.0
 20
4684.997335
 30
0.0
  0
POINT
  5
46
  8
DEFPOINTS
  6
BYBLOCK
 62
     0
 10
8175.0
 20
4800.0
 30
0.0
  0
POINT
  5
47
  8
DEFPOINTS
  6
BYBLOCK
 62
     0
 10
8175.0
 20
4917.67806
 30
10.0
  0
ENDBLK
  5
49
  8
0
  0
BLOCK
  8
0
  2
*D2
 70
     1
 10
0.0
 20
0.0
 30
0.0
  3
*D2
  1

  0
LINE
  5
68
  8
0
  6
BYBLOCK
 62
     9
 10
8230.0
 20
4604.997355
 30
0.0
 11
8230.0
 21
4453.342996
 31
0.0
  0
LINE
  5
69
  8
0
  6
BYBLOCK
 62
     9
 10
8150.0
 20
4604.997355
 30
0.0
 11
8150.0
 21
4453.342996
 31
0.0
  0
LINE
  5
6A
  8
0
  6
BYBLOCK
 62
     9
 10
8210.0
 20
4454.342996
 30
0.0
 11
8170.0
 21
4454.342996
 31
0.0
  0
TEXT
  8
0
  40
35
  5
12E
  62
11
  72
0
  71
0
 10
8196.24
 20
4392.39
 30
0.000000
  1
80.00
  0
SOLID
  5
6C
  8
0
  6
BYBLOCK
 62
     9
 10
8210.0
 20
4457.67633
 30
0.0
 11
8210.0
 21
4451.009663
 31
0.0
 12
8230.0
 22
4454.342996
 32
0.0
 13
8230.0
 23
4454.342996
 33
0.0
  0
SOLID
  5
6D
  8
0
  6
BYBLOCK
 62
     9
 10
8170.0
 20
4457.67633
 30
0.0
 11
8170.0
 21
4451.009663
 31
0.0
 12
8150.0
 22
4454.342996
 32
0.0
 13
8150.0
 23
4454.342996
 33
0.0
  0
POINT
  5
6E
  8
DEFPOINTS
  6
BYBLOCK
 62
     0
 10
8230.0
 20
4614.997355
 30
0.0
  0
POINT
  5
6F
  8
DEFPOINTS
  6
BYBLOCK
 62
     0
 10
8150.0
 20
4614.997355
 30
0.0
  0
POINT
  5
70
  8
DEFPOINTS
  6
BYBLOCK
 62
     0
 10
8150.0
 20
4454.342996
 30
10.0
  0
ENDBLK
  5
72
  8
0
  0
BLOCK
  8
0
  2
*D3
 70
     1
 10
0.0
 20
0.0
 30
0.0
  3
*D3
  1

  0
LINE
  5
31
  8
0
  6
BYBLOCK
 62
     9
 10
8250.642611
 20
4849.997355
 30
0.0
 11
8367.337638
 21
4849.997355
 31
0.0
  0
LINE
  5
32
  8
0
  6
BYBLOCK
 62
     9
 10
8019.576367
 20
4684.997335
 30
0.0
 11
8367.337638
 21
4684.997335
 31
0.0
  0
LINE
  5
33
  8
0
  6
BYBLOCK
 62
     9
 10
8366.337638
 20
4829.997355
 30
0.0
 11
8366.337638
 21
4704.997335
 31
0.0
  0
TEXT
  8
0
  40
35
  5
12F
  62
11
  72
0
  71
0
 10
8296.34
 20
4705.55
 30
0.000000
  1
165.00
  0
SOLID
  5
35
  8
0
  6
BYBLOCK
 62
     9
 10
8363.004305
 20
4829.997355
 30
0.0
 11
8369.670971
 21
4829.997355
 31
0.0
 12
8366.337638
 22
4849.997355
 32
0.0
 13
8366.337638
 23
4849.997355
 33
0.0
  0
SOLID
  5
36
  8
0
  6
BYBLOCK
 62
     9
 10
8363.004305
 20
4704.997335
 30
0.0
 11
8369.670971
 21
4704.997335
 31
0.0
 12
8366.337638
 22
4684.997335
 32
0.0
 13
8366.337638
 23
4684.997335
 33
0.0
  0
POINT
  5
37
  8
DEFPOINTS
  6
BYBLOCK
 62
     0
 10
8240.642611
 20
4849.997355
 30
0.0
  0
POINT
  5
38
  8
DEFPOINTS
  6
BYBLOCK
 62
     0
 10
8009.576367
 20
4684.997335
 30
0.0
  0
POINT
  5
39
  8
DEFPOINTS
  6
BYBLOCK
 62
     0
 10
8366.337638
 20
4684.997335
 30
10.0
  0
ENDBLK
  5
3B
  8
0
  0
BLOCK
  8
0
  2
*D4
 70
     1
 10
0.0
 20
0.0
 30
0.0
  3
*D4
  1

  0
LINE
  5
4C
  8
0
  6
BYBLOCK
 62
     9
 10
8010.0
 20
4564.997355
 30
0.0
 11
8432.105816
 21
4564.997355
 31
0.0
  0
LINE
  5
4D
  8
0
  6
BYBLOCK
 62
     9
 10
8010.0
 20
4000.0
 30
0.0
 11
8432.105816
 21
4000.0
 31
0.0
  0
LINE
  5
4E
  8
0
  6
BYBLOCK
 62
     9
 10
8431.105816
 20
4544.997355
 30
0.0
 11
8431.105816
 21
4371.165344
 31
0.0
  0
LINE
  5
4F
  8
0
  6
BYBLOCK
 62
     9
 10
8431.105816
 20
4020.0
 30
0.0
 11
8431.105816
 21
4193.832011
 31
0.0
  0
SOLID
  5
50
  8
0
  6
BYBLOCK
 62
     9
 10
8427.772483
 20
4544.997355
 30
0.0
 11
8434.439149
 21
4544.997355
 31
0.0
 12
8431.105816
 22
4564.997355
 32
0.0
 13
8431.105816
 23
4564.997355
 33
0.0
  0
SOLID
  5
51
  8
0
  6
BYBLOCK
 62
     9
 10
8427.772483
 20
4020.0
 30
0.0
 11
8434.439149
 21
4020.0
 31
0.0
 12
8431.105816
 22
4000.0
 32
0.0
 13
8431.105816
 23
4000.0
 33
0.0
  0
TEXT
  8
0
  40
35
  5
130
  62
11
  72
0
  71
0
 10
8361.11
 20
4220.55
 30
0.000000
  1
565.00
  0
POINT
  5
53
  8
DEFPOINTS
  6
BYBLOCK
 62
     0
 10
8000.0
 20
4564.997355
 30
0.0
  0
POINT
  5
54
  8
DEFPOINTS
  6
BYBLOCK
 62
     0
 10
8000.0
 20
4000.0
 30
10.0
  0
POINT
  5
55
  8
DEFPOINTS
  6
BYBLOCK
 62
     0
 10
8431.105816
 20
4000.0
 30
10.0
  0
ENDBLK
  5
57
  8
0
  0
BLOCK
  8
0
  2
*D5
 70
     1
 10
0.0
 20
0.0
 30
0.0
  3
*D5
  1

  0
LINE
  5
22
  8
0
  6
BYBLOCK
 62
     9
 10
8283.521575
 20
4000.0
 30
0.0
 11
8565.08238
 21
4000.0
 31
0.0
  0
LINE
  5
23
  8
0
  6
BYBLOCK
 62
     9
 10
8250.642611
 20
4849.997355
 30
0.0
 11
8565.08238
 21
4849.997355
 31
0.0
  0
LINE
  5
24
  8
0
  6
BYBLOCK
 62
     9
 10
8564.08238
 20
4020.0
 30
0.0
 11
8564.08238
 21
4339.248678
 31
0.0
  0
LINE
  5
25
  8
0
  6
BYBLOCK
 62
     9
 10
8564.08238
 20
4829.997355
 30
0.0
 11
8564.08238
 21
4510.748678
 31
0.0
  0
SOLID
  5
26
  8
0
  6
BYBLOCK
 62
     9
 10
8560.749046
 20
4020.0
 30
0.0
 11
8567.415713
 21
4020.0
 31
0.0
 12
8564.08238
 22
4000.0
 32
0.0
 13
8564.08238
 23
4000.0
 33
0.0
  0
SOLID
  5
27
  8
0
  6
BYBLOCK
 62
     9
 10
8560.749046
 20
4829.997355
 30
0.0
 11
8567.415713
 21
4829.997355
 31
0.0
 12
8564.08238
 22
4849.997355
 32
0.0
 13
8564.08238
 23
4849.997355
 33
0.0
  0
TEXT
  8
0
  40
35
  5
131
  62
11
  72
0
  71
0
 10
8494.08
 20
4363.05
 30
0.000000
  1
850.00
  0
POINT
  5
29
  8
DEFPOINTS
  6
BYBLOCK
 62
     0
 10
8273.521575
 20
4000.0
 30
10.0
  0
POINT
  5
2B
  8
DEFPOINTS
  6
BYBLOCK
 62
     0
 10
8240.642611
 20
4849.997355
 30
0.0
  0
POINT
  5
2C
  8
DEFPOINTS
  6
BYBLOCK
 62
     0
 10
8564.08238
 20
4849.997355
 30
10.0
  0
ENDBLK
  5
2E
  8
0
  0
BLOCK
  8
0
  2
*D6
 70
     1
 10
0.0
 20
0.0
 30
0.0
  3
*D6
  1

  0
LINE
  5
5A
  8
0
  6
BYBLOCK
 62
     9
 10
8010.0
 20
4000.0
 30
0.0
 11
8497.105816
 21
4000.0
 31
0.0
  0
LINE
  5
5B
  8
0
  6
BYBLOCK
 62
     9
 10
8240.0
 20
4614.997355
 30
0.0
 11
8497.105816
 21
4614.997355
 31
0.0
  0
LINE
  5
5C
  8
0
  6
BYBLOCK
 62
     9
 10
8496.105816
 20
4020.0
 30
0.0
 11
8496.105816
 21
4224.665344
 31
0.0
  0
LINE
  5
5D
  8
0
  6
BYBLOCK
 62
     9
 10
8496.105816
 20
4594.997355
 30
0.0
 11
8496.105816
 21
4390.332011
 31
0.0
  0
SOLID
  5
5E
  8
0
  6
BYBLOCK
 62
     9
 10
8492.772483
 20
4020.0
 30
0.0
 11
8499.439149
 21
4020.0
 31
0.0
 12
8496.105816
 22
4000.0
 32
0.0
 13
8496.105816
 23
4000.0
 33
0.0
  0
SOLID
  5
5F
  8
0
  6
BYBLOCK
 62
     9
 10
8492.772483
 20
4594.997355
 30
0.0
 11
8499.439149
 21
4594.997355
 31
0.0
 12
8496.105816
 22
4614.997355
 32
0.0
 13
8496.105816
 23
4614.997355
 33
0.0
  0
TEXT
  8
0
  40
35
  5
132
  62
11
  72
0
  71
0
 10
8426.11
 20
4245.55
 30
0.000000
  1
615.00
  0
POINT
  5
61
  8
DEFPOINTS
  6
BYBLOCK
 62
     0
 10
8000.0
 20
4000.0
 30
10.0
  0
POINT
  5
62
  8
DEFPOINTS
  6
BYBLOCK
 62
     0
 10
8230.0
 20
4614.997355
 30
0.0
  0
POINT
  5
63
  8
DEFPOINTS
  6
BYBLOCK
 62
     0
 10
8496.105816
 20
4614.997355
 30
10.0
  0
ENDBLK
  5
65
  8
0
  0
BLOCK
  8
0
  2
*D7
 70
     1
 10
0.0
 20
0.0
 30
0.0
  3
*D7
  1

  0
LINE
  5
83
  8
0
  6
BYBLOCK
 62
     9
 10
8010.0
 20
4564.997355
 30
0.0
 11
8432.105816
 21
4564.997355
 31
0.0
  0
LINE
  5
84
  8
0
  6
BYBLOCK
 62
     9
 10
8250.642611
 20
4849.997355
 30
0.0
 11
8432.105816
 21
4849.997355
 31
0.0
  0
LINE
  5
85
  8
0
  6
BYBLOCK
 62
     9
 10
8431.105816
 20
4584.997355
 30
0.0
 11
8431.105816
 21
4618.830689
 31
0.0
  0
LINE
  5
86
  8
0
  6
BYBLOCK
 62
     9
 10
8431.105816
 20
4829.997355
 30
0.0
 11
8431.105816
 21
4796.164022
 31
0.0
  0
SOLID
  5
87
  8
0
  6
BYBLOCK
 62
     9
 10
8427.772483
 20
4584.997355
 30
0.0
 11
8434.439149
 21
4584.997355
 31
0.0
 12
8431.105816
 22
4564.997355
 32
0.0
 13
8431.105816
 23
4564.997355
 33
0.0
  0
SOLID
  5
88
  8
0
  6
BYBLOCK
 62
     9
 10
8427.772483
 20
4829.997355
 30
0.0
 11
8434.439149
 21
4829.997355
 31
0.0
 12
8431.105816
 22
4849.997355
 32
0.0
 13
8431.105816
 23
4849.997355
 33
0.0
  0
TEXT
  8
0
  40
35
  5
133
  62
11
  72
0
  71
0
 10
8361.11
 20
4645.55
 30
0.000000
  1
285.00
  0
POINT
  5
8A
  8
DEFPOINTS
  6
BYBLOCK
 62
     0
 10
8000.0
 20
4564.997355
 30
0.0
  0
POINT
  5
8B
  8
DEFPOINTS
  6
BYBLOCK
 62
     0
 10
8240.642611
 20
4849.997355
 30
0.0
  0
POINT
  5
8C
  8
DEFPOINTS
  6
BYBLOCK
 62
     0
 10
8431.105816
 20
4849.997355
 30
0.0
  0
ENDBLK
  5
8E
  8
0
  0
BLOCK
  8
0
  2
*D8
 70
     1
 10
0.0
 20
0.0
 30
0.0
  3
*D8
  1

  0
LINE
  5
91
  8
0
  6
BYBLOCK
 62
     9
 10
8240.0
 20
4614.997355
 30
0.0
 11
8497.105816
 21
4614.997355
 31
0.0
  0
LINE
  5
92
  8
0
  6
BYBLOCK
 62
     9
 10
8250.642611
 20
4849.997355
 30
0.0
 11
8497.105816
 21
4849.997355
 31
0.0
  0
LINE
  5
93
  8
0
  6
BYBLOCK
 62
     9
 10
8496.105816
 20
4634.997355
 30
0.0
 11
8496.105816
 21
4643.830689
 31
0.0
  0
LINE
  5
94
  8
0
  6
BYBLOCK
 62
     9
 10
8496.105816
 20
4829.997355
 30
0.0
 11
8496.105816
 21
4821.164022
 31
0.0
  0
SOLID
  5
95
  8
0
  6
BYBLOCK
 62
     9
 10
8492.772483
 20
4634.997355
 30
0.0
 11
8499.439149
 21
4634.997355
 31
0.0
 12
8496.105816
 22
4614.997355
 32
0.0
 13
8496.105816
 23
4614.997355
 33
0.0
  0
SOLID
  5
96
  8
0
  6
BYBLOCK
 62
     9
 10
8492.772483
 20
4829.997355
 30
0.0
 11
8499.439149
 21
4829.997355
 31
0.0
 12
8496.105816
 22
4849.997355
 32
0.0
 13
8496.105816
 23
4849.997355
 33
0.0
  0
TEXT
  8
0
  40
35
  5
134
  62
11
  72
0
  71
0
 10
8426.11
 20
4670.55
 30
0.000000
  1
235.00
  0
POINT
  5
98
  8
DEFPOINTS
  6
BYBLOCK
 62
     0
 10
8230.0
 20
4614.997355
 30
0.0
  0
POINT
  5
99
  8
DEFPOINTS
  6
BYBLOCK
 62
     0
 10
8240.642611
 20
4849.997355
 30
0.0
  0
POINT
  5
9A
  8
DEFPOINTS
  6
BYBLOCK
 62
     0
 10
8496.105816
 20
4849.997355
 30
0.0
  0
ENDBLK
  5
9C
  8
0
  0
BLOCK
  8
0
  2
*D9
 70
     1
 10
0.0
 20
0.0
 30
0.0
  3
*D9
  1

  0
LINE
  5
C5
  8
0
  6
BYBLOCK
 62
     9
 10
8000.0
 20
4694.997335
 30
0.0
 11
8000.0
 21
4918.67806
 31
0.0
  0
LINE
  5
C6
  8
0
  6
BYBLOCK
 62
     9
 10
7930.0
 20
4790.0
 30
0.0
 11
7930.0
 21
4918.67806
 31
0.0
  0
LINE
  5
C7
  8
0
  6
BYBLOCK
 62
     9
 10
7980.0
 20
4917.67806
 30
0.0
 11
7950.0
 21
4917.67806
 31
0.0
  0
TEXT
  8
0
  40
35
  5
135
  62
11
  72
0
  71
0
 10
7830.51
 20
4856.73
 30
0.000000
  1
70.00
  0
SOLID
  5
C9
  8
0
  6
BYBLOCK
 62
     9
 10
7980.0
 20
4921.011393
 30
0.0
 11
7980.0
 21
4914.344726
 31
0.0
 12
8000.0
 22
4917.67806
 32
0.0
 13
8000.0
 23
4917.67806
 33
0.0
  0
SOLID
  5
CA
  8
0
  6
BYBLOCK
 62
     9
 10
7950.0
 20
4921.011393
 30
0.0
 11
7950.0
 21
4914.344726
 31
0.0
 12
7930.0
 22
4917.67806
 32
0.0
 13
7930.0
 23
4917.67806
 33
0.0
  0
POINT
  5
CB
  8
DEFPOINTS
  6
BYBLOCK
 62
     0
 10
8000.0
 20
4684.997335
 30
0.0
  0
POINT
  5
CC
  8
DEFPOINTS
  6
BYBLOCK
 62
     0
 10
7930.0
 20
4780.0
 30
0.0
  0
POINT
  5
CD
  8
DEFPOINTS
  6
BYBLOCK
 62
     0
 10
7930.0
 20
4917.67806
 30
0.0
  0
ENDBLK
  5
CF
  8
0
  0
BLOCK
  8
0
  2
*D10
 70
     1
 10
0.0
 20
0.0
 30
0.0
  3
*D10
  1

  0
LINE
  5
9F
  8
0
  6
BYBLOCK
 62
     9
 10
8250.642611
 20
4849.997355
 30
0.0
 11
8295.075363
 21
4849.997355
 31
0.0
  0
LINE
  5
A0
  8
0
  6
BYBLOCK
 62
     9
 10
8185.0
 20
4800.0
 30
0.0
 11
8295.075363
 21
4800.0
 31
0.0
  0
LINE
  5
A1
  8
0
  6
BYBLOCK
 62
     9
 10
8294.075363
 20
4869.997355
 30
0.0
 11
8294.075363
 21
4889.997355
 31
0.0
  0
LINE
  5
A2
  8
0
  6
BYBLOCK
 62
     9
 10
8294.075363
 20
4780.0
 30
0.0
 11
8294.075363
 21
4760.0
 31
0.0
  0
TEXT
  8
0
  40
35
  5
136
  62
11
  72
0
  71
0
 10
8224.08
 20
4693.05
 30
0.000000
  1
50.00
  0
LINE
  5
A4
  8
0
  6
BYBLOCK
 62
     9
 10
8294.075363
 20
4849.997355
 30
0.0
 11
8294.075363
 21
4800.0
 31
0.0
  0
SOLID
  5
A5
  8
0
  6
BYBLOCK
 62
     9
 10
8290.742029
 20
4869.997355
 30
0.0
 11
8297.408696
 21
4869.997355
 31
0.0
 12
8294.075363
 22
4849.997355
 32
0.0
 13
8294.075363
 23
4849.997355
 33
0.0
  0
SOLID
  5
A6
  8
0
  6
BYBLOCK
 62
     9
 10
8290.742029
 20
4780.0
 30
0.0
 11
8297.408696
 21
4780.0
 31
0.0
 12
8294.075363
 22
4800.0
 32
0.0
 13
8294.075363
 23
4800.0
 33
0.0
  0
POINT
  5
A7
  8
DEFPOINTS
  6
BYBLOCK
 62
     0
 10
8240.642611
 20
4849.997355
 30
0.0
  0
POINT
  5
A8
  8
DEFPOINTS
  6
BYBLOCK
 62
     0
 10
8175.0
 20
4800.0
 30
0.0
  0
POINT
  5
A9
  8
DEFPOINTS
  6
BYBLOCK
 62
     0
 10
8294.075363
 20
4800.0
 30
0.0
  0
ENDBLK
  5
AB
  8
0
  0
BLOCK
  8
0
  2
*D11
 70
     1
 10
0.0
 20
0.0
 30
0.0
  3
*D11
  1

  0
LINE
  5
B8
  8
0
  6
BYBLOCK
 62
     9
 10
7830.642742
 20
4849.997355
 30
0.0
 11
7753.137667
 21
4849.997355
 31
0.0
  0
LINE
  5
B9
  8
0
  6
BYBLOCK
 62
     9
 10
7920.0
 20
4780.0
 30
0.0
 11
7753.137667
 21
4780.0
 31
0.0
  0
LINE
  5
BA
  8
0
  6
BYBLOCK
 62
     9
 10
7754.137667
 20
4829.997355
 30
0.0
 11
7754.137667
 21
4800.0
 31
0.0
  0
TEXT
  8
0
  40
35
  5
137
  62
11
  72
0
  71
0
 10
7655.14
 20
4753.05
 30
0.000000
  1
70.00
  0
SOLID
  5
BC
  8
0
  6
BYBLOCK
 62
     9
 10
7750.804334
 20
4829.997355
 30
0.0
 11
7757.471001
 21
4829.997355
 31
0.0
 12
7754.137667
 22
4849.997355
 32
0.0
 13
7754.137667
 23
4849.997355
 33
0.0
  0
SOLID
  5
BD
  8
0
  6
BYBLOCK
 62
     9
 10
7750.804334
 20
4800.0
 30
0.0
 11
7757.471001
 21
4800.0
 31
0.0
 12
7754.137667
 22
4780.0
 32
0.0
 13
7754.137667
 23
4780.0
 33
0.0
  0
POINT
  5
BE
  8
DEFPOINTS
  6
BYBLOCK
 62
     0
 10
7840.642742
 20
4849.997355
 30
0.0
  0
POINT
  5
BF
  8
DEFPOINTS
  6
BYBLOCK
 62
     0
 10
7930.0
 20
4780.0
 30
0.0
  0
POINT
  5
C0
  8
DEFPOINTS
  6
BYBLOCK
 62
     0
 10
7754.137667
 20
4780.0
 30
0.0
  0
ENDBLK
  5
C2
  8
0
  0
BLOCK
  8
0
  2
*D12
 70
     1
 10
0.0
 20
0.0
 30
0.0
  3
*D12
  1

  0
LINE
  5
E1
  8
0
  6
BYBLOCK
 62
     9
 10
8150.0
 20
4604.997355
 30
0.0
 11
8150.0
 21
4453.342996
 31
0.0
  0
LINE
  5
E2
  8
0
  6
BYBLOCK
 62
     9
 10
8000.0
 20
4554.997355
 30
0.0
 11
8000.0
 21
4453.342996
 31
0.0
  0
LINE
  5
E3
  8
0
  6
BYBLOCK
 62
     9
 10
8130.0
 20
4454.342996
 30
0.0
 11
8020.0
 21
4454.342996
 31
0.0
  0
TEXT
  8
0
  40
35
  5
138
  62
11
  72
0
  71
0
 10
8005.00
 20
4392.39
 30
0.000000
  1
150.00
  0
SOLID
  5
E5
  8
0
  6
BYBLOCK
 62
     9
 10
8130.0
 20
4457.67633
 30
0.0
 11
8130.0
 21
4451.009663
 31
0.0
 12
8150.0
 22
4454.342996
 32
0.0
 13
8150.0
 23
4454.342996
 33
0.0
  0
SOLID
  5
E6
  8
0
  6
BYBLOCK
 62
     9
 10
8020.0
 20
4457.67633
 30
0.0
 11
8020.0
 21
4451.009663
 31
0.0
 12
8000.0
 22
4454.342996
 32
0.0
 13
8000.0
 23
4454.342996
 33
0.0
  0
POINT
  5
E7
  8
DEFPOINTS
  6
BYBLOCK
 62
     0
 10
8150.0
 20
4614.997355
 30
0.0
  0
POINT
  5
E8
  8
DEFPOINTS
  6
BYBLOCK
 62
     0
 10
8000.0
 20
4564.997355
 30
0.0
  0
POINT
  5
E9
  8
DEFPOINTS
  6
BYBLOCK
 62
     0
 10
8000.0
 20
4454.342996
 30
0.0
  0
ENDBLK
  5
EB
  8
0
  0
BLOCK
  8
0
  2
*D13
 70
     1
 10
0.0
 20
0.0
 30
0.0
  3
*D13
  1

  0
LINE
  5
FF
  8
0
  6
BYBLOCK
 62
     9
 10
7835.642742
 20
4874.997355
 30
0.0
 11
7753.137667
 21
4874.997355
 31
0.0
  0
LINE
  5
100
  8
0
  6
BYBLOCK
 62
     9
 10
7830.642742
 20
4849.997355
 30
0.0
 11
7753.137667
 21
4849.997355
 31
0.0
  0
LINE
  5
101
  8
0
  6
BYBLOCK
 62
     9
 10
7754.137667
 20
4894.997355
 30
0.0
 11
7754.137667
 21
4914.997355
 31
0.0
  0
LINE
  5
102
  8
0
  6
BYBLOCK
 62
     9
 10
7754.137667
 20
4829.997355
 30
0.0
 11
7754.137667
 21
4809.997355
 31
0.0
  0
TEXT
  8
0
  40
35
  5
139
  62
11
  72
0
  71
0
 10
7684.14
 20
4890.74
 30
0.000000
  1
25.00
  0
LINE
  5
104
  8
0
  6
BYBLOCK
 62
     9
 10
7754.137667
 20
4874.997355
 30
0.0
 11
7754.137667
 21
4849.997355
 31
0.0
  0
SOLID
  5
105
  8
0
  6
BYBLOCK
 62
     9
 10
7750.804334
 20
4894.997355
 30
0.0
 11
7757.471001
 21
4894.997355
 31
0.0
 12
7754.137667
 22
4874.997355
 32
0.0
 13
7754.137667
 23
4874.997355
 33
0.0
  0
SOLID
  5
106
  8
0
  6
BYBLOCK
 62
     9
 10
7750.804334
 20
4829.997355
 30
0.0
 11
7757.471001
 21
4829.997355
 31
0.0
 12
7754.137667
 22
4849.997355
 32
0.0
 13
7754.137667
 23
4849.997355
 33
0.0
  0
POINT
  5
107
  8
DEFPOINTS
  6
BYBLOCK
 62
     0
 10
7845.642742
 20
4874.997355
 30
0.0
  0
POINT
  5
108
  8
DEFPOINTS
  6
BYBLOCK
 62
     0
 10
7840.642742
 20
4849.997355
 30
0.0
  0
POINT
  5
109
  8
DEFPOINTS
  6
BYBLOCK
 62
     0
 10
7754.137667
 20
4849.997355
 30
0.0
  0
ENDBLK
  5
10B
  8
0
  0
ENDSEC
  0
SECTION
  2
ENTITIES
  0
DIMENSION
  5
20
  8
TEAM-MAS
  2
*D5
 10
564.08238
 20
849.997355
 30
10.0
 11
564.08238
 21
424.998678
 31
0.0
 12
-8000.0
 22
-4000.0
 32
0.0
 13
273.521575
 23
0.0
 33
10.0
 14
240.642611
 24
849.997355
 34
0.0
 50
90.0
1001
ACAD
1000
DSTYLE
1002
{
1070
    40
1040
1.0
1002
}
  0
DIMENSION
  5
2F
  8
TEAM-MAS
  2
*D3
 10
366.337638
 20
684.997335
 30
10.0
 11
366.337638
 21
767.497345
 31
0.0
 12
-8000.0
 22
-4000.0
 32
0.0
 70
   128
 13
240.642611
 23
849.997355
 33
0.0
 14
9.576367
 24
684.997335
 34
0.0
 50
90.0
1001
ACAD
1000
DSTYLE
1002
{
1070
    40
1040
1.0
1002
}
  0
DIMENSION
  5
3C
  8
TEAM-MAS
  2
*D1
 10
175.0
 20
917.67806
 30
10.0
 11
87.5
 21
917.67806
 31
0.0
 12
-8000.0
 22
-4000.0
 32
0.0
 13
0.0
 23
684.997335
 33
0.0
 14
175.0
 24
800.0
 34
0.0
1001
ACAD
1000
DSTYLE
1002
{
1070
    40
1040
1.0
1002
}
  0
DIMENSION
  5
4A
  8
TEAM-MAS
  2
*D4
 10
431.105816
 20
0.0
 30
10.0
 11
431.105816
 21
282.498678
 31
0.0
 12
-8000.0
 22
-4000.0
 32
0.0
 13
0.0
 23
564.997355
 33
0.0
 14
0.0
 24
0.0
 34
10.0
 50
90.0
1001
ACAD
1000
DSTYLE
1002
{
1070
    40
1040
1.0
1002
}
  0
DIMENSION
  5
58
  8
TEAM-MAS
  2
*D6
 10
496.105816
 20
614.997355
 30
10.0
 11
496.105816
 21
307.498678
 31
0.0
 12
-8000.0
 22
-4000.0
 32
0.0
 13
0.0
 23
0.0
 33
10.0
 14
230.0
 24
614.997355
 34
0.0
 50
90.0
1001
ACAD
1000
DSTYLE
1002
{
1070
    40
1040
1.0
1002
}
  0
DIMENSION
  5
66
  8
TEAM-MAS
  2
*D2
 10
150.0
 20
454.342996
 30
10.0
 11
266.23829
 21
454.342996
 31
0.0
 12
-8000.0
 22
-4000.0
 32
0.0
 70
   128
 13
230.0
 23
614.997355
 33
0.0
 14
150.0
 24
614.997355
 34
0.0
1001
ACAD
1000
DSTYLE
1002
{
1070
    40
1040
1.0
1002
}
  0
DIMENSION
  5
73
  8
TEAM-MAS
  2
*D0
 10
240.642611
 20
968.995852
 30
10.0
 11
40.642677
 21
968.995852
 31
0.0
 12
-8000.0
 22
-4000.0
 32
0.0
 13
-159.357258
 23
869.997355
 33
0.0
 14
240.642611
 24
869.997355
 34
0.0
1001
ACAD
1000
DSTYLE
1002
{
1070
    40
1040
1.0
1002
}
  0
DIMENSION
  5
81
  8
TEAM-MAS
  2
*D7
 10
431.105816
 20
849.997355
 30
0.0
 11
431.105816
 21
707.497355
 31
0.0
 12
-8000.0
 22
-4000.0
 32
0.0
 13
0.0
 23
564.997355
 33
0.0
 14
240.642611
 24
849.997355
 34
0.0
 50
90.0
1001
ACAD
1000
DSTYLE
1002
{
1070
    40
1040
1.0
1002
}
  0
DIMENSION
  5
8F
  8
TEAM-MAS
  2
*D8
 10
496.105816
 20
849.997355
 30
0.0
 11
496.105816
 21
732.497355
 31
0.0
 12
-8000.0
 22
-4000.0
 32
0.0
 13
230.0
 23
614.997355
 33
0.0
 14
240.642611
 24
849.997355
 34
0.0
 50
90.0
1001
ACAD
1000
DSTYLE
1002
{
1070
    40
1040
1.0
1002
}
  0
DIMENSION
  5
9D
  8
TEAM-MAS
  2
*D10
 10
294.075363
 20
800.0
 30
0.0
 11
294.075363
 21
755.0
 31
0.0
 12
-8000.0
 22
-4000.0
 32
0.0
 70
   128
 13
240.642611
 23
849.997355
 33
0.0
 14
175.0
 24
800.0
 34
0.0
 50
90.0
1001
ACAD
1000
DSTYLE
1002
{
1070
    40
1040
1.0
1002
}
  0
POLYLINE
  5
AC
  8
TEAM-HIDE
 66
     1
 10
0.0
 20
0.0
 30
0.0
 70
     1
  0
VERTEX
  5
111
  8
TEAM-HIDE
 10
-80.0
 20
768.0
 30
0.0
 42
0.414214
  0
VERTEX
  5
112
  8
TEAM-HIDE
 10
-70.0
 20
758.0
 30
0.0
 42
0.414214
  0
VERTEX
  5
113
  8
TEAM-HIDE
 10
-60.0
 20
768.0
 30
0.0
  0
VERTEX
  5
114
  8
TEAM-HIDE
 10
-60.0
 20
792.0
 30
0.0
 42
0.414214
  0
VERTEX
  5
115
  8
TEAM-HIDE
 10
-70.0
 20
802.0
 30
0.0
 42
0.414214
  0
VERTEX
  5
116
  8
TEAM-HIDE
 10
-80.0
 20
792.0
 30
0.0
  0
VERTEX
  5
117
  8
TEAM-HIDE
 10
-80.0
 20
780.0
 30
0.0
  0
SEQEND
  5
118
  8
TEAM-HIDE
  0
ARC
  5
AF
  8
TEAM-BODY
 10
-29.392796
 20
841.846796
 30
0.0
 40
126.860218
 50
189.917641
 51
270.123187
  0
ARC
  5
B1
  8
TEAM-BODY
 10
31.84299
 20
964.035837
 30
0.0
 40
249.562357
 50
269.346304
 51
324.748659
  0
ARC
  5
B2
  8
TEAM-HIDE
 10
-12.39249
 20
856.224695
 30
0.0
 40
122.123644
 50
182.922899
 51
260.027918
  0
ARC
  5
B3
  8
TEAM-HIDE
 10
44.235436
 20
847.750321
 30
0.0
 40
111.867769
 50
271.930798
 51
1.15095
  0
POLYLINE
  5
B4
  8
TEAM-BODY
 66
     1
 10
0.0
 20
0.0
 30
0.0
  0
VERTEX
  5
119
  8
TEAM-BODY
 10
-143.582963
 20
786.582698
 30
0.0
  0
VERTEX
  5
11A
  8
TEAM-BODY
 10
-125.186992
 20
694.024965
 30
0.0
  0
VERTEX
  5
11B
  8
TEAM-BODY
 10
-58.381602
 20
694.992956
 30
0.0
  0
VERTEX
  5
11C
  8
TEAM-BODY
 10
-29.120044
 20
714.986871
 30
0.0
  0
SEQEND
  5
11D
  8
TEAM-BODY
  0
POLYLINE
  5
B5
  8
TEAM-BODY
 66
     1
 10
0.0
 20
0.0
 30
0.0
  0
VERTEX
  5
11E
  8
TEAM-BODY
 10
213.488792
 20
792.903805
 30
0.0
  0
VERTEX
  5
11F
  8
TEAM-BODY
 10
176.607622
 20
694.024965
 30
0.0
  0
VERTEX
  5
120
  8
TEAM-BODY
 10
109.802231
 20
694.992956
 30
0.0
  0
VERTEX
  5
121
  8
TEAM-BODY
 10
28.995758
 20
714.489723
 30
0.0
  0
SEQEND
  5
122
  8
TEAM-BODY
  0
DIMENSION
  5
B6
  8
TEAM-MAS
  2
*D11
 10
-245.862333
 20
780.0
 30
0.0
 11
-274.862333
 21
814.998678
 31
0.0
 12
-8000.0
 22
-4000.0
 32
0.0
 13
-159.357258
 23
849.997355
 33
0.0
 14
-70.0
 24
780.0
 34
0.0
 50
90.0
1001
ACAD
1000
DSTYLE
1002
{
1070
    40
1040
1.0
1002
}
  0
DIMENSION
  5
C3
  8
TEAM-MAS
  2
*D9
 10
-70.0
 20
917.67806
 30
0.0
 11
-99.48786
 21
918.67806
 31
0.0
 12
-8000.0
 22
-4000.0
 32
0.0
 70
   128
 13
0.0
 23
684.997335
 33
0.0
 14
-70.0
 24
780.0
 34
0.0
1001
ACAD
1000
DSTYLE
1002
{
1070
    40
1040
1.0
1002
}
  0
LINE
  5
D0
  8
TEAM-BODY
 10
26.622669
 20
684.997335
 30
0.0
 11
-26.622669
 21
684.997335
 31
0.0
  0
CIRCLE
  5
D1
  8
TEAM-KAN
 10
0.0
 20
564.997355
 30
0.0
 40
20.0
  0
CIRCLE
  5
D3
  8
TEAM-INSP
 10
0.0
 20
0.0
 30
0.0
 40
10.0
  0
POINT
  5
D5
  8
TEAM-MAS
 10
230.0
 20
594.997355
 30
0.0
  0
POINT
  5
D6
  8
TEAM-MAS
 10
230.0
 20
594.997355
 30
0.0
  0
POINT
  5
D7
  8
TEAM-MAS
 10
230.0
 20
594.997355
 30
0.0
  0
CIRCLE
  5
D8
  8
TEAM-COLD
 10
230.0
 20
614.997355
 30
0.0
 40
10.0
  0
POINT
  5
DA
  8
TEAM-MAS
 10
150.0
 20
594.997355
 30
0.0
  0
POINT
  5
DB
  8
TEAM-MAS
 10
150.0
 20
594.997355
 30
0.0
  0
POINT
  5
DC
  8
TEAM-MAS
 10
150.0
 20
594.997355
 30
0.0
  0
CIRCLE
  5
DD
  8
TEAM-WARM
 10
150.0
 20
614.997355
 30
0.0
 40
10.0
  0
DIMENSION
  5
DF
  8
TEAM-MAS
  2
*D12
 10
0.0
 20
454.342996
 30
0.0
 11
75.0
 21
454.342996
 31
0.0
 12
-8000.0
 22
-4000.0
 32
0.0
 70
   128
 13
150.0
 23
614.997355
 33
0.0
 14
0.0
 24
564.997355
 34
0.0
1001
ACAD
1000
DSTYLE
1002
{
1070
    40
1040
1.0
1002
}
  0
LINE
  5
EC
  8
TEAM-BODY
 10
-26.622669
 20
684.997335
 30
0.0
 11
-29.120044
 21
714.986871
 31
0.0
  0
LINE
  5
ED
  8
TEAM-BODY
 10
26.622669
 20
684.997335
 30
0.0
 11
28.995758
 21
714.489723
 31
0.0
  0
LINE
  5
EE
  8
TEAM-BODY
 10
-29.120044
 20
714.986871
 30
0.0
 11
28.995758
 21
714.489723
 31
0.0
  0
LINE
  5
EF
  8
TEAM-HIDE
 10
-33.540434
 20
735.946065
 30
0.0
 11
48.004529
 21
735.946065
 31
0.0
  0
LINE
  5
F0
  8
TEAM-BODY
 10
235.642611
 20
819.997355
 30
0.0
 11
-154.357258
 21
819.997355
 31
0.0
  0
LINE
  5
F1
  8
TEAM-BODY
 10
235.642611
 20
874.997355
 30
0.0
 11
-154.357258
 21
874.997355
 31
0.0
  0
LINE
  5
F2
  8
TEAM-BODY
 10
240.642611
 20
849.997355
 30
0.0
 11
-159.357258
 21
849.997355
 31
0.0
  0
ARC
  5
F3
  8
TEAM-BODY
 10
-154.357258
 20
824.997355
 30
0.0
 40
5.0
 50
180.0
 51
270.0
  0
ARC
  5
F4
  8
TEAM-BODY
 10
-154.357258
 20
869.997355
 30
0.0
 40
5.0
 50
90.0
 51
180.0
  0
LINE
  5
F5
  8
TEAM-BODY
 10
-159.357258
 20
824.997355
 30
0.0
 11
-159.357258
 21
869.997355
 31
0.0
  0
ARC
  5
F6
  8
TEAM-BODY
 10
235.642611
 20
824.997355
 30
0.0
 40
5.0
 50
270.0
 51
0.0
  0
ARC
  5
F7
  8
TEAM-BODY
 10
235.642611
 20
869.997355
 30
0.0
 40
5.0
 50
0.0
 51
90.0
  0
LINE
  5
F8
  8
TEAM-BODY
 10
240.642611
 20
824.997355
 30
0.0
 11
240.642611
 21
869.997355
 31
0.0
  0
POLYLINE
  5
F9
  8
TEAM-HIDE
 66
     1
 10
0.0
 20
0.0
 30
0.0
 70
     1
  0
VERTEX
  5
123
  8
TEAM-HIDE
 10
170.0
 20
790.0
 30
0.0
 42
-0.414214
  0
VERTEX
  5
124
  8
TEAM-HIDE
 10
160.0
 20
800.0
 30
0.0
 42
-0.414214
  0
VERTEX
  5
125
  8
TEAM-HIDE
 10
170.0
 20
810.0
 30
0.0
  0
VERTEX
  5
126
  8
TEAM-HIDE
 10
180.0
 20
810.0
 30
0.0
 42
-0.414214
  0
VERTEX
  5
127
  8
TEAM-HIDE
 10
190.0
 20
800.0
 30
0.0
 42
-0.414214
  0
VERTEX
  5
128
  8
TEAM-HIDE
 10
180.0
 20
790.0
 30
0.0
  0
VERTEX
  5
129
  8
TEAM-HIDE
 10
175.0
 20
790.0
 30
0.0
  0
SEQEND
  5
12A
  8
TEAM-HIDE
  0
TEXT
  5
FA
  8
TEAM-TXT
 10
-119.624226
 20
781.14126
 30
0.0
 40
30.0
  1
team 221078
 41
0.8
 51
15.0
  7
TEAM
  0
DIMENSION
  5
FD
  8
TEAM-MAS
  2
*D13
 10
-245.862333
 20
849.997355
 30
0.0
 11
-245.862333
 21
952.685895
 31
0.0
 12
-8000.0
 22
-4000.0
 32
0.0
 70
   128
 13
-154.357258
 23
874.997355
 33
0.0
 14
-159.357258
 24
849.997355
 34
0.0
 50
90.0
1001
ACAD
1000
DSTYLE
1002
{
1070
    40
1040
1.0
1002
}
  0
ENDSEC
  0
EOF
