  0
SECTION
  2
HEADER
  9
$ACADVER
  1
AC1009
  9
$INSBASE
 10
0.0
 20
0.0
 30
0.0
  9
$EXTMIN
 10
-226.484419
 20
-10.065904
 30
-20.002956
  9
$EXTMAX
 10
412.395741
 20
943.294615
 30
20.00103
  9
$LIMMIN
 10
-226.484419
 20
-10.065904
  9
$LIMMAX
 10
412.395741
 20
943.294615
  9
$ORTHOMODE
 70
     1
  9
$REGENMODE
 70
     1
  9
$FILLMODE
 70
     1
  9
$QTEXTMODE
 70
     0
  9
$MIRRTEXT
 70
     0
  9
$DRAGMODE
 70
     2
  9
$LTSCALE
 40
50.0
  9
$OSMODE
 70
     7
  9
$ATTMODE
 70
     1
  9
$TEXTSIZE
 40
200.0
  9
$TRACEWID
 40
1.0
  9
$TEXTSTYLE
  7
STANDARD
  9
$CLAYER
  8
TEAM-MAS
  9
$CELTYPE
  6
BYLAYER
  9
$CECOLOR
 62
   256
  9
$DIMSCALE
 40
0.0
  9
$DIMASZ
 40
20.0
  9
$DIMEXO
 40
10.0
  9
$DIMDLI
 40
1.0
  9
$DIMRND
 40
0.0
  9
$DIMDLE
 40
0.0
  9
$DIMEXE
 40
1.0
  9
$DIMTP
 40
0.0
  9
$DIMTM
 40
0.0
  9
$DIMTXT
 40
35.0
  9
$DIMCEN
 40
1.0
  9
$DIMTSZ
 40
0.0
  9
$DIMTOL
 70
     0
  9
$DIMLIM
 70
     0
  9
$DIMTIH
 70
     0
  9
$DIMTOH
 70
     0
  9
$DIMSE1
 70
     0
  9
$DIMSE2
 70
     0
  9
$DIMTAD
 70
     0
  9
$DIMZIN
 70
     0
  9
$DIMBLK
  1

  9
$DIMASO
 70
     1
  9
$DIMSHO
 70
     0
  9
$DIMPOST
  1

  9
$DIMAPOST
  1

  9
$DIMALT
 70
     0
  9
$DIMALTD
 70
     2
  9
$DIMALTF
 40
25.4
  9
$DIMLFAC
 40
1.0
  9
$DIMTOFL
 70
     0
  9
$DIMTVP
 40
0.0
  9
$DIMTIX
 70
     0
  9
$DIMSOXD
 70
     0
  9
$DIMSAH
 70
     0
  9
$DIMBLK1
  1

  9
$DIMBLK2
  1

  9
$DIMSTYLE
  2
TEAM
  9
$DIMCLRD
 70
     9
  9
$DIMCLRE
 70
     9
  9
$DIMCLRT
 70
    11
  9
$DIMTFAC
 40
1.0
  9
$DIMGAP
 40
15.0
  9
$LUNITS
 70
     2
  9
$LUPREC
 70
     1
  9
$SKETCHINC
 40
1.0
  9
$FILLETRAD
 40
50.0
  9
$AUNITS
 70
     0
  9
$AUPREC
 70
     0
  9
$MENU
  1
ROPLANS
  9
$ELEVATION
 40
0.0
  9
$PELEVATION
 40
0.0
  9
$THICKNESS
 40
0.0
  9
$LIMCHECK
 70
     0
  9
$BLIPMODE
 70
     1
  9
$CHAMFERA
 40
0.0
  9
$CHAMFERB
 40
0.0
  9
$SKPOLY
 70
     0
  9
$TDCREATE
 40
2450392.957851
  9
$TDUPDATE
 40
2455912.603428
  9
$TDINDWG
 40
2.400615
  9
$TDUSRTIMER
 40
2.400615
  9
$USRTIMER
 70
     1
  9
$ANGBASE
 50
0.0
  9
$ANGDIR
 70
     0
  9
$PDMODE
 70
     0
  9
$PDSIZE
 40
0.0
  9
$PLINEWID
 40
0.0
  9
$COORDS
 70
     2
  9
$SPLFRAME
 70
     0
  9
$SPLINETYPE
 70
     6
  9
$SPLINESEGS
 70
     8
  9
$ATTDIA
 70
     0
  9
$ATTREQ
 70
     0
  9
$HANDLING
 70
     1
  9
$HANDSEED
  5
162
  9
$SURFTAB1
 70
    48
  9
$SURFTAB2
 70
    48
  9
$SURFTYPE
 70
     6
  9
$SURFU
 70
     6
  9
$SURFV
 70
     6
  9
$UCSNAME
  2

  9
$UCSORG
 10
0.0
 20
0.0
 30
0.0
  9
$UCSXDIR
 10
1.0
 20
0.0
 30
0.0
  9
$UCSYDIR
 10
0.0
 20
1.0
 30
0.0
  9
$PUCSNAME
  2

  9
$PUCSORG
 10
0.0
 20
0.0
 30
0.0
  9
$PUCSXDIR
 10
1.0
 20
0.0
 30
0.0
  9
$PUCSYDIR
 10
0.0
 20
1.0
 30
0.0
  9
$USERI1
 70
     0
  9
$USERI2
 70
     0
  9
$USERI3
 70
     0
  9
$USERI4
 70
     0
  9
$USERI5
 70
     0
  9
$USERR1
 40
0.0
  9
$USERR2
 40
0.0
  9
$USERR3
 40
0.0
  9
$USERR4
 40
0.0
  9
$USERR5
 40
0.0
  9
$WORLDVIEW
 70
     1
  9
$SHADEDGE
 70
     0
  9
$SHADEDIF
 70
    70
  9
$TILEMODE
 70
     1
  9
$MAXACTVP
 70
    16
  9
$PLIMCHECK
 70
     0
  9
$PEXTMIN
 10
-0.805942
 20
0.005011
 30
0.0
  9
$PEXTMAX
 10
20.250094
 20
11.356329
 30
0.0
  9
$PLIMMIN
 10
0.0
 20
0.0
  9
$PLIMMAX
 10
12.0
 20
9.0
  9
$UNITMODE
 70
     0
  9
$VISRETAIN
 70
     0
  9
$PLINEGEN
 70
     0
  9
$PSLTSCALE
 70
     0
  0
ENDSEC
  0
SECTION
  2
TABLES
  0
TABLE
  2
VPORT
 70
     2
  0
VPORT
  2
*ACTIVE
 70
     0
 10
0.0
 20
0.0
 11
1.0
 21
1.0
 12
92.955661
 22
466.614356
 13
0.0
 23
0.0
 14
1.0
 24
1.0
 15
50.0
 25
50.0
 16
0.0
 26
0.0
 36
1.0
 17
0.0
 27
0.0
 37
0.0
 40
959.3377
 41
1.903766
 42
50.0
 43
0.0
 44
0.0
 50
0.0
 51
0.0
 71
     0
 72
   100
 73
     1
 74
     1
 75
     0
 76
     0
 77
     0
 78
     0
  0
ENDTAB
  0
TABLE
  2
LTYPE
 70
     3
  0
LTYPE
  2
CONTINUOUS
 70
     0
  3
Solid Line
 72
    65
 73
     0
 40
0.0
  0
LTYPE
  2
31
 70
     0
  3

 72
    65
 73
     4
 40
2.1
 49
1.5
 49
-0.3
 49
0.0
 49
-0.3
  0
LTYPE
  2
22
 70
     0
  3

 72
    65
 73
     2
 40
1.4
 49
1.2
 49
-0.2
  0
ENDTAB
  0
TABLE
  2
LAYER
 70
    11
  0
LAYER
  2
0
 70
     0
 62
     7
  6
CONTINUOUS
  0
LAYER
  2
DEFPOINTS
 70
     0
 62
     7
  6
CONTINUOUS
  0
LAYER
  2
TEAM-BODY
 70
     0
 62
     2
  6
CONTINUOUS
  0
LAYER
  2
TEAM-AXE
 70
     0
 62
    10
  6
31
  0
LAYER
  2
TEAM-MAS
 70
     0
 62
     9
  6
CONTINUOUS
  0
LAYER
  2
TEAM-TXT
 70
     0
 62
    11
  6
CONTINUOUS
  0
LAYER
  2
TEAM-COLD
 70
     0
 62
     3
  6
CONTINUOUS
  0
LAYER
  2
TEAM-HIDE
 70
     0
 62
     8
  6
22
  0
LAYER
  2
TEAM-KAN
 70
     0
 62
     6
  6
CONTINUOUS
  0
LAYER
  2
TEAM-WARM
 70
     0
 62
     1
  6
CONTINUOUS
  0
LAYER
  2
TEAM-INSP
 70
     0
 62
     5
  6
CONTINUOUS
  0
ENDTAB
  0
TABLE
  2
STYLE
 70
     2
  0
STYLE
  2
STANDARD
 70
     0
 40
0.0
 41
1.0
 50
0.0
 71
     0
 42
200.0
  3
txt
  4

  0
STYLE
  2
TEAM
 70
     0
 40
0.0
 41
0.8
 50
15.0
 71
     0
 42
7.0
  3
ROMANS.shx
  4

  0
ENDTAB
  0
TABLE
  2
VIEW
 70
     0
  0
ENDTAB
  0
TABLE
  2
UCS
 70
     0
  0
ENDTAB
  0
TABLE
  2
APPID
 70
     1
  0
APPID
  2
ACAD
 70
     0
  0
ENDTAB
  0
TABLE
  2
DIMSTYLE
 70
     1
  0
DIMSTYLE
  2
TEAM
 70
     0
  3

  4

  5

  6

  7

 40
0.0
 41
20.0
 42
10.0
 43
1.0
 44
1.0
 45
0.0
 46
0.0
 47
0.0
 48
0.0
140
35.0
141
1.0
142
0.0
143
25.4
144
1.0
145
0.0
146
1.0
147
15.0
 71
     0
 72
     0
 73
     0
 74
     0
 75
     0
 76
     0
 77
     0
 78
     0
170
     0
171
     2
172
     0
173
     0
174
     0
175
     0
176
     9
177
     9
178
    11
  0
ENDTAB
  0
ENDSEC
  0
SECTION
  2
BLOCKS
  0
BLOCK
  8
0
  2
$MODEL_SPACE
 70
     0
 10
0.0
 20
0.0
 30
0.0
  3
$MODEL_SPACE
  1

  0
ENDBLK
  5
136
  8
0
  0
BLOCK
 67
     1
  8
0
  2
$PAPER_SPACE
 70
     0
 10
0.0
 20
0.0
 30
0.0
  3
$PAPER_SPACE
  1

  0
ENDBLK
  5
134
 67
     1
  8
0
  0
BLOCK
  8
0
  2
*D0
 70
     1
 10
0.0
 20
0.0
 30
0.0
  3
*D0
  1

  0
LINE
  5
22
  8
0
  6
BYBLOCK
 62
     9
 10
8085.0
 20
76560.0
 30
0.0
 11
8351.513986
 21
76560.0
 31
0.0
  0
LINE
  5
23
  8
0
  6
BYBLOCK
 62
     9
 10
8220.0
 20
76000.0
 30
0.0
 11
8351.513986
 21
76000.0
 31
0.0
  0
LINE
  5
24
  8
0
  6
BYBLOCK
 62
     9
 10
8350.513986
 20
76540.0
 30
0.0
 11
8350.513986
 21
76338.75
 31
0.0
  0
LINE
  5
25
  8
0
  6
BYBLOCK
 62
     9
 10
8350.513986
 20
76020.0
 30
0.0
 11
8350.513986
 21
76221.25
 31
0.0
  0
SOLID
  5
26
  8
0
  6
BYBLOCK
 62
     9
 10
8347.180652
 20
76540.0
 30
0.0
 11
8353.847319
 21
76540.0
 31
0.0
 12
8350.513986
 22
76560.0
 32
0.0
 13
8350.513986
 23
76560.0
 33
0.0
  0
SOLID
  5
27
  8
0
  6
BYBLOCK
 62
     9
 10
8347.180652
 20
76020.0
 30
0.0
 11
8353.847319
 21
76020.0
 31
0.0
 12
8350.513986
 22
76000.0
 32
0.0
 13
8350.513986
 23
76000.0
 33
0.0
  0
TEXT
  5
28
  8
0
  6
BYBLOCK
 62
    11
 10
8368.013986
 20
76236.25
 30
0.0
 40
35.0
  1
560
 50
90.0
  0
POINT
  5
29
  8
DEFPOINTS
  6
BYBLOCK
 62
     0
 10
8075.0
 20
76560.0
 30
0.0
  0
POINT
  5
2B
  8
DEFPOINTS
  6
BYBLOCK
 62
     0
 10
8210.0
 20
76000.0
 30
10.0
  0
POINT
  5
2C
  8
DEFPOINTS
  6
BYBLOCK
 62
     0
 10
8350.513986
 20
76000.0
 30
20.0
  0
ENDBLK
  5
2E
  8
0
  0
BLOCK
  8
0
  2
*D1
 70
     1
 10
0.0
 20
0.0
 30
0.0
  3
*D1
  1

  0
LINE
  5
A6
  8
0
  6
BYBLOCK
 62
     9
 10
11925.0
 20
84589.783522
 30
0.0
 11
11925.0
 21
84499.600574
 31
0.0
  0
LINE
  5
A7
  8
0
  6
BYBLOCK
 62
     9
 10
12075.0
 20
84590.0
 30
0.0
 11
12075.0
 21
84499.600574
 31
0.0
  0
LINE
  5
A8
  8
0
  6
BYBLOCK
 62
     9
 10
11945.0
 20
84500.600574
 30
0.0
 11
11960.0
 21
84500.600574
 31
0.0
  0
LINE
  5
A9
  8
0
  6
BYBLOCK
 62
     9
 10
12055.0
 20
84500.600574
 30
0.0
 11
12040.0
 21
84500.600574
 31
0.0
  0
TEXT
  5
AA
  8
0
  6
BYBLOCK
 62
    11
 10
11962.083333
 20
84483.100574
 30
0.0
 40
35.0
  1
150
  0
SOLID
  5
AB
  8
0
  6
BYBLOCK
 62
     9
 10
11945.0
 20
84503.933907
 30
0.0
 11
11945.0
 21
84497.26724
 31
0.0
 12
11925.0
 22
84500.600574
 32
0.0
 13
11925.0
 23
84500.600574
 33
0.0
  0
SOLID
  5
AC
  8
0
  6
BYBLOCK
 62
     9
 10
12055.0
 20
84503.933907
 30
0.0
 11
12055.0
 21
84497.26724
 31
0.0
 12
12075.0
 22
84500.600574
 32
0.0
 13
12075.0
 23
84500.600574
 33
0.0
  0
POINT
  5
AD
  8
DEFPOINTS
  6
BYBLOCK
 62
     0
 10
11925.0
 20
84599.783522
 30
20.0
  0
POINT
  5
AE
  8
DEFPOINTS
  6
BYBLOCK
 62
     0
 10
12075.0
 20
84600.0
 30
20.0
  0
POINT
  5
AF
  8
DEFPOINTS
  6
BYBLOCK
 62
     0
 10
12075.0
 20
84500.600574
 30
30.0
  0
ENDBLK
  5
B1
  8
0
  0
BLOCK
  8
0
  2
*D2
 70
     1
 10
0.0
 20
0.0
 30
0.0
  3
*D2
  1

  0
LINE
  5
98
  8
0
  6
BYBLOCK
 62
     9
 10
8085.0
 20
76560.0
 30
0.0
 11
8351.513986
 21
76560.0
 31
0.0
  0
LINE
  5
99
  8
0
  6
BYBLOCK
 62
     9
 10
8233.592488
 20
76850.0
 30
0.0
 11
8351.513986
 21
76850.0
 31
0.0
  0
LINE
  5
9A
  8
0
  6
BYBLOCK
 62
     9
 10
8350.513986
 20
76580.0
 30
0.0
 11
8350.513986
 21
76646.25
 31
0.0
  0
LINE
  5
9B
  8
0
  6
BYBLOCK
 62
     9
 10
8350.513986
 20
76830.0
 30
0.0
 11
8350.513986
 21
76763.75
 31
0.0
  0
SOLID
  5
9C
  8
0
  6
BYBLOCK
 62
     9
 10
8347.180652
 20
76580.0
 30
0.0
 11
8353.847319
 21
76580.0
 31
0.0
 12
8350.513986
 22
76560.0
 32
0.0
 13
8350.513986
 23
76560.0
 33
0.0
  0
SOLID
  5
9D
  8
0
  6
BYBLOCK
 62
     9
 10
8347.180652
 20
76830.0
 30
0.0
 11
8353.847319
 21
76830.0
 31
0.0
 12
8350.513986
 22
76850.0
 32
0.0
 13
8350.513986
 23
76850.0
 33
0.0
  0
TEXT
  5
9E
  8
0
  6
BYBLOCK
 62
    11
 10
8368.013986
 20
76661.25
 30
0.0
 40
35.0
  1
290
 50
90.0
  0
POINT
  5
9F
  8
DEFPOINTS
  6
BYBLOCK
 62
     0
 10
8075.0
 20
76560.0
 30
0.0
  0
POINT
  5
A0
  8
DEFPOINTS
  6
BYBLOCK
 62
     0
 10
8223.592488
 20
76850.0
 30
0.0
  0
POINT
  5
A1
  8
DEFPOINTS
  6
BYBLOCK
 62
     0
 10
8350.513986
 20
76850.0
 30
0.0
  0
ENDBLK
  5
A3
  8
0
  0
BLOCK
  8
0
  2
*D3
 70
     1
 10
0.0
 20
0.0
 30
0.0
  3
*D3
  1

  0
LINE
  5
89
  8
0
  6
BYBLOCK
 62
     9
 10
8238.592488
 20
76850.0
 30
0.0
 11
8263.43822
 21
76850.0
 31
0.0
  0
LINE
  5
8A
  8
0
  6
BYBLOCK
 62
     9
 10
8110.0
 20
76810.0
 30
0.0
 11
8263.43822
 21
76810.0
 31
0.0
  0
LINE
  5
8B
  8
0
  6
BYBLOCK
 62
     9
 10
8262.43822
 20
76870.0
 30
0.0
 11
8262.43822
 21
76890.0
 31
0.0
  0
LINE
  5
8C
  8
0
  6
BYBLOCK
 62
     9
 10
8262.43822
 20
76790.0
 30
0.0
 11
8262.43822
 21
76770.0
 31
0.0
  0
TEXT
  5
8D
  8
0
  6
BYBLOCK
 62
    11
 10
8280.446515
 20
76890.761699
 30
0.0
 40
35.0
  1
40
 50
90.0
  0
LINE
  5
8E
  8
0
  6
BYBLOCK
 62
     9
 10
8262.43822
 20
76850.0
 30
0.0
 11
8262.43822
 21
76810.0
 31
0.0
  0
SOLID
  5
8F
  8
0
  6
BYBLOCK
 62
     9
 10
8259.104887
 20
76870.0
 30
0.0
 11
8265.771553
 21
76870.0
 31
0.0
 12
8262.43822
 22
76850.0
 32
0.0
 13
8262.43822
 23
76850.0
 33
0.0
  0
SOLID
  5
90
  8
0
  6
BYBLOCK
 62
     9
 10
8259.104887
 20
76790.0
 30
0.0
 11
8265.771553
 21
76790.0
 31
0.0
 12
8262.43822
 22
76810.0
 32
0.0
 13
8262.43822
 23
76810.0
 33
0.0
  0
POINT
  5
91
  8
DEFPOINTS
  6
BYBLOCK
 62
     0
 10
8228.592488
 20
76850.0
 30
0.0
  0
POINT
  5
92
  8
DEFPOINTS
  6
BYBLOCK
 62
     0
 10
8100.0
 20
76810.0
 30
0.0
  0
POINT
  5
93
  8
DEFPOINTS
  6
BYBLOCK
 62
     0
 10
8262.43822
 20
76810.0
 30
0.0
  0
ENDBLK
  5
95
  8
0
  0
BLOCK
  8
0
  2
*D4
 70
     1
 10
0.0
 20
0.0
 30
0.0
  3
*D4
  1

  0
LINE
  5
7B
  8
0
  6
BYBLOCK
 62
     9
 10
11925.0
 20
84834.0
 30
0.0
 11
11925.0
 21
84880.546338
 31
0.0
  0
LINE
  5
7C
  8
0
  6
BYBLOCK
 62
     9
 10
12075.0
 20
84834.0
 30
0.0
 11
12075.0
 21
84880.546338
 31
0.0
  0
LINE
  5
7D
  8
0
  6
BYBLOCK
 62
     9
 10
11905.0
 20
84879.546338
 30
0.0
 11
11885.0
 21
84879.546338
 31
0.0
  0
LINE
  5
7E
  8
0
  6
BYBLOCK
 62
     9
 10
12095.0
 20
84879.546338
 30
0.0
 11
12115.0
 21
84879.546338
 31
0.0
  0
SOLID
  5
7F
  8
0
  6
BYBLOCK
 62
     9
 10
11905.0
 20
84882.879672
 30
0.0
 11
11905.0
 21
84876.213005
 31
0.0
 12
11925.0
 22
84879.546338
 32
0.0
 13
11925.0
 23
84879.546338
 33
0.0
  0
SOLID
  5
80
  8
0
  6
BYBLOCK
 62
     9
 10
12095.0
 20
84882.879672
 30
0.0
 11
12095.0
 21
84876.213005
 31
0.0
 12
12075.0
 22
84879.546338
 32
0.0
 13
12075.0
 23
84879.546338
 33
0.0
  0
TEXT
  5
81
  8
0
  6
BYBLOCK
 62
    11
 10
11962.083333
 20
84862.046338
 30
0.0
 40
35.0
  1
150
  0
POINT
  5
82
  8
DEFPOINTS
  6
BYBLOCK
 62
     0
 10
11925.0
 20
84824.0
 30
0.0
  0
POINT
  5
83
  8
DEFPOINTS
  6
BYBLOCK
 62
     0
 10
12075.0
 20
84824.0
 30
0.0
  0
POINT
  5
84
  8
DEFPOINTS
  6
BYBLOCK
 62
     0
 10
12075.0
 20
84879.546338
 30
0.0
  0
ENDBLK
  5
86
  8
0
  0
BLOCK
  8
0
  2
*D5
 70
     1
 10
0.0
 20
0.0
 30
0.0
  3
*D5
  1

  0
LINE
  5
6D
  8
0
  6
BYBLOCK
 62
     9
 10
12225.0
 20
84854.057342
 30
0.0
 11
12225.0
 21
84922.880597
 31
0.0
  0
LINE
  5
6E
  8
0
  6
BYBLOCK
 62
     9
 10
11775.0
 20
84854.057342
 30
0.0
 11
11775.0
 21
84922.880597
 31
0.0
  0
LINE
  5
6F
  8
0
  6
BYBLOCK
 62
     9
 10
12205.0
 20
84921.880597
 30
0.0
 11
12058.75
 21
84921.880597
 31
0.0
  0
LINE
  5
70
  8
0
  6
BYBLOCK
 62
     9
 10
11795.0
 20
84921.880597
 30
0.0
 11
11941.25
 21
84921.880597
 31
0.0
  0
SOLID
  5
71
  8
0
  6
BYBLOCK
 62
     9
 10
12205.0
 20
84925.213931
 30
0.0
 11
12205.0
 21
84918.547264
 31
0.0
 12
12225.0
 22
84921.880597
 32
0.0
 13
12225.0
 23
84921.880597
 33
0.0
  0
SOLID
  5
72
  8
0
  6
BYBLOCK
 62
     9
 10
11795.0
 20
84925.213931
 30
0.0
 11
11795.0
 21
84918.547264
 31
0.0
 12
11775.0
 22
84921.880597
 32
0.0
 13
11775.0
 23
84921.880597
 33
0.0
  0
TEXT
  5
73
  8
0
  6
BYBLOCK
 62
    11
 10
11956.25
 20
84904.380597
 30
0.0
 40
35.0
  1
450
  0
POINT
  5
74
  8
DEFPOINTS
  6
BYBLOCK
 62
     0
 10
12225.0
 20
84844.057342
 30
0.0
  0
POINT
  5
75
  8
DEFPOINTS
  6
BYBLOCK
 62
     0
 10
11775.0
 20
84844.057342
 30
0.0
  0
POINT
  5
76
  8
DEFPOINTS
  6
BYBLOCK
 62
     0
 10
11775.0
 20
84921.880597
 30
0.0
  0
ENDBLK
  5
78
  8
0
  0
BLOCK
  8
0
  2
*D6
 70
     1
 10
0.0
 20
0.0
 30
0.0
  3
*D6
  1

  0
LINE
  5
5F
  8
0
  6
BYBLOCK
 62
     9
 10
12307.329716
 20
84850.0
 30
0.0
 11
12395.880833
 21
84850.0
 31
0.0
  0
LINE
  5
60
  8
0
  6
BYBLOCK
 62
     9
 10
12010.0
 20
84000.0
 30
0.0
 11
12395.880833
 21
84000.0
 31
0.0
  0
LINE
  5
61
  8
0
  6
BYBLOCK
 62
     9
 10
12394.880833
 20
84830.0
 30
0.0
 11
12394.880833
 21
84483.75
 31
0.0
  0
LINE
  5
62
  8
0
  6
BYBLOCK
 62
     9
 10
12394.880833
 20
84020.0
 30
0.0
 11
12394.880833
 21
84366.25
 31
0.0
  0
SOLID
  5
63
  8
0
  6
BYBLOCK
 62
     9
 10
12391.547499
 20
84830.0
 30
0.0
 11
12398.214166
 21
84830.0
 31
0.0
 12
12394.880833
 22
84850.0
 32
0.0
 13
12394.880833
 23
84850.0
 33
0.0
  0
SOLID
  5
64
  8
0
  6
BYBLOCK
 62
     9
 10
12391.547499
 20
84020.0
 30
0.0
 11
12398.214166
 21
84020.0
 31
0.0
 12
12394.880833
 22
84000.0
 32
0.0
 13
12394.880833
 23
84000.0
 33
0.0
  0
TEXT
  5
65
  8
0
  6
BYBLOCK
 62
    11
 10
12412.380833
 20
84381.25
 30
0.0
 40
35.0
  1
850
 50
90.0
  0
POINT
  5
66
  8
DEFPOINTS
  6
BYBLOCK
 62
     0
 10
12297.329716
 20
84850.0
 30
10.0
  0
POINT
  5
67
  8
DEFPOINTS
  6
BYBLOCK
 62
     0
 10
12000.0
 20
84000.0
 30
0.0
  0
POINT
  5
68
  8
DEFPOINTS
  6
BYBLOCK
 62
     0
 10
12394.880833
 20
84000.0
 30
10.0
  0
ENDBLK
  5
6A
  8
0
  0
BLOCK
  8
0
  2
*D7
 70
     1
 10
0.0
 20
0.0
 30
0.0
  3
*D7
  1

  0
LINE
  5
51
  8
0
  6
BYBLOCK
 62
     9
 10
12200.0
 20
84850.0
 30
0.0
 11
12305.329716
 21
84850.0
 31
0.0
  0
LINE
  5
52
  8
0
  6
BYBLOCK
 62
     9
 10
12043.711313
 20
84724.99769
 30
0.0
 11
12305.329716
 21
84724.99769
 31
0.0
  0
LINE
  5
53
  8
0
  6
BYBLOCK
 62
     9
 10
12304.329716
 20
84830.0
 30
0.0
 11
12304.329716
 21
84815.0
 31
0.0
  0
LINE
  5
54
  8
0
  6
BYBLOCK
 62
     9
 10
12304.329716
 20
84744.99769
 30
0.0
 11
12304.329716
 21
84759.99769
 31
0.0
  0
TEXT
  5
55
  8
0
  6
BYBLOCK
 62
    11
 10
12321.829716
 20
84746.666667
 30
0.0
 40
35.0
  1
125
 50
90.0
  0
SOLID
  5
56
  8
0
  6
BYBLOCK
 62
     9
 10
12300.996383
 20
84830.0
 30
0.0
 11
12307.663049
 21
84830.0
 31
0.0
 12
12304.329716
 22
84850.0
 32
0.0
 13
12304.329716
 23
84850.0
 33
0.0
  0
SOLID
  5
57
  8
0
  6
BYBLOCK
 62
     9
 10
12300.996383
 20
84744.99769
 30
0.0
 11
12307.663049
 21
84744.99769
 31
0.0
 12
12304.329716
 22
84724.99769
 32
0.0
 13
12304.329716
 23
84724.99769
 33
0.0
  0
POINT
  5
58
  8
DEFPOINTS
  6
BYBLOCK
 62
     0
 10
12190.0
 20
84850.0
 30
10.0
  0
POINT
  5
59
  8
DEFPOINTS
  6
BYBLOCK
 62
     0
 10
12033.711313
 20
84724.99769
 30
0.0
  0
POINT
  5
5A
  8
DEFPOINTS
  6
BYBLOCK
 62
     0
 10
12304.329716
 20
84724.99769
 30
10.0
  0
ENDBLK
  5
5C
  8
0
  0
ENDSEC
  0
SECTION
  2
ENTITIES
  0
DIMENSION
  5
20
  8
TEAM-MAS
  2
*D0
 10
350.513986
 20
0.0
 30
20.0
 11
350.513986
 21
280.0
 31
0.0
 12
-8000.0
 22
-76000.0
 32
0.0
 13
75.0
 23
560.0
 33
0.0
 14
210.0
 24
0.0
 34
10.0
 50
90.0
1001
ACAD
1000
DSTYLE
1002
{
1070
    40
1040
1.0
1002
}
  0
POLYLINE
  5
2F
  8
TEAM-BODY
 66
     1
 10
0.0
 20
0.0
 30
0.0
  0
VERTEX
  5
13C
  8
TEAM-BODY
 10
-187.955883
 20
792.057342
 30
0.0
  0
VERTEX
  5
13D
  8
TEAM-BODY
 10
-187.955883
 20
792.057342
 30
0.0
  0
VERTEX
  5
13E
  8
TEAM-BODY
 10
-182.076568
 20
754.000227
 30
0.0
 42
0.389695
  0
VERTEX
  5
13F
  8
TEAM-BODY
 10
-171.823533
 20
745.057342
 30
0.0
  0
VERTEX
  5
140
  8
TEAM-BODY
 10
171.82363
 20
745.057342
 30
0.0
 42
0.375262
  0
VERTEX
  5
141
  8
TEAM-BODY
 10
182.062805
 20
754.001651
 30
0.0
  0
VERTEX
  5
142
  8
TEAM-BODY
 10
187.955883
 20
792.057342
 30
0.0
  0
SEQEND
  5
143
  8
TEAM-BODY
  0
POLYLINE
  5
31
  8
TEAM-BODY
 66
     1
 10
0.0
 20
0.0
 30
0.0
  0
VERTEX
  5
144
  8
TEAM-BODY
 10
0.0
 20
850.0
 30
0.0
  0
VERTEX
  5
145
  8
TEAM-BODY
 10
0.0
 20
850.0
 30
0.0
  0
VERTEX
  5
146
  8
TEAM-BODY
 10
219.406838
 20
850.043533
 30
0.0
 42
-0.434337
  0
VERTEX
  5
147
  8
TEAM-BODY
 10
225.0
 20
844.057342
 30
0.0
 42
-0.061822
  0
VERTEX
  5
148
  8
TEAM-BODY
 10
219.067514
 20
796.449056
 30
0.0
 42
-0.388539
  0
VERTEX
  5
149
  8
TEAM-BODY
 10
213.28708
 20
792.057342
 30
0.0
  0
VERTEX
  5
14A
  8
TEAM-BODY
 10
-213.28708
 20
792.057342
 30
0.0
 42
-0.336789
  0
VERTEX
  5
14B
  8
TEAM-BODY
 10
-219.067514
 20
796.449056
 30
0.0
 42
-0.061825
  0
VERTEX
  5
14C
  8
TEAM-BODY
 10
-225.0
 20
844.057342
 30
0.0
 42
-0.361129
  0
VERTEX
  5
14D
  8
TEAM-BODY
 10
-219.824233
 20
850.0
 30
0.0
  0
VERTEX
  5
14E
  8
TEAM-BODY
 10
0.0
 20
850.0
 30
0.0
  0
SEQEND
  5
14F
  8
TEAM-BODY
  0
TEXT
  5
32
  8
TEAM-TXT
 10
-102.315485
 20
751.634801
 30
0.0
 40
30.0
  1
team 221348
 41
0.8
 51
15.0
  7
TEAM
  0
LINE
  5
35
  8
TEAM-AXE
 10
50.0
 20
810.0
 30
0.0
 11
100.0
 21
810.0
 31
0.0
  0
POLYLINE
  5
38
  8
TEAM-HIDE
 66
     1
 10
0.0
 20
0.0
 30
0.0
 70
     1
  0
VERTEX
  5
150
  8
TEAM-HIDE
 10
86.0
 20
801.0
 30
0.0
 42
1.0
  0
VERTEX
  5
151
  8
TEAM-HIDE
 10
86.0
 20
819.0
 30
0.0
  0
VERTEX
  5
152
  8
TEAM-HIDE
 10
64.0
 20
819.0
 30
0.0
 42
1.0
  0
VERTEX
  5
153
  8
TEAM-HIDE
 10
64.0
 20
801.0
 30
0.0
  0
SEQEND
  5
154
  8
TEAM-HIDE
  0
CIRCLE
  5
3B
  8
TEAM-INSP
 10
0.0
 20
0.0
 30
0.0
 40
10.0
  0
POLYLINE
  5
3D
  8
TEAM-BODY
 66
     1
 10
0.0
 20
0.0
 30
0.0
  0
VERTEX
  5
155
  8
TEAM-BODY
 10
-36.768705
 20
745.057342
 30
0.0
  0
VERTEX
  5
156
  8
TEAM-BODY
 10
-35.475007
 20
726.605151
 30
0.0
 42
0.399578
  0
VERTEX
  5
157
  8
TEAM-BODY
 10
-33.711313
 20
724.99769
 30
0.0
  0
VERTEX
  5
158
  8
TEAM-BODY
 10
33.711313
 20
724.99769
 30
0.0
 42
0.387338
  0
VERTEX
  5
159
  8
TEAM-BODY
 10
35.475007
 20
726.605151
 30
0.0
  0
VERTEX
  5
15A
  8
TEAM-BODY
 10
36.768705
 20
745.057342
 30
0.0
  0
SEQEND
  5
15B
  8
TEAM-BODY
  0
LINE
  5
3E
  8
TEAM-AXE
 10
-75.0
 20
549.783522
 30
0.0
 11
-75.0
 21
569.783522
 31
0.0
  0
LINE
  5
3F
  8
TEAM-AXE
 10
-65.050126
 20
559.783522
 30
0.0
 11
-84.949874
 21
559.783522
 31
0.0
  0
CIRCLE
  5
40
  8
TEAM-WARM
 10
-75.0
 20
559.783522
 30
0.0
 40
10.0
  0
CIRCLE
  5
42
  8
TEAM-KAN
 10
0.0
 20
560.0
 30
0.0
 40
20.0
  0
LINE
  5
44
  8
TEAM-AXE
 10
20.0
 20
560.0
 30
0.0
 11
-20.0
 21
560.0
 31
0.0
  0
LINE
  5
45
  8
TEAM-AXE
 10
0.0
 20
540.0
 30
0.0
 11
0.0
 21
580.0
 31
0.0
  0
LINE
  5
46
  8
TEAM-AXE
 10
-100.0
 20
810.0
 30
0.0
 11
-50.0
 21
810.0
 31
0.0
  0
LINE
  5
47
  8
TEAM-AXE
 10
-75.0
 20
824.0
 30
0.0
 11
-75.0
 21
796.0
 31
0.0
  0
POLYLINE
  5
48
  8
TEAM-HIDE
 66
     1
 10
0.0
 20
0.0
 30
0.0
 70
     1
  0
VERTEX
  5
15C
  8
TEAM-HIDE
 10
-64.0
 20
801.0
 30
0.0
 42
1.0
  0
VERTEX
  5
15D
  8
TEAM-HIDE
 10
-64.0
 20
819.0
 30
0.0
  0
VERTEX
  5
15E
  8
TEAM-HIDE
 10
-86.0
 20
819.0
 30
0.0
 42
1.0
  0
VERTEX
  5
15F
  8
TEAM-HIDE
 10
-86.0
 20
801.0
 30
0.0
  0
SEQEND
  5
160
  8
TEAM-HIDE
  0
LINE
  5
49
  8
TEAM-AXE
 10
0.0
 20
527.015383
 30
0.0
 11
0.0
 21
843.734431
 31
0.0
  0
LINE
  5
4A
  8
TEAM-AXE
 10
84.949874
 20
560.0
 30
0.0
 11
65.050126
 21
560.0
 31
0.0
  0
LINE
  5
4B
  8
TEAM-AXE
 10
75.0
 20
550.0
 30
0.0
 11
75.0
 21
570.0
 31
0.0
  0
CIRCLE
  5
4C
  8
TEAM-COLD
 10
75.0
 20
560.0
 30
0.0
 40
10.0
  0
LINE
  5
4E
  8
TEAM-AXE
 10
75.0
 20
824.0
 30
0.0
 11
75.0
 21
796.0
 31
0.0
  0
DIMENSION
  5
4F
  8
TEAM-MAS
  2
*D7
 10
304.329716
 20
724.99769
 30
10.0
 11
304.329716
 21
787.5
 31
0.0
 12
-12000.0
 22
-84000.0
 32
0.0
 70
   128
 13
190.0
 23
850.0
 33
10.0
 14
33.711313
 24
724.99769
 34
0.0
 50
90.0
1001
ACAD
1000
DSTYLE
1002
{
1070
    40
1040
1.0
1002
}
  0
DIMENSION
  5
5D
  8
TEAM-MAS
  2
*D6
 10
394.880833
 20
0.0
 30
10.0
 11
394.880833
 21
425.0
 31
0.0
 12
-12000.0
 22
-84000.0
 32
0.0
 13
297.329716
 23
850.0
 33
10.0
 14
0.0
 24
0.0
 34
0.0
 50
90.0
1001
ACAD
1000
DSTYLE
1002
{
1070
    40
1040
1.0
1002
}
  0
DIMENSION
  5
6B
  8
TEAM-MAS
  2
*D5
 10
-225.0
 20
921.880597
 30
0.0
 11
0.0
 21
921.880597
 31
0.0
 12
-12000.0
 22
-84000.0
 32
0.0
 13
225.0
 23
844.057342
 33
0.0
 14
-225.0
 24
844.057342
 34
0.0
1001
ACAD
1000
DSTYLE
1002
{
1070
    40
1040
1.0
1002
}
  0
DIMENSION
  5
79
  8
TEAM-MAS
  2
*D4
 10
75.0
 20
879.546338
 30
0.0
 11
0.0
 21
879.546338
 31
0.0
 12
-12000.0
 22
-84000.0
 32
0.0
 13
-75.0
 23
824.0
 33
0.0
 14
75.0
 24
824.0
 34
0.0
1001
ACAD
1000
DSTYLE
1002
{
1070
    40
1040
1.0
1002
}
  0
DIMENSION
  5
87
  8
TEAM-MAS
  2
*D3
 10
262.43822
 20
810.0
 30
0.0
 11
262.946515
 21
917.011699
 31
0.0
 12
-8000.0
 22
-76000.0
 32
0.0
 70
   128
 13
228.592488
 23
850.0
 33
0.0
 14
100.0
 24
810.0
 34
0.0
 50
90.0
1001
ACAD
1000
DSTYLE
1002
{
1070
    40
1040
1.0
1002
}
  0
DIMENSION
  5
96
  8
TEAM-MAS
  2
*D2
 10
350.513986
 20
850.0
 30
0.0
 11
350.513986
 21
705.0
 31
0.0
 12
-8000.0
 22
-76000.0
 32
0.0
 13
75.0
 23
560.0
 33
0.0
 14
223.592488
 24
850.0
 34
0.0
 50
90.0
1001
ACAD
1000
DSTYLE
1002
{
1070
    40
1040
1.0
1002
}
  0
DIMENSION
  5
A4
  8
TEAM-MAS
  2
*D1
 10
75.0
 20
450.600574
 30
10.0
 11
0.0
 21
450.600574
 31
-20.0
 12
-12000.0
 22
-84050.0
 32
-20.0
 70
   128
 13
-75.0
 23
549.783522
 33
0.0
 14
75.0
 24
550.0
 34
0.0
1001
ACAD
1000
DSTYLE
1002
{
1070
    40
1040
1.0
1002
}
  0
ENDSEC
  0
EOF
