  0
SECTION
  2
HEADER
  9
$ACADVER
  1
AC1009
  9
$INSBASE
 10
0.0
 20
0.0
 30
0.0
  9
$EXTMIN
 10
-180.085279
 20
-657.20632
 30
-0.000305
  9
$EXTMAX
 10
287.834802
 20
10.020319
 30
10.000305
  9
$LIMMIN
 10
-180.085279
 20
-657.20632
  9
$LIMMAX
 10
287.834802
 20
10.020319
  9
$ORTHOMODE
 70
     1
  9
$REGENMODE
 70
     1
  9
$FILLMODE
 70
     1
  9
$QTEXTMODE
 70
     0
  9
$MIRRTEXT
 70
     0
  9
$DRAGMODE
 70
     2
  9
$LTSCALE
 40
25.0
  9
$OSMODE
 70
     0
  9
$ATTMODE
 70
     1
  9
$TEXTSIZE
 40
200.0
  9
$TRACEWID
 40
1.0
  9
$TEXTSTYLE
  7
STANDARD
  9
$CLAYER
  8
TEAM-MAS
  9
$CELTYPE
  6
BYLAYER
  9
$CECOLOR
 62
   256
  9
$DIMSCALE
 40
0.0
  9
$DIMASZ
 40
20.0
  9
$DIMEXO
 40
10.0
  9
$DIMDLI
 40
1.0
  9
$DIMRND
 40
0.0
  9
$DIMDLE
 40
0.0
  9
$DIMEXE
 40
1.0
  9
$DIMTP
 40
0.0
  9
$DIMTM
 40
0.0
  9
$DIMTXT
 40
35.0
  9
$DIMCEN
 40
1.0
  9
$DIMTSZ
 40
0.0
  9
$DIMTOL
 70
     0
  9
$DIMLIM
 70
     0
  9
$DIMTIH
 70
     0
  9
$DIMTOH
 70
     0
  9
$DIMSE1
 70
     0
  9
$DIMSE2
 70
     0
  9
$DIMTAD
 70
     0
  9
$DIMZIN
 70
     0
  9
$DIMBLK
  1

  9
$DIMASO
 70
     1
  9
$DIMSHO
 70
     0
  9
$DIMPOST
  1

  9
$DIMAPOST
  1

  9
$DIMALT
 70
     0
  9
$DIMALTD
 70
     2
  9
$DIMALTF
 40
25.4
  9
$DIMLFAC
 40
1.0
  9
$DIMTOFL
 70
     0
  9
$DIMTVP
 40
0.0
  9
$DIMTIX
 70
     0
  9
$DIMSOXD
 70
     0
  9
$DIMSAH
 70
     0
  9
$DIMBLK1
  1

  9
$DIMBLK2
  1

  9
$DIMSTYLE
  2
TEAM
  9
$DIMCLRD
 70
     9
  9
$DIMCLRE
 70
     9
  9
$DIMCLRT
 70
    11
  9
$DIMTFAC
 40
1.0
  9
$DIMGAP
 40
15.0
  9
$LUNITS
 70
     2
  9
$LUPREC
 70
     1
  9
$SKETCHINC
 40
1.0
  9
$FILLETRAD
 40
10.0
  9
$AUNITS
 70
     0
  9
$AUPREC
 70
     0
  9
$MENU
  1
ROPLANS
  9
$ELEVATION
 40
0.0
  9
$PELEVATION
 40
0.0
  9
$THICKNESS
 40
0.0
  9
$LIMCHECK
 70
     0
  9
$BLIPMODE
 70
     1
  9
$CHAMFERA
 40
0.0
  9
$CHAMFERB
 40
0.0
  9
$SKPOLY
 70
     0
  9
$TDCREATE
 40
2450392.957851
  9
$TDUPDATE
 40
2455538.902851
  9
$TDINDWG
 40
2.437341
  9
$TDUSRTIMER
 40
2.437341
  9
$USRTIMER
 70
     1
  9
$ANGBASE
 50
0.0
  9
$ANGDIR
 70
     0
  9
$PDMODE
 70
     0
  9
$PDSIZE
 40
0.0
  9
$PLINEWID
 40
0.0
  9
$COORDS
 70
     2
  9
$SPLFRAME
 70
     0
  9
$SPLINETYPE
 70
     6
  9
$SPLINESEGS
 70
     8
  9
$ATTDIA
 70
     0
  9
$ATTREQ
 70
     0
  9
$HANDLING
 70
     1
  9
$HANDSEED
  5
AE
  9
$SURFTAB1
 70
    36
  9
$SURFTAB2
 70
    36
  9
$SURFTYPE
 70
     6
  9
$SURFU
 70
     6
  9
$SURFV
 70
     6
  9
$UCSNAME
  2

  9
$UCSORG
 10
0.0
 20
0.0
 30
0.0
  9
$UCSXDIR
 10
1.0
 20
0.0
 30
0.0
  9
$UCSYDIR
 10
0.0
 20
1.0
 30
0.0
  9
$PUCSNAME
  2

  9
$PUCSORG
 10
0.0
 20
0.0
 30
0.0
  9
$PUCSXDIR
 10
1.0
 20
0.0
 30
0.0
  9
$PUCSYDIR
 10
0.0
 20
1.0
 30
0.0
  9
$USERI1
 70
     0
  9
$USERI2
 70
     0
  9
$USERI3
 70
     0
  9
$USERI4
 70
     0
  9
$USERI5
 70
     0
  9
$USERR1
 40
0.0
  9
$USERR2
 40
0.0
  9
$USERR3
 40
0.0
  9
$USERR4
 40
0.0
  9
$USERR5
 40
0.0
  9
$WORLDVIEW
 70
     1
  9
$SHADEDGE
 70
     0
  9
$SHADEDIF
 70
    70
  9
$TILEMODE
 70
     1
  9
$MAXACTVP
 70
    16
  9
$PLIMCHECK
 70
     0
  9
$PEXTMIN
 10
-0.805942
 20
0.005011
 30
0.0
  9
$PEXTMAX
 10
20.250094
 20
11.356329
 30
0.0
  9
$PLIMMIN
 10
0.0
 20
0.0
  9
$PLIMMAX
 10
12.0
 20
9.0
  9
$UNITMODE
 70
     0
  9
$VISRETAIN
 70
     0
  9
$PLINEGEN
 70
     0
  9
$PSLTSCALE
 70
     0
  0
ENDSEC
  0
SECTION
  2
TABLES
  0
TABLE
  2
VPORT
 70
     2
  0
VPORT
  2
*ACTIVE
 70
     0
 10
0.0
 20
0.0
 11
1.0
 21
1.0
 12
53.874762
 22
-323.593001
 13
0.0
 23
0.0
 14
1.0
 24
1.0
 15
50.0
 25
50.0
 16
0.0
 26
0.0
 36
1.0
 17
0.0
 27
0.0
 37
0.0
 40
671.324244
 41
1.865779
 42
50.0
 43
0.0
 44
0.0
 50
0.0
 51
0.0
 71
     0
 72
   100
 73
     1
 74
     1
 75
     0
 76
     0
 77
     0
 78
     0
  0
ENDTAB
  0
TABLE
  2
LTYPE
 70
     2
  0
LTYPE
  2
CONTINUOUS
 70
     0
  3
Solid Line
 72
    65
 73
     0
 40
0.0
  0
LTYPE
  2
31
 70
     0
  3

 72
    65
 73
     4
 40
2.1
 49
1.5
 49
-0.3
 49
0.0
 49
-0.3
  0
ENDTAB
  0
TABLE
  2
LAYER
 70
     8
  0
LAYER
  2
0
 70
     0
 62
     7
  6
CONTINUOUS
  0
LAYER
  2
DEFPOINTS
 70
     0
 62
     7
  6
CONTINUOUS
  0
LAYER
  2
TEAM-BODY
 70
     0
 62
     2
  6
CONTINUOUS
  0
LAYER
  2
TEAM-AXE
 70
     0
 62
    10
  6
31
  0
LAYER
  2
TEAM-MAS
 70
     0
 62
     9
  6
CONTINUOUS
  0
LAYER
  2
TEAM-TXT
 70
     0
 62
    11
  6
CONTINUOUS
  0
LAYER
  2
TEAM-DET1
 70
     0
 62
     4
  6
CONTINUOUS
  0
LAYER
  2
TEAM-INSP
 70
     0
 62
     5
  6
CONTINUOUS
  0
ENDTAB
  0
TABLE
  2
STYLE
 70
     2
  0
STYLE
  2
STANDARD
 70
     0
 40
0.0
 41
1.0
 50
0.0
 71
     0
 42
200.0
  3
txt
  4

  0
STYLE
  2
TEAM
 70
     0
 40
0.0
 41
0.8
 50
15.0
 71
     0
 42
7.0
  3
ROMANS.shx
  4

  0
ENDTAB
  0
TABLE
  2
VIEW
 70
     0
  0
ENDTAB
  0
TABLE
  2
UCS
 70
     0
  0
ENDTAB
  0
TABLE
  2
APPID
 70
     1
  0
APPID
  2
ACAD
 70
     0
  0
ENDTAB
  0
TABLE
  2
DIMSTYLE
 70
     1
  0
DIMSTYLE
  2
TEAM
 70
     0
  3

  4

  5

  6

  7

 40
0.0
 41
20.0
 42
10.0
 43
1.0
 44
1.0
 45
0.0
 46
0.0
 47
0.0
 48
0.0
140
35.0
141
1.0
142
0.0
143
25.4
144
1.0
145
0.0
146
1.0
147
15.0
 71
     0
 72
     0
 73
     0
 74
     0
 75
     0
 76
     0
 77
     0
 78
     0
170
     0
171
     2
172
     0
173
     0
174
     0
175
     0
176
     9
177
     9
178
    11
  0
ENDTAB
  0
ENDSEC
  0
SECTION
  2
BLOCKS
  0
BLOCK
  8
0
  2
$MODEL_SPACE
 70
     0
 10
0.0
 20
0.0
 30
0.0
  3
$MODEL_SPACE
  1

  0
ENDBLK
  5
9B
  8
0
  0
BLOCK
 67
     1
  8
0
  2
$PAPER_SPACE
 70
     0
 10
0.0
 20
0.0
 30
0.0
  3
$PAPER_SPACE
  1

  0
ENDBLK
  5
99
 67
     1
  8
0
  0
BLOCK
  8
0
  2
*D0
 70
     1
 10
0.0
 20
0.0
 30
0.0
  3
*D0
  1

  0
LINE
  5
22
  8
0
  6
BYBLOCK
 62
     9
 10
3820.00012
 20
7812.364635
 30
0.0
 11
3820.00012
 21
7359.0
 31
0.0
  0
LINE
  5
23
  8
0
  6
BYBLOCK
 62
     9
 10
4179.99988
 20
7812.364635
 30
0.0
 11
4179.99988
 21
7359.0
 31
0.0
  0
LINE
  5
24
  8
0
  6
BYBLOCK
 62
     9
 10
3840.00012
 20
7360.0
 30
0.0
 11
3953.48622
 21
7360.0
 31
0.0
  0
LINE
  5
25
  8
0
  6
BYBLOCK
 62
     9
 10
4159.99988
 20
7360.0
 30
0.0
 11
4046.51378
 21
7360.0
 31
0.0
  0
SOLID
  5
26
  8
0
  6
BYBLOCK
 62
     9
 10
3840.00012
 20
7363.333333
 30
0.0
 11
3840.00012
 21
7356.666667
 31
0.0
 12
3820.00012
 22
7360.0
 32
0.0
 13
3820.00012
 23
7360.0
 33
0.0
  0
SOLID
  5
27
  8
0
  6
BYBLOCK
 62
     9
 10
4159.99988
 20
7363.333333
 30
0.0
 11
4159.99988
 21
7356.666667
 31
0.0
 12
4179.99988
 22
7360.0
 32
0.0
 13
4179.99988
 23
7360.0
 33
0.0
  0
TEXT
  5
28
  8
0
  6
BYBLOCK
 62
    11
 10
3963.23622
 20
7342.5
 30
0.0
 40
35.0
  1
360
  0
POINT
  5
29
  8
DEFPOINTS
  6
BYBLOCK
 62
     0
 10
3820.00012
 20
7822.364635
 30
0.0
  0
POINT
  5
2B
  8
DEFPOINTS
  6
BYBLOCK
 62
     0
 10
4179.99988
 20
7822.364635
 30
0.0
  0
POINT
  5
2C
  8
DEFPOINTS
  6
BYBLOCK
 62
     0
 10
4179.99988
 20
7360.0
 30
10.0
  0
ENDBLK
  5
2E
  8
0
  0
BLOCK
  8
0
  2
*D1
 70
     1
 10
0.0
 20
0.0
 30
0.0
  3
*D1
  1

  0
LINE
  5
31
  8
0
  6
BYBLOCK
 62
     9
 10
4168.744096
 20
8000.0
 30
0.0
 11
4271.633457
 21
8000.0
 31
0.0
  0
LINE
  5
32
  8
0
  6
BYBLOCK
 62
     9
 10
4010.0
 20
7439.999389
 30
0.0
 11
4271.633457
 21
7439.999389
 31
0.0
  0
LINE
  5
33
  8
0
  6
BYBLOCK
 62
     9
 10
4270.633457
 20
7980.0
 30
0.0
 11
4270.633457
 21
7766.513474
 31
0.0
  0
LINE
  5
34
  8
0
  6
BYBLOCK
 62
     9
 10
4270.633457
 20
7459.999389
 30
0.0
 11
4270.633457
 21
7673.485915
 31
0.0
  0
SOLID
  5
35
  8
0
  6
BYBLOCK
 62
     9
 10
4267.300124
 20
7980.0
 30
0.0
 11
4273.966791
 21
7980.0
 31
0.0
 12
4270.633457
 22
8000.0
 32
0.0
 13
4270.633457
 23
8000.0
 33
0.0
  0
SOLID
  5
36
  8
0
  6
BYBLOCK
 62
     9
 10
4267.300124
 20
7459.999389
 30
0.0
 11
4273.966791
 21
7459.999389
 31
0.0
 12
4270.633457
 22
7439.999389
 32
0.0
 13
4270.633457
 23
7439.999389
 33
0.0
  0
TEXT
  5
37
  8
0
  6
BYBLOCK
 62
    11
 10
4288.133457
 20
7683.235915
 30
0.0
 40
35.0
  1
560
 50
90.0
  0
POINT
  5
38
  8
DEFPOINTS
  6
BYBLOCK
 62
     0
 10
4158.744096
 20
8000.0
 30
10.0
  0
POINT
  5
39
  8
DEFPOINTS
  6
BYBLOCK
 62
     0
 10
4000.0
 20
7439.999389
 30
0.0
  0
POINT
  5
3A
  8
DEFPOINTS
  6
BYBLOCK
 62
     0
 10
4270.633457
 20
7439.999389
 30
10.0
  0
ENDBLK
  5
3C
  8
0
  0
ENDSEC
  0
SECTION
  2
ENTITIES
  0
DIMENSION
  5
20
  8
TEAM-MAS
  2
*D0
 10
179.99988
 20
-640.0
 30
10.0
 11
0.0
 21
-640.0
 31
0.0
 12
-4000.0
 22
-8000.0
 32
0.0
 13
-179.99988
 23
-177.635365
 33
0.0
 14
179.99988
 24
-177.635365
 34
0.0
1001
ACAD
1000
DSTYLE
1002
{
1070
    40
1040
1.0
1002
}
  0
DIMENSION
  5
2F
  8
TEAM-MAS
  2
*D1
 10
270.633457
 20
-560.000611
 30
10.0
 11
270.633457
 21
-280.000305
 31
0.0
 12
-4000.0
 22
-8000.0
 32
0.0
 13
158.744096
 23
0.0
 33
10.0
 14
0.0
 24
-560.000611
 34
0.0
 50
90.0
1001
ACAD
1000
DSTYLE
1002
{
1070
    40
1040
1.0
1002
}
  0
LINE
  5
3D
  8
TEAM-DET1
 10
129.730143
 20
-161.048705
 30
0.0
 11
129.730143
 21
0.0
 31
0.0
  0
LINE
  5
3F
  8
TEAM-DET1
 10
-129.730143
 20
-161.059181
 30
0.0
 11
-129.730143
 21
0.0
 31
0.0
  0
POLYLINE
  5
40
  8
TEAM-BODY
 66
     1
 10
0.0
 20
0.0
 30
0.0
 70
     1
  0
VERTEX
  5
A1
  8
TEAM-BODY
 10
-179.99988
 20
-375.270731
 30
0.0
 42
1.02647
  0
VERTEX
  5
A2
  8
TEAM-BODY
 10
179.99988
 20
-375.270731
 30
0.0
  0
VERTEX
  5
A3
  8
TEAM-BODY
 10
179.99988
 20
0.0
 30
0.0
  0
VERTEX
  5
A4
  8
TEAM-BODY
 10
-179.99988
 20
0.0
 30
0.0
  0
SEQEND
  5
A5
  8
TEAM-BODY
  0
LINE
  5
42
  8
TEAM-AXE
 10
0.0
 20
-195.0
 30
0.0
 11
47.5
 21
-195.0
 31
0.0
  0
CIRCLE
  5
45
  8
TEAM-DET1
 10
0.0
 20
-195.0
 30
0.0
 40
37.5
  0
CIRCLE
  5
46
  8
TEAM-BODY
 10
0.0
 20
-195.0
 30
0.0
 40
24.0
  0
LINE
  5
47
  8
TEAM-AXE
 10
0.0
 20
-195.0
 30
0.0
 11
0.0
 21
-242.5
 31
0.0
  0
LINE
  5
48
  8
TEAM-AXE
 10
0.0
 20
-195.0
 30
0.0
 11
-47.5
 21
-195.0
 31
0.0
  0
LINE
  5
49
  8
TEAM-AXE
 10
0.0
 20
-195.0
 30
0.0
 11
0.0
 21
-147.5
 31
0.0
  0
LINE
  5
4A
  8
TEAM-AXE
 10
24.5
 20
-66.429149
 30
0.0
 11
-24.5
 21
-66.429149
 31
0.0
  0
CIRCLE
  5
4B
  8
TEAM-DET1
 10
0.0
 20
-66.429149
 30
0.0
 40
17.5
  0
LINE
  5
4C
  8
TEAM-AXE
 10
0.0
 20
-41.929149
 30
0.0
 11
0.0
 21
-90.929149
 31
0.0
  0
POLYLINE
  5
4D
  8
TEAM-DET1
 66
     1
 10
0.0
 20
0.0
 30
0.0
 70
     1
  0
VERTEX
  5
A6
  8
TEAM-DET1
 10
-99.731644
 20
-131.059181
 30
0.0
  0
VERTEX
  5
A7
  8
TEAM-DET1
 10
99.728643
 20
-131.048705
 30
0.0
 42
-0.414228
  0
VERTEX
  5
A8
  8
TEAM-DET1
 10
129.730143
 20
-161.048705
 30
0.0
  0
VERTEX
  5
A9
  8
TEAM-DET1
 10
129.730143
 20
-375.270731
 30
0.0
 42
-1.038909
  0
VERTEX
  5
AA
  8
TEAM-DET1
 10
-129.730143
 20
-375.270731
 30
0.0
  0
VERTEX
  5
AB
  8
TEAM-DET1
 10
-129.730143
 20
-161.059181
 30
0.0
 42
-0.414199
  0
SEQEND
  5
AC
  8
TEAM-DET1
  0
TEXT
  5
4E
  8
TEAM-TXT
 10
-142.24649
 20
-304.091373
 30
0.0
 40
30.0
  1
team 228040
 41
0.8
 51
15.0
  7
TEAM
  0
CIRCLE
  5
51
  8
TEAM-INSP
 10
0.0
 20
0.0
 30
0.0
 40
10.0
  0
ENDSEC
  0
EOF
