  0
SECTION
  2
HEADER
  9
$ACADVER
  1
AC1009
  9
$INSBASE
 10
0.0
 20
0.0
 30
0.0
  9
$EXTMIN
 10
-88.956622
 20
-10.024208
 30
-0.000002
  9
$EXTMAX
 10
582.781616
 20
510.573195
 30
0.000005
  9
$LIMMIN
 10
-88.956622
 20
-10.024208
  9
$LIMMAX
 10
582.781616
 20
510.573195
  9
$ORTHOMODE
 70
     1
  9
$REGENMODE
 70
     1
  9
$FILLMODE
 70
     1
  9
$QTEXTMODE
 70
     0
  9
$MIRRTEXT
 70
     0
  9
$DRAGMODE
 70
     2
  9
$LTSCALE
 40
25.0
  9
$OSMODE
 70
     0
  9
$ATTMODE
 70
     1
  9
$TEXTSIZE
 40
200.0
  9
$TRACEWID
 40
1.0
  9
$TEXTSTYLE
  7
STANDARD
  9
$CLAYER
  8
TEAM-MAS
  9
$CELTYPE
  6
BYLAYER
  9
$CECOLOR
 62
   256
  9
$DIMSCALE
 40
0.0
  9
$DIMASZ
 40
20.0
  9
$DIMEXO
 40
10.0
  9
$DIMDLI
 40
1.0
  9
$DIMRND
 40
0.0
  9
$DIMDLE
 40
0.0
  9
$DIMEXE
 40
1.0
  9
$DIMTP
 40
0.0
  9
$DIMTM
 40
0.0
  9
$DIMTXT
 40
35.0
  9
$DIMCEN
 40
1.0
  9
$DIMTSZ
 40
0.0
  9
$DIMTOL
 70
     0
  9
$DIMLIM
 70
     0
  9
$DIMTIH
 70
     0
  9
$DIMTOH
 70
     0
  9
$DIMSE1
 70
     0
  9
$DIMSE2
 70
     0
  9
$DIMTAD
 70
     0
  9
$DIMZIN
 70
     0
  9
$DIMBLK
  1

  9
$DIMASO
 70
     1
  9
$DIMSHO
 70
     0
  9
$DIMPOST
  1

  9
$DIMAPOST
  1

  9
$DIMALT
 70
     0
  9
$DIMALTD
 70
     2
  9
$DIMALTF
 40
25.4
  9
$DIMLFAC
 40
1.0
  9
$DIMTOFL
 70
     0
  9
$DIMTVP
 40
0.0
  9
$DIMTIX
 70
     0
  9
$DIMSOXD
 70
     0
  9
$DIMSAH
 70
     0
  9
$DIMBLK1
  1

  9
$DIMBLK2
  1

  9
$DIMSTYLE
  2
TEAM
  9
$DIMCLRD
 70
     9
  9
$DIMCLRE
 70
     9
  9
$DIMCLRT
 70
    11
  9
$DIMTFAC
 40
1.0
  9
$DIMGAP
 40
15.0
  9
$LUNITS
 70
     2
  9
$LUPREC
 70
     1
  9
$SKETCHINC
 40
1.0
  9
$FILLETRAD
 40
10.0
  9
$AUNITS
 70
     0
  9
$AUPREC
 70
     0
  9
$MENU
  1
ROPLANS
  9
$ELEVATION
 40
0.0
  9
$PELEVATION
 40
0.0
  9
$THICKNESS
 40
0.0
  9
$LIMCHECK
 70
     0
  9
$BLIPMODE
 70
     1
  9
$CHAMFERA
 40
0.0
  9
$CHAMFERB
 40
0.0
  9
$SKPOLY
 70
     0
  9
$TDCREATE
 40
2450392.957851
  9
$TDUPDATE
 40
2455538.902851
  9
$TDINDWG
 40
2.437341
  9
$TDUSRTIMER
 40
2.437341
  9
$USRTIMER
 70
     1
  9
$ANGBASE
 50
0.0
  9
$ANGDIR
 70
     0
  9
$PDMODE
 70
     0
  9
$PDSIZE
 40
0.0
  9
$PLINEWID
 40
0.0
  9
$COORDS
 70
     2
  9
$SPLFRAME
 70
     0
  9
$SPLINETYPE
 70
     6
  9
$SPLINESEGS
 70
     8
  9
$ATTDIA
 70
     0
  9
$ATTREQ
 70
     0
  9
$HANDLING
 70
     1
  9
$HANDSEED
  5
82
  9
$SURFTAB1
 70
    36
  9
$SURFTAB2
 70
    36
  9
$SURFTYPE
 70
     6
  9
$SURFU
 70
     6
  9
$SURFV
 70
     6
  9
$UCSNAME
  2

  9
$UCSORG
 10
0.0
 20
0.0
 30
0.0
  9
$UCSXDIR
 10
1.0
 20
0.0
 30
0.0
  9
$UCSYDIR
 10
0.0
 20
1.0
 30
0.0
  9
$PUCSNAME
  2

  9
$PUCSORG
 10
0.0
 20
0.0
 30
0.0
  9
$PUCSXDIR
 10
1.0
 20
0.0
 30
0.0
  9
$PUCSYDIR
 10
0.0
 20
1.0
 30
0.0
  9
$USERI1
 70
     0
  9
$USERI2
 70
     0
  9
$USERI3
 70
     0
  9
$USERI4
 70
     0
  9
$USERI5
 70
     0
  9
$USERR1
 40
0.0
  9
$USERR2
 40
0.0
  9
$USERR3
 40
0.0
  9
$USERR4
 40
0.0
  9
$USERR5
 40
0.0
  9
$WORLDVIEW
 70
     1
  9
$SHADEDGE
 70
     0
  9
$SHADEDIF
 70
    70
  9
$TILEMODE
 70
     1
  9
$MAXACTVP
 70
    16
  9
$PLIMCHECK
 70
     0
  9
$PEXTMIN
 10
-0.805942
 20
0.005011
 30
0.0
  9
$PEXTMAX
 10
20.250094
 20
11.356329
 30
0.0
  9
$PLIMMIN
 10
0.0
 20
0.0
  9
$PLIMMAX
 10
12.0
 20
9.0
  9
$UNITMODE
 70
     0
  9
$VISRETAIN
 70
     0
  9
$PLINEGEN
 70
     0
  9
$PSLTSCALE
 70
     0
  0
ENDSEC
  0
SECTION
  2
TABLES
  0
TABLE
  2
VPORT
 70
     2
  0
VPORT
  2
*ACTIVE
 70
     0
 10
0.0
 20
0.0
 11
1.0
 21
1.0
 12
246.912497
 22
250.274494
 13
0.0
 23
0.0
 14
1.0
 24
1.0
 15
50.0
 25
50.0
 16
0.0
 26
0.0
 36
1.0
 17
0.0
 27
0.0
 37
0.0
 40
523.794521
 41
1.865779
 42
50.0
 43
0.0
 44
0.0
 50
0.0
 51
0.0
 71
     0
 72
   100
 73
     1
 74
     1
 75
     0
 76
     0
 77
     0
 78
     0
  0
ENDTAB
  0
TABLE
  2
LTYPE
 70
     1
  0
LTYPE
  2
CONTINUOUS
 70
     0
  3
Solid Line
 72
    65
 73
     0
 40
0.0
  0
ENDTAB
  0
TABLE
  2
LAYER
 70
     7
  0
LAYER
  2
0
 70
     0
 62
     7
  6
CONTINUOUS
  0
LAYER
  2
DEFPOINTS
 70
     0
 62
     7
  6
CONTINUOUS
  0
LAYER
  2
TEAM-BODY
 70
     0
 62
     2
  6
CONTINUOUS
  0
LAYER
  2
TEAM-MAS
 70
     0
 62
     9
  6
CONTINUOUS
  0
LAYER
  2
TEAM-TXT
 70
     0
 62
    11
  6
CONTINUOUS
  0
LAYER
  2
TEAM-DET1
 70
     0
 62
     4
  6
CONTINUOUS
  0
LAYER
  2
TEAM-INSP
 70
     0
 62
     5
  6
CONTINUOUS
  0
ENDTAB
  0
TABLE
  2
STYLE
 70
     2
  0
STYLE
  2
STANDARD
 70
     0
 40
0.0
 41
1.0
 50
0.0
 71
     0
 42
200.0
  3
txt
  4

  0
STYLE
  2
TEAM
 70
     0
 40
0.0
 41
0.8
 50
15.0
 71
     0
 42
7.0
  3
ROMANS.shx
  4

  0
ENDTAB
  0
TABLE
  2
VIEW
 70
     0
  0
ENDTAB
  0
TABLE
  2
UCS
 70
     0
  0
ENDTAB
  0
TABLE
  2
APPID
 70
     1
  0
APPID
  2
ACAD
 70
     0
  0
ENDTAB
  0
TABLE
  2
DIMSTYLE
 70
     1
  0
DIMSTYLE
  2
TEAM
 70
     0
  3

  4

  5

  6

  7

 40
0.0
 41
20.0
 42
10.0
 43
1.0
 44
1.0
 45
0.0
 46
0.0
 47
0.0
 48
0.0
140
35.0
141
1.0
142
0.0
143
25.4
144
1.0
145
0.0
146
1.0
147
15.0
 71
     0
 72
     0
 73
     0
 74
     0
 75
     0
 76
     0
 77
     0
 78
     0
170
     0
171
     2
172
     0
173
     0
174
     0
175
     0
176
     9
177
     9
178
    11
  0
ENDTAB
  0
ENDSEC
  0
SECTION
  2
BLOCKS
  0
BLOCK
  8
0
  2
$MODEL_SPACE
 70
     0
 10
0.0
 20
0.0
 30
0.0
  3
$MODEL_SPACE
  1

  0
ENDBLK
  5
7B
  8
0
  0
BLOCK
 67
     1
  8
0
  2
$PAPER_SPACE
 70
     0
 10
0.0
 20
0.0
 30
0.0
  3
$PAPER_SPACE
  1

  0
ENDBLK
  5
79
 67
     1
  8
0
  0
BLOCK
  8
0
  2
*D0
 70
     1
 10
0.0
 20
0.0
 30
0.0
  3
*D0
  1

  0
LINE
  5
22
  8
0
  6
BYBLOCK
 62
     9
 10
8000.0
 20
8010.0
 30
0.0
 11
8000.0
 21
8494.247046
 31
0.0
  0
LINE
  5
23
  8
0
  6
BYBLOCK
 62
     9
 10
8560.000108
 20
8418.269798
 30
0.0
 11
8560.000108
 21
8494.247046
 31
0.0
  0
LINE
  5
24
  8
0
  6
BYBLOCK
 62
     9
 10
8020.0
 20
8493.247046
 30
0.0
 11
8233.486275
 21
8493.247046
 31
0.0
  0
LINE
  5
25
  8
0
  6
BYBLOCK
 62
     9
 10
8540.000108
 20
8493.247046
 30
0.0
 11
8326.513834
 21
8493.247046
 31
0.0
  0
SOLID
  5
26
  8
0
  6
BYBLOCK
 62
     9
 10
8020.0
 20
8496.580379
 30
0.0
 11
8020.0
 21
8489.913713
 31
0.0
 12
8000.0
 22
8493.247046
 32
0.0
 13
8000.0
 23
8493.247046
 33
0.0
  0
SOLID
  5
27
  8
0
  6
BYBLOCK
 62
     9
 10
8540.000108
 20
8496.580379
 30
0.0
 11
8540.000108
 21
8489.913713
 31
0.0
 12
8560.000108
 22
8493.247046
 32
0.0
 13
8560.000108
 23
8493.247046
 33
0.0
  0
TEXT
  5
28
  8
0
  6
BYBLOCK
 62
    11
 10
8243.236275
 20
8475.747046
 30
0.0
 40
35.0
  1
560
  0
POINT
  5
29
  8
DEFPOINTS
  6
BYBLOCK
 62
     0
 10
8000.0
 20
8000.0
 30
0.0
  0
POINT
  5
2B
  8
DEFPOINTS
  6
BYBLOCK
 62
     0
 10
8560.000108
 20
8408.269798
 30
0.0
  0
POINT
  5
2C
  8
DEFPOINTS
  6
BYBLOCK
 62
     0
 10
8560.000108
 20
8493.247046
 30
0.0
  0
ENDBLK
  5
2E
  8
0
  0
BLOCK
  8
0
  2
*D1
 70
     1
 10
0.0
 20
0.0
 30
0.0
  3
*D1
  1

  0
LINE
  5
36
  8
0
  6
BYBLOCK
 62
     9
 10
8017.751449
 20
8420.003296
 30
0.0
 11
7927.586678
 21
8420.003296
 31
0.0
  0
LINE
  5
37
  8
0
  6
BYBLOCK
 62
     9
 10
7990.0
 20
8000.0
 30
0.0
 11
7927.586678
 21
8000.0
 31
0.0
  0
LINE
  5
38
  8
0
  6
BYBLOCK
 62
     9
 10
7928.586678
 20
8400.003296
 30
0.0
 11
7928.586678
 21
8258.265428
 31
0.0
  0
LINE
  5
39
  8
0
  6
BYBLOCK
 62
     9
 10
7928.586678
 20
8020.0
 30
0.0
 11
7928.586678
 21
8161.737869
 31
0.0
  0
SOLID
  5
3A
  8
0
  6
BYBLOCK
 62
     9
 10
7925.253344
 20
8400.003296
 30
0.0
 11
7931.920011
 21
8400.003296
 31
0.0
 12
7928.586678
 22
8420.003296
 32
0.0
 13
7928.586678
 23
8420.003296
 33
0.0
  0
SOLID
  5
3B
  8
0
  6
BYBLOCK
 62
     9
 10
7925.253344
 20
8020.0
 30
0.0
 11
7931.920011
 21
8020.0
 31
0.0
 12
7928.586678
 22
8000.0
 32
0.0
 13
7928.586678
 23
8000.0
 33
0.0
  0
TEXT
  5
3C
  8
0
  6
BYBLOCK
 62
    11
 10
7946.086678
 20
8171.487869
 30
0.0
 40
35.0
  1
420
 50
90.0
  0
POINT
  5
3D
  8
DEFPOINTS
  6
BYBLOCK
 62
     0
 10
8027.751449
 20
8420.003296
 30
0.0
  0
POINT
  5
3E
  8
DEFPOINTS
  6
BYBLOCK
 62
     0
 10
8000.0
 20
8000.0
 30
0.0
  0
POINT
  5
3F
  8
DEFPOINTS
  6
BYBLOCK
 62
     0
 10
7928.586678
 20
8000.0
 30
0.0
  0
ENDBLK
  5
41
  8
0
  0
ENDSEC
  0
SECTION
  2
ENTITIES
  0
DIMENSION
  5
20
  8
TEAM-MAS
  2
*D0
 10
560.000108
 20
493.247046
 30
0.0
 11
280.000054
 21
493.247046
 31
0.0
 12
-8000.0
 22
-8000.0
 32
0.0
 13
0.0
 23
0.0
 33
0.0
 14
560.000108
 24
408.269798
 34
0.0
1001
ACAD
1000
DSTYLE
1002
{
1070
    40
1040
1.0
1002
}
  0
LINE
  5
2F
  8
TEAM-BODY
 10
0.0
 20
420.0
 30
0.0
 11
549.019585
 21
420.0
 31
0.0
  0
LINE
  5
31
  8
TEAM-BODY
 10
432.889147
 20
0.0
 30
0.0
 11
0.0
 21
0.0
 31
0.0
  0
LINE
  5
32
  8
TEAM-DET1
 10
343.449123
 20
193.587454
 30
0.0
 11
11.889
 21
193.587454
 31
0.0
  0
DIMENSION
  5
34
  8
TEAM-MAS
  2
*D1
 10
-71.413322
 20
0.0
 30
0.0
 11
-71.413322
 21
210.001648
 31
0.0
 12
-8000.0
 22
-8000.0
 32
0.0
 13
27.751449
 23
420.003296
 33
0.0
 14
0.0
 24
0.0
 34
0.0
 50
90.0
1001
ACAD
1000
DSTYLE
1002
{
1070
    40
1040
1.0
1002
}
  0
LINE
  5
42
  8
TEAM-BODY
 10
0.0
 20
420.0
 30
0.0
 11
0.0
 21
0.0
 31
0.0
  0
CIRCLE
  5
43
  8
TEAM-INSP
 10
0.0
 20
0.0
 30
0.0
 40
10.0
  0
TEXT
  5
45
  8
TEAM-TXT
 10
145.224576
 20
293.954247
 30
0.0
 40
30.0
  1
team 228040
 41
0.8
 51
15.0
  7
TEAM
  0
ARC
  5
48
  8
TEAM-BODY
 10
284.967763
 20
437.244767
 30
0.0
 40
276.554407
 50
303.297671
 51
353.986009
  0
ARC
  5
49
  8
TEAM-BODY
 10
450.032909
 20
191.102188
 30
0.0
 40
20.0
 50
131.452054
 51
182.0
  0
ARC
  5
4A
  8
TEAM-BODY
 10
432.889147
 20
3.0
 30
0.0
 40
3.0
 50
270.0
 51
2.0
  0
LINE
  5
4B
  8
TEAM-BODY
 10
435.88732
 20
3.104698
 30
0.0
 11
430.045093
 21
190.404198
 31
0.0
  0
ARC
  5
4C
  8
TEAM-BODY
 10
550.070022
 20
409.978824
 30
0.0
 40
10.07608
 50
350.234729
 51
95.983987
  0
ENDSEC
  0
EOF
