  0
SECTION
  2
HEADER
  9
$ACADVER
  1
AC1009
  9
$INSBASE
 10
0.0
 20
0.0
 30
0.0
  9
$EXTMIN
 10
-273.022631
 20
-62.139631
 30
-0.001526
  9
$EXTMAX
 10
247.71749
 20
420.014714
 30
0.0
  9
$LIMMIN
 10
-273.022631
 20
-62.139631
  9
$LIMMAX
 10
247.71749
 20
420.014714
  9
$ORTHOMODE
 70
     1
  9
$REGENMODE
 70
     1
  9
$FILLMODE
 70
     1
  9
$QTEXTMODE
 70
     0
  9
$MIRRTEXT
 70
     0
  9
$DRAGMODE
 70
     2
  9
$LTSCALE
 40
25.0
  9
$OSMODE
 70
     0
  9
$ATTMODE
 70
     1
  9
$TEXTSIZE
 40
200.0
  9
$TRACEWID
 40
1.0
  9
$TEXTSTYLE
  7
STANDARD
  9
$CLAYER
  8
TEAM-MAS
  9
$CELTYPE
  6
BYLAYER
  9
$CECOLOR
 62
   256
  9
$DIMSCALE
 40
0.0
  9
$DIMASZ
 40
20.0
  9
$DIMEXO
 40
10.0
  9
$DIMDLI
 40
1.0
  9
$DIMRND
 40
0.0
  9
$DIMDLE
 40
0.0
  9
$DIMEXE
 40
1.0
  9
$DIMTP
 40
0.0
  9
$DIMTM
 40
0.0
  9
$DIMTXT
 40
35.0
  9
$DIMCEN
 40
1.0
  9
$DIMTSZ
 40
0.0
  9
$DIMTOL
 70
     0
  9
$DIMLIM
 70
     0
  9
$DIMTIH
 70
     0
  9
$DIMTOH
 70
     0
  9
$DIMSE1
 70
     0
  9
$DIMSE2
 70
     0
  9
$DIMTAD
 70
     0
  9
$DIMZIN
 70
     0
  9
$DIMBLK
  1

  9
$DIMASO
 70
     1
  9
$DIMSHO
 70
     0
  9
$DIMPOST
  1

  9
$DIMAPOST
  1

  9
$DIMALT
 70
     0
  9
$DIMALTD
 70
     2
  9
$DIMALTF
 40
25.4
  9
$DIMLFAC
 40
1.0
  9
$DIMTOFL
 70
     0
  9
$DIMTVP
 40
0.0
  9
$DIMTIX
 70
     0
  9
$DIMSOXD
 70
     0
  9
$DIMSAH
 70
     0
  9
$DIMBLK1
  1

  9
$DIMBLK2
  1

  9
$DIMSTYLE
  2
TEAM
  9
$DIMCLRD
 70
     9
  9
$DIMCLRE
 70
     9
  9
$DIMCLRT
 70
    11
  9
$DIMTFAC
 40
1.0
  9
$DIMGAP
 40
15.0
  9
$LUNITS
 70
     2
  9
$LUPREC
 70
     1
  9
$SKETCHINC
 40
1.0
  9
$FILLETRAD
 40
10.0
  9
$AUNITS
 70
     0
  9
$AUPREC
 70
     0
  9
$MENU
  1
ROPLANS
  9
$ELEVATION
 40
0.0
  9
$PELEVATION
 40
0.0
  9
$THICKNESS
 40
0.0
  9
$LIMCHECK
 70
     0
  9
$BLIPMODE
 70
     1
  9
$CHAMFERA
 40
0.0
  9
$CHAMFERB
 40
0.0
  9
$SKPOLY
 70
     0
  9
$TDCREATE
 40
2450392.957851
  9
$TDUPDATE
 40
2455538.902851
  9
$TDINDWG
 40
2.437341
  9
$TDUSRTIMER
 40
2.437341
  9
$USRTIMER
 70
     1
  9
$ANGBASE
 50
0.0
  9
$ANGDIR
 70
     0
  9
$PDMODE
 70
     0
  9
$PDSIZE
 40
0.0
  9
$PLINEWID
 40
0.0
  9
$COORDS
 70
     2
  9
$SPLFRAME
 70
     0
  9
$SPLINETYPE
 70
     6
  9
$SPLINESEGS
 70
     8
  9
$ATTDIA
 70
     0
  9
$ATTREQ
 70
     0
  9
$HANDLING
 70
     1
  9
$HANDSEED
  5
B5
  9
$SURFTAB1
 70
    36
  9
$SURFTAB2
 70
    36
  9
$SURFTYPE
 70
     6
  9
$SURFU
 70
     6
  9
$SURFV
 70
     6
  9
$UCSNAME
  2

  9
$UCSORG
 10
0.0
 20
0.0
 30
0.0
  9
$UCSXDIR
 10
1.0
 20
0.0
 30
0.0
  9
$UCSYDIR
 10
0.0
 20
1.0
 30
0.0
  9
$PUCSNAME
  2

  9
$PUCSORG
 10
0.0
 20
0.0
 30
0.0
  9
$PUCSXDIR
 10
1.0
 20
0.0
 30
0.0
  9
$PUCSYDIR
 10
0.0
 20
1.0
 30
0.0
  9
$USERI1
 70
     0
  9
$USERI2
 70
     0
  9
$USERI3
 70
     0
  9
$USERI4
 70
     0
  9
$USERI5
 70
     0
  9
$USERR1
 40
0.0
  9
$USERR2
 40
0.0
  9
$USERR3
 40
0.0
  9
$USERR4
 40
0.0
  9
$USERR5
 40
0.0
  9
$WORLDVIEW
 70
     1
  9
$SHADEDGE
 70
     0
  9
$SHADEDIF
 70
    70
  9
$TILEMODE
 70
     1
  9
$MAXACTVP
 70
    16
  9
$PLIMCHECK
 70
     0
  9
$PEXTMIN
 10
-0.805942
 20
0.005011
 30
0.0
  9
$PEXTMAX
 10
20.250094
 20
11.356329
 30
0.0
  9
$PLIMMIN
 10
0.0
 20
0.0
  9
$PLIMMAX
 10
12.0
 20
9.0
  9
$UNITMODE
 70
     0
  9
$VISRETAIN
 70
     0
  9
$PLINEGEN
 70
     0
  9
$PSLTSCALE
 70
     0
  0
ENDSEC
  0
SECTION
  2
TABLES
  0
TABLE
  2
VPORT
 70
     2
  0
VPORT
  2
*ACTIVE
 70
     0
 10
0.0
 20
0.0
 11
1.0
 21
1.0
 12
-12.65257
 22
178.937542
 13
0.0
 23
0.0
 14
1.0
 24
1.0
 15
50.0
 25
50.0
 16
0.0
 26
0.0
 36
1.0
 17
0.0
 27
0.0
 37
0.0
 40
485.115375
 41
1.865779
 42
50.0
 43
0.0
 44
0.0
 50
0.0
 51
0.0
 71
     0
 72
   100
 73
     1
 74
     1
 75
     0
 76
     0
 77
     0
 78
     0
  0
ENDTAB
  0
TABLE
  2
LTYPE
 70
     2
  0
LTYPE
  2
CONTINUOUS
 70
     0
  3
Solid Line
 72
    65
 73
     0
 40
0.0
  0
LTYPE
  2
31
 70
     0
  3

 72
    65
 73
     4
 40
2.1
 49
1.5
 49
-0.3
 49
0.0
 49
-0.3
  0
ENDTAB
  0
TABLE
  2
LAYER
 70
    10
  0
LAYER
  2
0
 70
     0
 62
     7
  6
CONTINUOUS
  0
LAYER
  2
DEFPOINTS
 70
     0
 62
     7
  6
CONTINUOUS
  0
LAYER
  2
TEAM-BODY
 70
     0
 62
     2
  6
CONTINUOUS
  0
LAYER
  2
TEAM-AXE
 70
     0
 62
    10
  6
31
  0
LAYER
  2
TEAM-MAS
 70
     0
 62
     9
  6
CONTINUOUS
  0
LAYER
  2
TEAM-TXT
 70
     0
 62
    11
  6
CONTINUOUS
  0
LAYER
  2
TEAM-COLD
 70
     0
 62
     3
  6
CONTINUOUS
  0
LAYER
  2
TEAM-KAN
 70
     0
 62
     6
  6
CONTINUOUS
  0
LAYER
  2
TEAM-WARM
 70
     0
 62
     1
  6
CONTINUOUS
  0
LAYER
  2
TEAM-INSP
 70
     0
 62
     5
  6
CONTINUOUS
  0
ENDTAB
  0
TABLE
  2
STYLE
 70
     2
  0
STYLE
  2
STANDARD
 70
     0
 40
0.0
 41
1.0
 50
0.0
 71
     0
 42
200.0
  3
txt
  4

  0
STYLE
  2
TEAM
 70
     0
 40
0.0
 41
0.8
 50
15.0
 71
     0
 42
7.0
  3
ROMANS.shx
  4

  0
ENDTAB
  0
TABLE
  2
VIEW
 70
     0
  0
ENDTAB
  0
TABLE
  2
UCS
 70
     0
  0
ENDTAB
  0
TABLE
  2
APPID
 70
     1
  0
APPID
  2
ACAD
 70
     0
  0
ENDTAB
  0
TABLE
  2
DIMSTYLE
 70
     1
  0
DIMSTYLE
  2
TEAM
 70
     0
  3

  4

  5

  6

  7

 40
0.0
 41
20.0
 42
10.0
 43
1.0
 44
1.0
 45
0.0
 46
0.0
 47
0.0
 48
0.0
140
35.0
141
1.0
142
0.0
143
25.4
144
1.0
145
0.0
146
1.0
147
15.0
 71
     0
 72
     0
 73
     0
 74
     0
 75
     0
 76
     0
 77
     0
 78
     0
170
     0
171
     2
172
     0
173
     0
174
     0
175
     0
176
     9
177
     9
178
    11
  0
ENDTAB
  0
ENDSEC
  0
SECTION
  2
BLOCKS
  0
BLOCK
  8
0
  2
$MODEL_SPACE
 70
     0
 10
0.0
 20
0.0
 30
0.0
  3
$MODEL_SPACE
  1

  0
ENDBLK
  5
AE
  8
0
  0
BLOCK
 67
     1
  8
0
  2
$PAPER_SPACE
 70
     0
 10
0.0
 20
0.0
 30
0.0
  3
$PAPER_SPACE
  1

  0
ENDBLK
  5
AC
 67
     1
  8
0
  0
BLOCK
  8
0
  2
*D0
 70
     1
 10
0.0
 20
0.0
 30
0.0
  3
*D0
  1

  0
LINE
  5
22
  8
0
  6
BYBLOCK
 62
     9
 10
12010.0
 20
8000.0
 30
0.0
 11
12232.937819
 21
8000.0
 31
0.0
  0
LINE
  5
23
  8
0
  6
BYBLOCK
 62
     9
 10
12157.998834
 20
8420.0
 30
0.0
 11
12232.937819
 21
8420.0
 31
0.0
  0
LINE
  5
24
  8
0
  6
BYBLOCK
 62
     9
 10
12231.937819
 20
8020.0
 30
0.0
 11
12231.937819
 21
8161.73622
 31
0.0
  0
LINE
  5
25
  8
0
  6
BYBLOCK
 62
     9
 10
12231.937819
 20
8400.0
 30
0.0
 11
12231.937819
 21
8258.26378
 31
0.0
  0
SOLID
  5
26
  8
0
  6
BYBLOCK
 62
     9
 10
12228.604485
 20
8020.0
 30
0.0
 11
12235.271152
 21
8020.0
 31
0.0
 12
12231.937819
 22
8000.0
 32
0.0
 13
12231.937819
 23
8000.0
 33
0.0
  0
SOLID
  5
27
  8
0
  6
BYBLOCK
 62
     9
 10
12228.604485
 20
8400.0
 30
0.0
 11
12235.271152
 21
8400.0
 31
0.0
 12
12231.937819
 22
8420.0
 32
0.0
 13
12231.937819
 23
8420.0
 33
0.0
  0
TEXT
  5
28
  8
0
  6
BYBLOCK
 62
    11
 10
12249.437819
 20
8171.48622
 30
0.0
 40
35.0
  1
420
 50
90.0
  0
POINT
  5
29
  8
DEFPOINTS
  6
BYBLOCK
 62
     0
 10
12000.0
 20
8000.0
 30
0.0
  0
POINT
  5
2B
  8
DEFPOINTS
  6
BYBLOCK
 62
     0
 10
12147.998834
 20
8420.0
 30
0.0
  0
POINT
  5
2C
  8
DEFPOINTS
  6
BYBLOCK
 62
     0
 10
12231.937819
 20
8420.0
 30
0.0
  0
ENDBLK
  5
2E
  8
0
  0
BLOCK
  8
0
  2
*D1
 70
     1
 10
0.0
 20
0.0
 30
0.0
  3
*D1
  1

  0
LINE
  5
31
  8
0
  6
BYBLOCK
 62
     9
 10
11960.0
 20
8154.0
 30
0.0
 11
11960.0
 21
7940.208415
 31
0.0
  0
LINE
  5
32
  8
0
  6
BYBLOCK
 62
     9
 10
12040.0
 20
8154.0
 30
0.0
 11
12040.0
 21
7940.208415
 31
0.0
  0
LINE
  5
33
  8
0
  6
BYBLOCK
 62
     9
 10
11980.0
 20
7941.208415
 30
0.0
 11
11995.0
 21
7941.208415
 31
0.0
  0
LINE
  5
34
  8
0
  6
BYBLOCK
 62
     9
 10
12020.0
 20
7941.208415
 30
0.0
 11
12005.0
 21
7941.208415
 31
0.0
  0
TEXT
  5
35
  8
0
  6
BYBLOCK
 62
    11
 10
11975.48622
 20
7945.052009
 30
0.0
 40
35.0
  1
80
  0
SOLID
  5
36
  8
0
  6
BYBLOCK
 62
     9
 10
11980.0
 20
7944.541748
 30
0.0
 11
11980.0
 21
7937.875081
 31
0.0
 12
11960.0
 22
7941.208415
 32
0.0
 13
11960.0
 23
7941.208415
 33
0.0
  0
SOLID
  5
37
  8
0
  6
BYBLOCK
 62
     9
 10
12020.0
 20
7944.541748
 30
0.0
 11
12020.0
 21
7937.875081
 31
0.0
 12
12040.0
 22
7941.208415
 32
0.0
 13
12040.0
 23
7941.208415
 33
0.0
  0
POINT
  5
38
  8
DEFPOINTS
  6
BYBLOCK
 62
     0
 10
11960.0
 20
8164.0
 30
0.0
  0
POINT
  5
39
  8
DEFPOINTS
  6
BYBLOCK
 62
     0
 10
12040.0
 20
8164.0
 30
0.0
  0
POINT
  5
3A
  8
DEFPOINTS
  6
BYBLOCK
 62
     0
 10
12040.0
 20
7941.208415
 30
0.0
  0
ENDBLK
  5
3C
  8
0
  0
BLOCK
  8
0
  2
*D2
 70
     1
 10
0.0
 20
0.0
 30
0.0
  3
*D2
  1

  0
LINE
  5
3F
  8
0
  6
BYBLOCK
 62
     9
 10
11990.0
 20
8000.0
 30
0.0
 11
11798.53839
 21
8000.0
 31
0.0
  0
LINE
  5
40
  8
0
  6
BYBLOCK
 62
     9
 10
11960.0
 20
8120.0
 30
0.0
 11
11798.53839
 21
8120.0
 31
0.0
  0
LINE
  5
41
  8
0
  6
BYBLOCK
 62
     9
 10
11799.53839
 20
8020.0
 30
0.0
 11
11799.53839
 21
8035.0
 31
0.0
  0
LINE
  5
42
  8
0
  6
BYBLOCK
 62
     9
 10
11799.53839
 20
8100.0
 30
0.0
 11
11799.53839
 21
8085.0
 31
0.0
  0
TEXT
  5
43
  8
0
  6
BYBLOCK
 62
    11
 10
11817.03839
 20
8026.73622
 30
0.0
 40
35.0
  1
120
 50
90.0
  0
SOLID
  5
44
  8
0
  6
BYBLOCK
 62
     9
 10
11796.205056
 20
8020.0
 30
0.0
 11
11802.871723
 21
8020.0
 31
0.0
 12
11799.53839
 22
8000.0
 32
0.0
 13
11799.53839
 23
8000.0
 33
0.0
  0
SOLID
  5
45
  8
0
  6
BYBLOCK
 62
     9
 10
11796.205056
 20
8100.0
 30
0.0
 11
11802.871723
 21
8100.0
 31
0.0
 12
11799.53839
 22
8120.0
 32
0.0
 13
11799.53839
 23
8120.0
 33
0.0
  0
POINT
  5
46
  8
DEFPOINTS
  6
BYBLOCK
 62
     0
 10
12000.0
 20
8000.0
 30
0.0
  0
POINT
  5
47
  8
DEFPOINTS
  6
BYBLOCK
 62
     0
 10
11970.0
 20
8120.0
 30
0.0
  0
POINT
  5
48
  8
DEFPOINTS
  6
BYBLOCK
 62
     0
 10
11799.53839
 20
8120.0
 30
0.0
  0
ENDBLK
  5
4A
  8
0
  0
BLOCK
  8
0
  2
*D3
 70
     1
 10
0.0
 20
0.0
 30
0.0
  3
*D3
  1

  0
LINE
  5
4D
  8
0
  6
BYBLOCK
 62
     9
 10
11990.0
 20
8000.0
 30
0.0
 11
11741.757038
 21
8000.0
 31
0.0
  0
LINE
  5
4E
  8
0
  6
BYBLOCK
 62
     9
 10
11934.0
 20
8180.0
 30
0.0
 11
11741.757038
 21
8180.0
 31
0.0
  0
LINE
  5
4F
  8
0
  6
BYBLOCK
 62
     9
 10
11742.757038
 20
8020.0
 30
0.0
 11
11742.757038
 21
8046.98622
 31
0.0
  0
LINE
  5
50
  8
0
  6
BYBLOCK
 62
     9
 10
11742.757038
 20
8160.0
 30
0.0
 11
11742.757038
 21
8133.01378
 31
0.0
  0
TEXT
  5
51
  8
0
  6
BYBLOCK
 62
    11
 10
11760.257038
 20
8056.73622
 30
0.0
 40
35.0
  1
180
 50
90.0
  0
SOLID
  5
52
  8
0
  6
BYBLOCK
 62
     9
 10
11739.423705
 20
8020.0
 30
0.0
 11
11746.090372
 21
8020.0
 31
0.0
 12
11742.757038
 22
8000.0
 32
0.0
 13
11742.757038
 23
8000.0
 33
0.0
  0
SOLID
  5
53
  8
0
  6
BYBLOCK
 62
     9
 10
11739.423705
 20
8160.0
 30
0.0
 11
11746.090372
 21
8160.0
 31
0.0
 12
11742.757038
 22
8180.0
 32
0.0
 13
11742.757038
 23
8180.0
 33
0.0
  0
POINT
  5
54
  8
DEFPOINTS
  6
BYBLOCK
 62
     0
 10
12000.0
 20
8000.0
 30
0.0
  0
POINT
  5
55
  8
DEFPOINTS
  6
BYBLOCK
 62
     0
 10
11944.0
 20
8180.0
 30
0.0
  0
POINT
  5
56
  8
DEFPOINTS
  6
BYBLOCK
 62
     0
 10
11742.757038
 20
8180.0
 30
0.0
  0
ENDBLK
  5
58
  8
0
  0
ENDSEC
  0
SECTION
  2
ENTITIES
  0
DIMENSION
  5
20
  8
TEAM-MAS
  2
*D0
 10
231.937819
 20
420.0
 30
0.0
 11
231.937819
 21
210.0
 31
0.0
 12
-12000.0
 22
-8000.0
 32
0.0
 13
0.0
 23
0.0
 33
0.0
 14
147.998834
 24
420.0
 34
0.0
 50
90.0
1001
ACAD
1000
DSTYLE
1002
{
1070
    40
1040
1.0
1002
}
  0
DIMENSION
  5
2F
  8
TEAM-MAS
  2
*D1
 10
40.0
 20
-58.791585
 30
0.0
 11
0.0
 21
-37.447991
 31
0.0
 12
-12000.0
 22
-8000.0
 32
0.0
 70
   128
 13
-40.0
 23
164.0
 33
0.0
 14
40.0
 24
164.0
 34
0.0
1001
ACAD
1000
DSTYLE
1002
{
1070
    40
1040
1.0
1002
}
  0
DIMENSION
  5
3D
  8
TEAM-MAS
  2
*D2
 10
-200.46161
 20
120.0
 30
0.0
 11
-200.46161
 21
60.0
 31
0.0
 12
-12000.0
 22
-8000.0
 32
0.0
 70
   128
 13
0.0
 23
0.0
 33
0.0
 14
-30.0
 24
120.0
 34
0.0
 50
90.0
1001
ACAD
1000
DSTYLE
1002
{
1070
    40
1040
1.0
1002
}
  0
DIMENSION
  5
4B
  8
TEAM-MAS
  2
*D3
 10
-257.242962
 20
180.0
 30
0.0
 11
-257.242962
 21
90.0
 31
0.0
 12
-12000.0
 22
-8000.0
 32
0.0
 70
   128
 13
0.0
 23
0.0
 33
0.0
 14
-56.0
 24
180.0
 34
0.0
 50
90.0
1001
ACAD
1000
DSTYLE
1002
{
1070
    40
1040
1.0
1002
}
  0
TEXT
  5
59
  8
TEAM-TXT
 10
-129.374668
 20
269.545129
 30
0.0
 40
30.0
  1
team 228040
 41
0.8
 51
15.0
  7
TEAM
  0
ARC
  5
5C
  8
TEAM-BODY
 10
265.826679
 20
408.912402
 30
0.0
 40
445.964531
 50
178.575362
 51
209.21783
  0
ARC
  5
5E
  8
TEAM-BODY
 10
-265.826679
 20
408.912402
 30
0.0
 40
445.964531
 50
330.78217
 51
1.424638
  0
LINE
  5
5F
  8
TEAM-AXE
 10
-35.0
 20
180.0
 30
0.0
 11
-24.0
 21
180.0
 31
0.0
  0
LINE
  5
62
  8
TEAM-AXE
 10
-45.0
 20
180.0
 30
0.0
 11
-56.0
 21
180.0
 31
0.0
  0
LINE
  5
63
  8
TEAM-AXE
 10
-40.0
 20
175.0
 30
0.0
 11
-40.0
 21
164.0
 31
0.0
  0
CIRCLE
  5
64
  8
TEAM-WARM
 10
-40.0
 20
180.0
 30
0.0
 40
7.0
  0
LINE
  5
66
  8
TEAM-AXE
 10
-40.0
 20
185.0
 30
0.0
 11
-40.0
 21
196.0
 31
0.0
  0
LINE
  5
67
  8
TEAM-AXE
 10
0.0
 20
120.0
 30
0.0
 11
0.0
 21
150.0
 31
0.0
  0
CIRCLE
  5
68
  8
TEAM-KAN
 10
0.0
 20
120.0
 30
0.0
 40
20.0
  0
LINE
  5
6A
  8
TEAM-AXE
 10
0.0
 20
120.0
 30
0.0
 11
30.0
 21
120.0
 31
0.0
  0
LINE
  5
6B
  8
TEAM-AXE
 10
0.0
 20
120.0
 30
0.0
 11
-30.0
 21
120.0
 31
0.0
  0
LINE
  5
6C
  8
TEAM-AXE
 10
0.0
 20
120.0
 30
0.0
 11
0.0
 21
90.0
 31
0.0
  0
LINE
  5
6D
  8
TEAM-AXE
 10
45.0
 20
180.0
 30
0.0
 11
56.0
 21
180.0
 31
0.0
  0
LINE
  5
6E
  8
TEAM-AXE
 10
40.0
 20
175.0
 30
0.0
 11
40.0
 21
164.0
 31
0.0
  0
CIRCLE
  5
6F
  8
TEAM-COLD
 10
40.0
 20
180.0
 30
0.0
 40
7.0
  0
LINE
  5
71
  8
TEAM-AXE
 10
40.0
 20
185.0
 30
0.0
 11
40.0
 21
196.0
 31
0.0
  0
LINE
  5
72
  8
TEAM-AXE
 10
35.0
 20
180.0
 30
0.0
 11
24.0
 21
180.0
 31
0.0
  0
LINE
  5
73
  8
TEAM-BODY
 10
123.397881
 20
191.223164
 30
0.0
 11
129.971793
 21
0.0
 31
0.0
  0
LINE
  5
74
  8
TEAM-BODY
 10
129.971793
 20
0.0
 30
0.0
 11
0.0
 21
0.0
 31
0.0
  0
LINE
  5
75
  8
TEAM-BODY
 10
-123.397881
 20
191.223164
 30
0.0
 11
-129.971793
 21
0.0
 31
0.0
  0
LINE
  5
76
  8
TEAM-BODY
 10
-129.971793
 20
0.0
 30
0.0
 11
0.0
 21
0.0
 31
0.0
  0
LINE
  5
77
  8
TEAM-BODY
 10
180.0
 20
420.0
 30
0.0
 11
-180.0
 21
420.0
 31
0.0
  0
CIRCLE
  5
78
  8
TEAM-INSP
 10
0.0
 20
0.0
 30
0.0
 40
10.0
  0
ENDSEC
  0
EOF
