  0
SECTION
  2
HEADER
  9
$ACADVER
  1
AC1009
  9
$INSBASE
 10
0.0
 20
0.0
 30
0.0
  9
$EXTMIN
 10
-267.703558
 20
-506.925967
 30
-0.000213
  9
$EXTMAX
 10
403.235943
 20
10.038711
 30
10.000409
  9
$LIMMIN
 10
-267.703558
 20
-506.925967
  9
$LIMMAX
 10
403.235943
 20
10.038711
  9
$ORTHOMODE
 70
     1
  9
$REGENMODE
 70
     1
  9
$FILLMODE
 70
     1
  9
$QTEXTMODE
 70
     0
  9
$MIRRTEXT
 70
     0
  9
$DRAGMODE
 70
     2
  9
$LTSCALE
 40
25.0
  9
$OSMODE
 70
     0
  9
$ATTMODE
 70
     1
  9
$TEXTSIZE
 40
200.0
  9
$TRACEWID
 40
1.0
  9
$TEXTSTYLE
  7
STANDARD
  9
$CLAYER
  8
TEAM-MAS
  9
$CELTYPE
  6
BYLAYER
  9
$CECOLOR
 62
   256
  9
$DIMSCALE
 40
0.0
  9
$DIMASZ
 40
20.0
  9
$DIMEXO
 40
10.0
  9
$DIMDLI
 40
1.0
  9
$DIMRND
 40
0.0
  9
$DIMDLE
 40
0.0
  9
$DIMEXE
 40
1.0
  9
$DIMTP
 40
0.0
  9
$DIMTM
 40
0.0
  9
$DIMTXT
 40
35.0
  9
$DIMCEN
 40
1.0
  9
$DIMTSZ
 40
0.0
  9
$DIMTOL
 70
     0
  9
$DIMLIM
 70
     0
  9
$DIMTIH
 70
     0
  9
$DIMTOH
 70
     0
  9
$DIMSE1
 70
     0
  9
$DIMSE2
 70
     0
  9
$DIMTAD
 70
     0
  9
$DIMZIN
 70
     0
  9
$DIMBLK
  1

  9
$DIMASO
 70
     1
  9
$DIMSHO
 70
     0
  9
$DIMPOST
  1

  9
$DIMAPOST
  1

  9
$DIMALT
 70
     0
  9
$DIMALTD
 70
     2
  9
$DIMALTF
 40
25.4
  9
$DIMLFAC
 40
1.0
  9
$DIMTOFL
 70
     0
  9
$DIMTVP
 40
0.0
  9
$DIMTIX
 70
     0
  9
$DIMSOXD
 70
     0
  9
$DIMSAH
 70
     0
  9
$DIMBLK1
  1

  9
$DIMBLK2
  1

  9
$DIMSTYLE
  2
TEAM
  9
$DIMCLRD
 70
     9
  9
$DIMCLRE
 70
     9
  9
$DIMCLRT
 70
    11
  9
$DIMTFAC
 40
1.0
  9
$DIMGAP
 40
15.0
  9
$LUNITS
 70
     2
  9
$LUPREC
 70
     1
  9
$SKETCHINC
 40
1.0
  9
$FILLETRAD
 40
10.0
  9
$AUNITS
 70
     0
  9
$AUPREC
 70
     0
  9
$MENU
  1
ROPLANS
  9
$ELEVATION
 40
0.0
  9
$PELEVATION
 40
0.0
  9
$THICKNESS
 40
0.0
  9
$LIMCHECK
 70
     0
  9
$BLIPMODE
 70
     1
  9
$CHAMFERA
 40
0.0
  9
$CHAMFERB
 40
0.0
  9
$SKPOLY
 70
     0
  9
$TDCREATE
 40
2450392.957851
  9
$TDUPDATE
 40
2455538.902851
  9
$TDINDWG
 40
2.437341
  9
$TDUSRTIMER
 40
2.437341
  9
$USRTIMER
 70
     1
  9
$ANGBASE
 50
0.0
  9
$ANGDIR
 70
     0
  9
$PDMODE
 70
     0
  9
$PDSIZE
 40
0.0
  9
$PLINEWID
 40
0.0
  9
$COORDS
 70
     2
  9
$SPLFRAME
 70
     0
  9
$SPLINETYPE
 70
     6
  9
$SPLINESEGS
 70
     8
  9
$ATTDIA
 70
     0
  9
$ATTREQ
 70
     0
  9
$HANDLING
 70
     1
  9
$HANDSEED
  5
120
  9
$SURFTAB1
 70
    36
  9
$SURFTAB2
 70
    36
  9
$SURFTYPE
 70
     6
  9
$SURFU
 70
     6
  9
$SURFV
 70
     6
  9
$UCSNAME
  2

  9
$UCSORG
 10
0.0
 20
0.0
 30
0.0
  9
$UCSXDIR
 10
1.0
 20
0.0
 30
0.0
  9
$UCSYDIR
 10
0.0
 20
1.0
 30
0.0
  9
$PUCSNAME
  2

  9
$PUCSORG
 10
0.0
 20
0.0
 30
0.0
  9
$PUCSXDIR
 10
1.0
 20
0.0
 30
0.0
  9
$PUCSYDIR
 10
0.0
 20
1.0
 30
0.0
  9
$USERI1
 70
     0
  9
$USERI2
 70
     0
  9
$USERI3
 70
     0
  9
$USERI4
 70
     0
  9
$USERI5
 70
     0
  9
$USERR1
 40
0.0
  9
$USERR2
 40
0.0
  9
$USERR3
 40
0.0
  9
$USERR4
 40
0.0
  9
$USERR5
 40
0.0
  9
$WORLDVIEW
 70
     1
  9
$SHADEDGE
 70
     0
  9
$SHADEDIF
 70
    70
  9
$TILEMODE
 70
     1
  9
$MAXACTVP
 70
    16
  9
$PLIMCHECK
 70
     0
  9
$PEXTMIN
 10
-0.805942
 20
0.005011
 30
0.0
  9
$PEXTMAX
 10
20.250094
 20
11.356329
 30
0.0
  9
$PLIMMIN
 10
0.0
 20
0.0
  9
$PLIMMAX
 10
12.0
 20
9.0
  9
$UNITMODE
 70
     0
  9
$VISRETAIN
 70
     0
  9
$PLINEGEN
 70
     0
  9
$PSLTSCALE
 70
     0
  0
ENDSEC
  0
SECTION
  2
TABLES
  0
TABLE
  2
VPORT
 70
     2
  0
VPORT
  2
*ACTIVE
 70
     0
 10
0.0
 20
0.0
 11
1.0
 21
1.0
 12
67.766192
 22
-248.443628
 13
0.0
 23
0.0
 14
1.0
 24
1.0
 15
50.0
 25
50.0
 16
0.0
 26
0.0
 36
1.0
 17
0.0
 27
0.0
 37
0.0
 40
520.139487
 41
1.865779
 42
50.0
 43
0.0
 44
0.0
 50
0.0
 51
0.0
 71
     0
 72
   100
 73
     1
 74
     1
 75
     0
 76
     0
 77
     0
 78
     0
  0
ENDTAB
  0
TABLE
  2
LTYPE
 70
     2
  0
LTYPE
  2
CONTINUOUS
 70
     0
  3
Solid Line
 72
    65
 73
     0
 40
0.0
  0
LTYPE
  2
31
 70
     0
  3

 72
    65
 73
     4
 40
2.1
 49
1.5
 49
-0.3
 49
0.0
 49
-0.3
  0
ENDTAB
  0
TABLE
  2
LAYER
 70
     8
  0
LAYER
  2
0
 70
     0
 62
     7
  6
CONTINUOUS
  0
LAYER
  2
DEFPOINTS
 70
     0
 62
     7
  6
CONTINUOUS
  0
LAYER
  2
TEAM-BODY
 70
     0
 62
     2
  6
CONTINUOUS
  0
LAYER
  2
TEAM-AXE
 70
     0
 62
    10
  6
31
  0
LAYER
  2
TEAM-MAS
 70
     0
 62
     9
  6
CONTINUOUS
  0
LAYER
  2
TEAM-TXT
 70
     0
 62
    11
  6
CONTINUOUS
  0
LAYER
  2
TEAM-DET1
 70
     0
 62
     4
  6
CONTINUOUS
  0
LAYER
  2
TEAM-INSP
 70
     0
 62
     5
  6
CONTINUOUS
  0
ENDTAB
  0
TABLE
  2
STYLE
 70
     2
  0
STYLE
  2
STANDARD
 70
     0
 40
0.0
 41
1.0
 50
0.0
 71
     0
 42
200.0
  3
txt
  4

  0
STYLE
  2
TEAM
 70
     0
 40
0.0
 41
0.8
 50
15.0
 71
     0
 42
7.0
  3
ROMANS.shx
  4

  0
ENDTAB
  0
TABLE
  2
VIEW
 70
     0
  0
ENDTAB
  0
TABLE
  2
UCS
 70
     0
  0
ENDTAB
  0
TABLE
  2
APPID
 70
     1
  0
APPID
  2
ACAD
 70
     0
  0
ENDTAB
  0
TABLE
  2
DIMSTYLE
 70
     1
  0
DIMSTYLE
  2
TEAM
 70
     0
  3

  4

  5

  6

  7

 40
0.0
 41
20.0
 42
10.0
 43
1.0
 44
1.0
 45
0.0
 46
0.0
 47
0.0
 48
0.0
140
35.0
141
1.0
142
0.0
143
25.4
144
1.0
145
0.0
146
1.0
147
15.0
 71
     0
 72
     0
 73
     0
 74
     0
 75
     0
 76
     0
 77
     0
 78
     0
170
     0
171
     2
172
     0
173
     0
174
     0
175
     0
176
     9
177
     9
178
    11
  0
ENDTAB
  0
ENDSEC
  0
SECTION
  2
BLOCKS
  0
BLOCK
  8
0
  2
$MODEL_SPACE
 70
     0
 10
0.0
 20
0.0
 30
0.0
  3
$MODEL_SPACE
  1

  0
ENDBLK
  5
107
  8
0
  0
BLOCK
 67
     1
  8
0
  2
$PAPER_SPACE
 70
     0
 10
0.0
 20
0.0
 30
0.0
  3
$PAPER_SPACE
  1

  0
ENDBLK
  5
105
 67
     1
  8
0
  0
BLOCK
  8
0
  2
*D0
 70
     1
 10
0.0
 20
0.0
 30
0.0
  3
*D0
  1

  0
LINE
  5
54
  8
0
  6
BYBLOCK
 62
     9
 10
3737.5
 20
11615.0
 30
0.0
 11
3737.5
 21
11509.304264
 31
0.0
  0
LINE
  5
55
  8
0
  6
BYBLOCK
 62
     9
 10
4262.5
 20
11615.0
 30
0.0
 11
4262.5
 21
11509.304264
 31
0.0
  0
LINE
  5
56
  8
0
  6
BYBLOCK
 62
     9
 10
3757.5
 20
11510.304264
 30
0.0
 11
3952.775126
 21
11510.304264
 31
0.0
  0
LINE
  5
57
  8
0
  6
BYBLOCK
 62
     9
 10
4242.5
 20
11510.304264
 30
0.0
 11
4047.224874
 21
11510.304264
 31
0.0
  0
SOLID
  5
58
  8
0
  6
BYBLOCK
 62
     9
 10
3757.5
 20
11513.637597
 30
0.0
 11
3757.5
 21
11506.970931
 31
0.0
 12
3737.5
 22
11510.304264
 32
0.0
 13
3737.5
 23
11510.304264
 33
0.0
  0
SOLID
  5
59
  8
0
  6
BYBLOCK
 62
     9
 10
4242.5
 20
11513.637597
 30
0.0
 11
4242.5
 21
11506.970931
 31
0.0
 12
4262.5
 22
11510.304264
 32
0.0
 13
4262.5
 23
11510.304264
 33
0.0
  0
TEXT
  5
5A
  8
0
  6
BYBLOCK
 62
    11
 10
3962.525126
 20
11492.804264
 30
0.0
 40
35.0
  1
525
  0
POINT
  5
5B
  8
DEFPOINTS
  6
BYBLOCK
 62
     0
 10
3737.5
 20
11625.0
 30
0.0
  0
POINT
  5
5C
  8
DEFPOINTS
  6
BYBLOCK
 62
     0
 10
4262.5
 20
11625.0
 30
0.0
  0
POINT
  5
5D
  8
DEFPOINTS
  6
BYBLOCK
 62
     0
 10
4262.5
 20
11510.304264
 30
10.0
  0
ENDBLK
  5
5F
  8
0
  0
BLOCK
  8
0
  2
*D1
 70
     1
 10
0.0
 20
0.0
 30
0.0
  3
*D1
  1

  0
LINE
  5
31
  8
0
  6
BYBLOCK
 62
     9
 10
4247.5
 20
12000.0
 30
0.0
 11
4388.434773
 21
12000.0
 31
0.0
  0
LINE
  5
32
  8
0
  6
BYBLOCK
 62
     9
 10
4247.5
 20
11600.0
 30
0.0
 11
4388.434773
 21
11600.0
 31
0.0
  0
LINE
  5
33
  8
0
  6
BYBLOCK
 62
     9
 10
4387.434773
 20
11980.0
 30
0.0
 11
4387.434773
 21
11848.26378
 31
0.0
  0
LINE
  5
34
  8
0
  6
BYBLOCK
 62
     9
 10
4387.434773
 20
11620.0
 30
0.0
 11
4387.434773
 21
11751.73622
 31
0.0
  0
SOLID
  5
35
  8
0
  6
BYBLOCK
 62
     9
 10
4384.10144
 20
11980.0
 30
0.0
 11
4390.768106
 21
11980.0
 31
0.0
 12
4387.434773
 22
12000.0
 32
0.0
 13
4387.434773
 23
12000.0
 33
0.0
  0
SOLID
  5
36
  8
0
  6
BYBLOCK
 62
     9
 10
4384.10144
 20
11620.0
 30
0.0
 11
4390.768106
 21
11620.0
 31
0.0
 12
4387.434773
 22
11600.0
 32
0.0
 13
4387.434773
 23
11600.0
 33
0.0
  0
TEXT
  5
37
  8
0
  6
BYBLOCK
 62
    11
 10
4404.934773
 20
11761.48622
 30
0.0
 40
35.0
  1
400
 50
90.0
  0
POINT
  5
38
  8
DEFPOINTS
  6
BYBLOCK
 62
     0
 10
4237.5
 20
12000.0
 30
0.0
  0
POINT
  5
39
  8
DEFPOINTS
  6
BYBLOCK
 62
     0
 10
4237.5
 20
11600.0
 30
0.0
  0
POINT
  5
3A
  8
DEFPOINTS
  6
BYBLOCK
 62
     0
 10
4387.434773
 20
11600.0
 30
10.0
  0
ENDBLK
  5
3C
  8
0
  0
BLOCK
  8
0
  2
*D2
 70
     1
 10
0.0
 20
0.0
 30
0.0
  3
*D2
  1

  0
LINE
  5
22
  8
0
  6
BYBLOCK
 62
     9
 10
4246.0
 20
11982.5
 30
0.0
 11
4346.885798
 21
11982.5
 31
0.0
  0
LINE
  5
23
  8
0
  6
BYBLOCK
 62
     9
 10
4246.0
 20
11617.5
 30
0.0
 11
4346.885798
 21
11617.5
 31
0.0
  0
LINE
  5
24
  8
0
  6
BYBLOCK
 62
     9
 10
4345.885798
 20
11962.5
 30
0.0
 11
4345.885798
 21
11847.224874
 31
0.0
  0
LINE
  5
25
  8
0
  6
BYBLOCK
 62
     9
 10
4345.885798
 20
11637.5
 30
0.0
 11
4345.885798
 21
11752.775126
 31
0.0
  0
SOLID
  5
26
  8
0
  6
BYBLOCK
 62
     9
 10
4342.552465
 20
11962.5
 30
0.0
 11
4349.219132
 21
11962.5
 31
0.0
 12
4345.885798
 22
11982.5
 32
0.0
 13
4345.885798
 23
11982.5
 33
0.0
  0
SOLID
  5
27
  8
0
  6
BYBLOCK
 62
     9
 10
4342.552465
 20
11637.5
 30
0.0
 11
4349.219132
 21
11637.5
 31
0.0
 12
4345.885798
 22
11617.5
 32
0.0
 13
4345.885798
 23
11617.5
 33
0.0
  0
TEXT
  5
28
  8
0
  6
BYBLOCK
 62
    11
 10
4363.385798
 20
11762.525126
 30
0.0
 40
35.0
  1
365
 50
90.0
  0
POINT
  5
29
  8
DEFPOINTS
  6
BYBLOCK
 62
     0
 10
4236.0
 20
11982.5
 30
0.0
  0
POINT
  5
2B
  8
DEFPOINTS
  6
BYBLOCK
 62
     0
 10
4236.0
 20
11617.5
 30
0.0
  0
POINT
  5
2C
  8
DEFPOINTS
  6
BYBLOCK
 62
     0
 10
4345.885798
 20
11617.5
 30
0.0
  0
ENDBLK
  5
2E
  8
0
  0
BLOCK
  8
0
  2
*D3
 70
     1
 10
0.0
 20
0.0
 30
0.0
  3
*D3
  1

  0
LINE
  5
46
  8
0
  6
BYBLOCK
 62
     9
 10
4245.0
 20
11616.5
 30
0.0
 11
4245.0
 21
11554.033692
 31
0.0
  0
LINE
  5
47
  8
0
  6
BYBLOCK
 62
     9
 10
3755.0
 20
11616.5
 30
0.0
 11
3755.0
 21
11554.033692
 31
0.0
  0
LINE
  5
48
  8
0
  6
BYBLOCK
 62
     9
 10
4225.0
 20
11555.033692
 30
0.0
 11
4048.32493
 21
11555.033692
 31
0.0
  0
LINE
  5
49
  8
0
  6
BYBLOCK
 62
     9
 10
3775.0
 20
11555.033692
 30
0.0
 11
3951.67507
 21
11555.033692
 31
0.0
  0
SOLID
  5
4A
  8
0
  6
BYBLOCK
 62
     9
 10
4225.0
 20
11558.367026
 30
0.0
 11
4225.0
 21
11551.700359
 31
0.0
 12
4245.0
 22
11555.033692
 32
0.0
 13
4245.0
 23
11555.033692
 33
0.0
  0
SOLID
  5
4B
  8
0
  6
BYBLOCK
 62
     9
 10
3775.0
 20
11558.367026
 30
0.0
 11
3775.0
 21
11551.700359
 31
0.0
 12
3755.0
 22
11555.033692
 32
0.0
 13
3755.0
 23
11555.033692
 33
0.0
  0
TEXT
  5
4C
  8
0
  6
BYBLOCK
 62
    11
 10
3961.42507
 20
11537.533692
 30
0.0
 40
35.0
  1
490
  0
POINT
  5
4D
  8
DEFPOINTS
  6
BYBLOCK
 62
     0
 10
4245.0
 20
11626.5
 30
0.0
  0
POINT
  5
4E
  8
DEFPOINTS
  6
BYBLOCK
 62
     0
 10
3755.0
 20
11626.5
 30
0.0
  0
POINT
  5
4F
  8
DEFPOINTS
  6
BYBLOCK
 62
     0
 10
3755.0
 20
11555.033692
 30
0.0
  0
ENDBLK
  5
51
  8
0
  0
BLOCK
  8
0
  2
*D4
 70
     1
 10
0.0
 20
0.0
 30
0.0
  3
*D4
  1

  0
LINE
  5
8E
  8
0
  6
BYBLOCK
 62
     9
 10
4247.5
 20
12000.0
 30
0.0
 11
4300.601587
 21
12000.0
 31
0.0
  0
LINE
  5
8F
  8
0
  6
BYBLOCK
 62
     9
 10
4010.0
 20
11825.004704
 30
0.0
 11
4300.601587
 21
11825.004704
 31
0.0
  0
LINE
  5
90
  8
0
  6
BYBLOCK
 62
     9
 10
4299.601587
 20
11980.0
 30
0.0
 11
4299.601587
 21
11956.227226
 31
0.0
  0
LINE
  5
91
  8
0
  6
BYBLOCK
 62
     9
 10
4299.601587
 20
11845.004704
 30
0.0
 11
4299.601587
 21
11868.777478
 31
0.0
  0
SOLID
  5
92
  8
0
  6
BYBLOCK
 62
     9
 10
4296.268254
 20
11980.0
 30
0.0
 11
4302.934921
 21
11980.0
 31
0.0
 12
4299.601587
 22
12000.0
 32
0.0
 13
4299.601587
 23
12000.0
 33
0.0
  0
SOLID
  5
93
  8
0
  6
BYBLOCK
 62
     9
 10
4296.268254
 20
11845.004704
 30
0.0
 11
4302.934921
 21
11845.004704
 31
0.0
 12
4299.601587
 22
11825.004704
 32
0.0
 13
4299.601587
 23
11825.004704
 33
0.0
  0
TEXT
  5
94
  8
0
  6
BYBLOCK
 62
    11
 10
4317.101587
 20
11878.527478
 30
0.0
 40
35.0
  1
175
 50
90.0
  0
POINT
  5
95
  8
DEFPOINTS
  6
BYBLOCK
 62
     0
 10
4237.5
 20
12000.0
 30
0.0
  0
POINT
  5
96
  8
DEFPOINTS
  6
BYBLOCK
 62
     0
 10
4000.0
 20
11825.004704
 30
0.0
  0
POINT
  5
97
  8
DEFPOINTS
  6
BYBLOCK
 62
     0
 10
4299.601587
 20
11825.004704
 30
0.0
  0
ENDBLK
  5
99
  8
0
  0
ENDSEC
  0
SECTION
  2
ENTITIES
  0
DIMENSION
  5
20
  8
TEAM-MAS
  2
*D2
 10
345.885798
 20
-382.5
 30
0.0
 11
345.885798
 21
-200.0
 31
0.0
 12
-4000.0
 22
-12000.0
 32
0.0
 13
236.0
 23
-17.5
 33
0.0
 14
236.0
 24
-382.5
 34
0.0
 50
90.0
1001
ACAD
1000
DSTYLE
1002
{
1070
    40
1040
1.0
1002
}
  0
DIMENSION
  5
2F
  8
TEAM-MAS
  2
*D1
 10
387.434773
 20
-400.0
 30
10.0
 11
387.434773
 21
-200.0
 31
0.0
 12
-4000.0
 22
-12000.0
 32
0.0
 13
237.5
 23
0.0
 33
0.0
 14
237.5
 24
-400.0
 34
0.0
 50
90.0
1001
ACAD
1000
DSTYLE
1002
{
1070
    40
1040
1.0
1002
}
  0
POLYLINE
  5
3D
  8
TEAM-BODY
 66
     1
 10
0.0
 20
0.0
 30
0.0
 70
     1
  0
VERTEX
  5
10D
  8
TEAM-BODY
 10
262.5
 20
-25.0
 30
0.0
 42
0.414214
  0
VERTEX
  5
10E
  8
TEAM-BODY
 10
237.5
 20
0.0
 30
0.0
  0
VERTEX
  5
10F
  8
TEAM-BODY
 10
-237.5
 20
0.0
 30
0.0
 42
0.414214
  0
VERTEX
  5
110
  8
TEAM-BODY
 10
-262.5
 20
-25.0
 30
0.0
  0
VERTEX
  5
111
  8
TEAM-BODY
 10
-262.5
 20
-375.0
 30
0.0
 42
0.414214
  0
VERTEX
  5
112
  8
TEAM-BODY
 10
-237.5
 20
-400.0
 30
0.0
  0
VERTEX
  5
113
  8
TEAM-BODY
 10
-38.384824
 20
-400.0
 30
0.0
 42
-0.296963
  0
VERTEX
  5
114
  8
TEAM-BODY
 10
-35.640833
 20
-401.787352
 30
0.0
  0
VERTEX
  5
115
  8
TEAM-BODY
 10
-34.181105
 20
-405.090437
 30
0.0
 42
0.296963
  0
VERTEX
  5
116
  8
TEAM-BODY
 10
-31.437115
 20
-406.877789
 30
0.0
  0
VERTEX
  5
117
  8
TEAM-BODY
 10
0.0
 20
-406.877789
 30
0.0
  0
VERTEX
  5
118
  8
TEAM-BODY
 10
31.437115
 20
-406.877789
 30
0.0
 42
0.296963
  0
VERTEX
  5
119
  8
TEAM-BODY
 10
34.181105
 20
-405.090437
 30
0.0
  0
VERTEX
  5
11A
  8
TEAM-BODY
 10
35.640833
 20
-401.787352
 30
0.0
 42
-0.296963
  0
VERTEX
  5
11B
  8
TEAM-BODY
 10
38.384824
 20
-400.0
 30
0.0
  0
VERTEX
  5
11C
  8
TEAM-BODY
 10
237.5
 20
-400.0
 30
0.0
 42
0.414214
  0
VERTEX
  5
11D
  8
TEAM-BODY
 10
262.5
 20
-375.0
 30
0.0
  0
SEQEND
  5
11E
  8
TEAM-BODY
  0
LINE
  5
3F
  8
TEAM-BODY
 10
-245.0
 20
-373.5
 30
0.0
 11
-245.0
 21
-26.5
 31
0.0
  0
LINE
  5
40
  8
TEAM-BODY
 10
245.0
 20
-373.5
 30
0.0
 11
245.0
 21
-26.5
 31
0.0
  0
TEXT
  5
41
  8
TEAM-TXT
 10
-128.784275
 20
-302.407149
 30
0.0
 40
30.0
  1
team 231026
 41
0.8
 51
15.0
  7
TEAM
  0
DIMENSION
  5
44
  8
TEAM-MAS
  2
*D3
 10
-245.0
 20
-444.966308
 30
0.0
 11
0.0
 21
-444.966308
 31
0.0
 12
-4000.0
 22
-12000.0
 32
0.0
 13
245.0
 23
-373.5
 33
0.0
 14
-245.0
 24
-373.5
 34
0.0
1001
ACAD
1000
DSTYLE
1002
{
1070
    40
1040
1.0
1002
}
  0
DIMENSION
  5
52
  8
TEAM-MAS
  2
*D0
 10
262.5
 20
-489.695736
 30
10.0
 11
0.0
 21
-489.695736
 31
0.0
 12
-4000.0
 22
-12000.0
 32
0.0
 13
-262.5
 23
-375.0
 33
0.0
 14
262.5
 24
-375.0
 34
0.0
1001
ACAD
1000
DSTYLE
1002
{
1070
    40
1040
1.0
1002
}
  0
ARC
  5
60
  8
TEAM-BODY
 10
236.0
 20
-373.5
 30
0.0
 40
9.0
 50
270.0
 51
0.0
  0
ARC
  5
61
  8
TEAM-BODY
 10
-236.0
 20
-373.5
 30
0.0
 40
9.0
 50
180.0
 51
270.0
  0
LINE
  5
62
  8
TEAM-BODY
 10
236.0
 20
-382.5
 30
0.0
 11
-236.0
 21
-382.5
 31
0.0
  0
POLYLINE
  5
63
  8
TEAM-DET1
 66
     1
 10
0.0
 20
0.0
 30
0.0
 70
     1
  0
VERTEX
  5
64
  8
TEAM-DET1
 10
12.091303
 20
-365.072358
 30
0.0
  0
VERTEX
  5
65
  8
TEAM-DET1
 10
11.9013
 20
-363.987367
 30
0.0
1001
ACAD
1000
RTMaterial
1005
0
  0
VERTEX
  5
66
  8
TEAM-DET1
 10
11.337549
 20
-362.934846
 30
0.0
1001
ACAD
1000
RTMaterial
1005
0
  0
VERTEX
  5
67
  8
TEAM-DET1
 10
10.416315
 20
-361.947358
 30
0.0
1001
ACAD
1000
RTMaterial
1005
0
  0
VERTEX
  5
68
  8
TEAM-DET1
 10
9.166315
 20
-361.054872
 30
0.0
1001
ACAD
1000
RTMaterial
1005
0
  0
VERTEX
  5
69
  8
TEAM-DET1
 10
7.626306
 20
-360.284852
 30
0.0
1001
ACAD
1000
RTMaterial
1005
0
  0
VERTEX
  5
6A
  8
TEAM-DET1
 10
5.841303
 20
-359.659852
 30
0.0
1001
ACAD
1000
RTMaterial
1005
0
  0
VERTEX
  5
6B
  8
TEAM-DET1
 10
3.866296
 20
-359.19922
 30
0.0
1001
ACAD
1000
RTMaterial
1005
0
  0
VERTEX
  5
6C
  8
TEAM-DET1
 10
1.761316
 20
-358.917359
 30
0.0
1001
ACAD
1000
RTMaterial
1005
0
  0
VERTEX
  5
6D
  8
TEAM-DET1
 10
-0.408697
 20
-358.822358
 30
0.0
1001
ACAD
1000
RTMaterial
1005
0
  0
VERTEX
  5
6E
  8
TEAM-DET1
 10
-2.578711
 20
-358.917359
 30
0.0
1001
ACAD
1000
RTMaterial
1005
0
  0
VERTEX
  5
6F
  8
TEAM-DET1
 10
-4.683691
 20
-359.19922
 30
0.0
1001
ACAD
1000
RTMaterial
1005
0
  0
VERTEX
  5
70
  8
TEAM-DET1
 10
-6.658697
 20
-359.659852
 30
0.0
1001
ACAD
1000
RTMaterial
1005
0
  0
VERTEX
  5
71
  8
TEAM-DET1
 10
-8.443701
 20
-360.284852
 30
0.0
1001
ACAD
1000
RTMaterial
1005
0
  0
VERTEX
  5
72
  8
TEAM-DET1
 10
-9.98371
 20
-361.054872
 30
0.0
1001
ACAD
1000
RTMaterial
1005
0
  0
VERTEX
  5
73
  8
TEAM-DET1
 10
-11.23371
 20
-361.947358
 30
0.0
1001
ACAD
1000
RTMaterial
1005
0
  0
VERTEX
  5
74
  8
TEAM-DET1
 10
-12.154944
 20
-362.934846
 30
0.0
1001
ACAD
1000
RTMaterial
1005
0
  0
VERTEX
  5
75
  8
TEAM-DET1
 10
-12.718695
 20
-363.987367
 30
0.0
1001
ACAD
1000
RTMaterial
1005
0
  0
VERTEX
  5
76
  8
TEAM-DET1
 10
-12.908697
 20
-365.072358
 30
0.0
1001
ACAD
1000
RTMaterial
1005
0
  0
VERTEX
  5
77
  8
TEAM-DET1
 10
-12.718695
 20
-366.15735
 30
0.0
1001
ACAD
1000
RTMaterial
1005
0
  0
VERTEX
  5
78
  8
TEAM-DET1
 10
-12.154944
 20
-367.20987
 30
0.0
1001
ACAD
1000
RTMaterial
1005
0
  0
VERTEX
  5
79
  8
TEAM-DET1
 10
-11.23371
 20
-368.197358
 30
0.0
1001
ACAD
1000
RTMaterial
1005
0
  0
VERTEX
  5
7A
  8
TEAM-DET1
 10
-9.98371
 20
-369.089845
 30
0.0
1001
ACAD
1000
RTMaterial
1005
0
  0
VERTEX
  5
7B
  8
TEAM-DET1
 10
-8.443701
 20
-369.859864
 30
0.0
1001
ACAD
1000
RTMaterial
1005
0
  0
VERTEX
  5
7C
  8
TEAM-DET1
 10
-6.658697
 20
-370.484864
 30
0.0
1001
ACAD
1000
RTMaterial
1005
0
  0
VERTEX
  5
7D
  8
TEAM-DET1
 10
-4.683691
 20
-370.945497
 30
0.0
1001
ACAD
1000
RTMaterial
1005
0
  0
VERTEX
  5
7E
  8
TEAM-DET1
 10
-2.578711
 20
-371.227357
 30
0.0
1001
ACAD
1000
RTMaterial
1005
0
  0
VERTEX
  5
7F
  8
TEAM-DET1
 10
-0.408697
 20
-371.322358
 30
0.0
1001
ACAD
1000
RTMaterial
1005
0
  0
VERTEX
  5
80
  8
TEAM-DET1
 10
1.761316
 20
-371.227357
 30
0.0
1001
ACAD
1000
RTMaterial
1005
0
  0
VERTEX
  5
81
  8
TEAM-DET1
 10
3.866296
 20
-370.945497
 30
0.0
1001
ACAD
1000
RTMaterial
1005
0
  0
VERTEX
  5
82
  8
TEAM-DET1
 10
5.841303
 20
-370.484864
 30
0.0
1001
ACAD
1000
RTMaterial
1005
0
  0
VERTEX
  5
83
  8
TEAM-DET1
 10
7.626306
 20
-369.859864
 30
0.0
1001
ACAD
1000
RTMaterial
1005
0
  0
VERTEX
  5
84
  8
TEAM-DET1
 10
9.166315
 20
-369.089845
 30
0.0
1001
ACAD
1000
RTMaterial
1005
0
  0
VERTEX
  5
85
  8
TEAM-DET1
 10
10.416315
 20
-368.197358
 30
0.0
1001
ACAD
1000
RTMaterial
1005
0
  0
VERTEX
  5
86
  8
TEAM-DET1
 10
11.337549
 20
-367.20987
 30
0.0
1001
ACAD
1000
RTMaterial
1005
0
  0
VERTEX
  5
87
  8
TEAM-DET1
 10
11.9013
 20
-366.15735
 30
0.0
1001
ACAD
1000
RTMaterial
1005
0
  0
VERTEX
  5
88
  8
TEAM-DET1
 10
12.091303
 20
-365.072358
 30
0.0
1001
ACAD
1000
RTMaterial
1005
0
  0
VERTEX
  5
89
  8
TEAM-DET1
 10
12.091303
 20
-365.072358
 30
0.0
1001
ACAD
1000
RTMaterial
1005
0
  0
SEQEND
  5
8B
  8
TEAM-DET1
  0
DIMENSION
  5
8C
  8
TEAM-MAS
  2
*D4
 10
299.601587
 20
-174.995296
 30
0.0
 11
299.601587
 21
-87.497648
 31
0.0
 12
-4000.0
 22
-12000.0
 32
0.0
 13
237.5
 23
0.0
 33
0.0
 14
0.0
 24
-174.995296
 34
0.0
 50
90.0
1001
ACAD
1000
DSTYLE
1002
{
1070
    40
1040
1.0
1002
}
  0
LINE
  5
9A
  8
TEAM-AXE
 10
135.220754
 20
-51.945633
 30
0.0
 11
104.779246
 21
-51.945633
 31
0.0
  0
LINE
  5
9D
  8
TEAM-AXE
 10
120.0
 20
-36.724879
 30
0.0
 11
120.0
 21
-67.166387
 31
0.0
  0
LINE
  5
9E
  8
TEAM-AXE
 10
-135.220754
 20
-51.945633
 30
0.0
 11
-104.779246
 21
-51.945633
 31
0.0
  0
LINE
  5
9F
  8
TEAM-AXE
 10
-120.0
 20
-36.724879
 30
0.0
 11
-120.0
 21
-67.166387
 31
0.0
  0
ARC
  5
A0
  8
TEAM-BODY
 10
-236.0
 20
-119.890561
 30
0.0
 40
9.0
 50
90.0
 51
180.0
  0
ARC
  5
A1
  8
TEAM-BODY
 10
236.0
 20
-119.890561
 30
0.0
 40
9.0
 50
0.0
 51
90.0
  0
ARC
  5
A2
  8
TEAM-BODY
 10
-236.0
 20
-26.5
 30
0.0
 40
9.0
 50
90.0
 51
180.0
  0
ARC
  5
A3
  8
TEAM-BODY
 10
236.0
 20
-26.5
 30
0.0
 40
9.0
 50
0.0
 51
90.0
  0
LINE
  5
A4
  8
TEAM-BODY
 10
236.0
 20
-17.5
 30
0.0
 11
-236.0
 21
-17.5
 31
0.0
  0
LINE
  5
A5
  8
TEAM-BODY
 10
236.0
 20
-110.890561
 30
0.0
 11
-236.0
 21
-110.890561
 31
0.0
  0
CIRCLE
  5
A6
  8
TEAM-DET1
 10
0.0
 20
-174.995296
 30
0.0
 40
37.5
  0
CIRCLE
  5
A7
  8
TEAM-BODY
 10
0.0
 20
-174.995296
 30
0.0
 40
26.0
  0
CIRCLE
  5
A8
  8
TEAM-DET1
 10
0.0
 20
-51.945633
 30
0.0
 40
17.5
  0
LINE
  5
A9
  8
TEAM-AXE
 10
0.0
 20
-27.251175
 30
0.0
 11
0.0
 21
-81.578933
 31
0.0
  0
LINE
  5
AA
  8
TEAM-AXE
 10
0.0
 20
-129.839733
 30
0.0
 11
0.0
 21
-220.150859
 31
0.0
  0
LINE
  5
AB
  8
TEAM-AXE
 10
-49.276367
 20
-175.02
 30
0.0
 11
45.723633
 21
-175.02
 31
0.0
  0
LINE
  5
AC
  8
TEAM-AXE
 10
-22.577759
 20
-51.945633
 30
0.0
 11
23.283325
 21
-51.945633
 31
0.0
  0
LINE
  5
AD
  8
TEAM-AXE
 10
0.0
 20
-63.383069
 30
0.0
 11
0.0
 21
-38.383069
 31
0.0
  0
CIRCLE
  5
AE
  8
TEAM-INSP
 10
0.0
 20
0.0
 30
0.0
 40
10.0
  0
ENDSEC
  0
EOF
