  0
SECTION
  2
HEADER
  9
$ACADVER
  1
AC1009
  9
$INSBASE
 10
0.0
 20
0.0
 30
0.0
  9
$EXTMIN
 10
-267.475118
 20
-11.004244
 30
-0.000213
  9
$EXTMAX
 10
510.351513
 20
903.394631
 30
10.000409
  9
$LIMMIN
 10
-267.475118
 20
-11.004244
  9
$LIMMAX
 10
510.351513
 20
903.394631
  9
$ORTHOMODE
 70
     1
  9
$REGENMODE
 70
     1
  9
$FILLMODE
 70
     1
  9
$QTEXTMODE
 70
     0
  9
$MIRRTEXT
 70
     0
  9
$DRAGMODE
 70
     2
  9
$LTSCALE
 40
25.0
  9
$OSMODE
 70
     0
  9
$ATTMODE
 70
     1
  9
$TEXTSIZE
 40
200.0
  9
$TRACEWID
 40
1.0
  9
$TEXTSTYLE
  7
STANDARD
  9
$CLAYER
  8
TEAM-MAS
  9
$CELTYPE
  6
BYLAYER
  9
$CECOLOR
 62
   256
  9
$DIMSCALE
 40
0.0
  9
$DIMASZ
 40
20.0
  9
$DIMEXO
 40
10.0
  9
$DIMDLI
 40
1.0
  9
$DIMRND
 40
0.0
  9
$DIMDLE
 40
0.0
  9
$DIMEXE
 40
1.0
  9
$DIMTP
 40
0.0
  9
$DIMTM
 40
0.0
  9
$DIMTXT
 40
35.0
  9
$DIMCEN
 40
1.0
  9
$DIMTSZ
 40
0.0
  9
$DIMTOL
 70
     0
  9
$DIMLIM
 70
     0
  9
$DIMTIH
 70
     0
  9
$DIMTOH
 70
     0
  9
$DIMSE1
 70
     0
  9
$DIMSE2
 70
     0
  9
$DIMTAD
 70
     0
  9
$DIMZIN
 70
     0
  9
$DIMBLK
  1

  9
$DIMASO
 70
     1
  9
$DIMSHO
 70
     0
  9
$DIMPOST
  1

  9
$DIMAPOST
  1

  9
$DIMALT
 70
     0
  9
$DIMALTD
 70
     2
  9
$DIMALTF
 40
25.4
  9
$DIMLFAC
 40
1.0
  9
$DIMTOFL
 70
     0
  9
$DIMTVP
 40
0.0
  9
$DIMTIX
 70
     0
  9
$DIMSOXD
 70
     0
  9
$DIMSAH
 70
     0
  9
$DIMBLK1
  1

  9
$DIMBLK2
  1

  9
$DIMSTYLE
  2
TEAM
  9
$DIMCLRD
 70
     9
  9
$DIMCLRE
 70
     9
  9
$DIMCLRT
 70
    11
  9
$DIMTFAC
 40
1.0
  9
$DIMGAP
 40
15.0
  9
$LUNITS
 70
     2
  9
$LUPREC
 70
     1
  9
$SKETCHINC
 40
1.0
  9
$FILLETRAD
 40
10.0
  9
$AUNITS
 70
     0
  9
$AUPREC
 70
     0
  9
$MENU
  1
ROPLANS
  9
$ELEVATION
 40
0.0
  9
$PELEVATION
 40
0.0
  9
$THICKNESS
 40
0.0
  9
$LIMCHECK
 70
     0
  9
$BLIPMODE
 70
     1
  9
$CHAMFERA
 40
0.0
  9
$CHAMFERB
 40
0.0
  9
$SKPOLY
 70
     0
  9
$TDCREATE
 40
2450392.957851
  9
$TDUPDATE
 40
2455538.902851
  9
$TDINDWG
 40
2.437341
  9
$TDUSRTIMER
 40
2.437341
  9
$USRTIMER
 70
     1
  9
$ANGBASE
 50
0.0
  9
$ANGDIR
 70
     0
  9
$PDMODE
 70
     0
  9
$PDSIZE
 40
0.0
  9
$PLINEWID
 40
0.0
  9
$COORDS
 70
     2
  9
$SPLFRAME
 70
     0
  9
$SPLINETYPE
 70
     6
  9
$SPLINESEGS
 70
     8
  9
$ATTDIA
 70
     0
  9
$ATTREQ
 70
     0
  9
$HANDLING
 70
     1
  9
$HANDSEED
  5
14C
  9
$SURFTAB1
 70
    36
  9
$SURFTAB2
 70
    36
  9
$SURFTYPE
 70
     6
  9
$SURFU
 70
     6
  9
$SURFV
 70
     6
  9
$UCSNAME
  2

  9
$UCSORG
 10
0.0
 20
0.0
 30
0.0
  9
$UCSXDIR
 10
1.0
 20
0.0
 30
0.0
  9
$UCSYDIR
 10
0.0
 20
1.0
 30
0.0
  9
$PUCSNAME
  2

  9
$PUCSORG
 10
0.0
 20
0.0
 30
0.0
  9
$PUCSXDIR
 10
1.0
 20
0.0
 30
0.0
  9
$PUCSYDIR
 10
0.0
 20
1.0
 30
0.0
  9
$USERI1
 70
     0
  9
$USERI2
 70
     0
  9
$USERI3
 70
     0
  9
$USERI4
 70
     0
  9
$USERI5
 70
     0
  9
$USERR1
 40
0.0
  9
$USERR2
 40
0.0
  9
$USERR3
 40
0.0
  9
$USERR4
 40
0.0
  9
$USERR5
 40
0.0
  9
$WORLDVIEW
 70
     1
  9
$SHADEDGE
 70
     0
  9
$SHADEDIF
 70
    70
  9
$TILEMODE
 70
     1
  9
$MAXACTVP
 70
    16
  9
$PLIMCHECK
 70
     0
  9
$PEXTMIN
 10
-0.805942
 20
0.005011
 30
0.0
  9
$PEXTMAX
 10
20.250094
 20
11.356329
 30
0.0
  9
$PLIMMIN
 10
0.0
 20
0.0
  9
$PLIMMAX
 10
12.0
 20
9.0
  9
$UNITMODE
 70
     0
  9
$VISRETAIN
 70
     0
  9
$PLINEGEN
 70
     0
  9
$PSLTSCALE
 70
     0
  0
ENDSEC
  0
SECTION
  2
TABLES
  0
TABLE
  2
VPORT
 70
     2
  0
VPORT
  2
*ACTIVE
 70
     0
 10
0.0
 20
0.0
 11
1.0
 21
1.0
 12
121.438198
 22
446.195193
 13
0.0
 23
0.0
 14
1.0
 24
1.0
 15
50.0
 25
50.0
 16
0.0
 26
0.0
 36
1.0
 17
0.0
 27
0.0
 37
0.0
 40
920.014426
 41
1.865779
 42
50.0
 43
0.0
 44
0.0
 50
0.0
 51
0.0
 71
     0
 72
   100
 73
     1
 74
     1
 75
     0
 76
     0
 77
     0
 78
     0
  0
ENDTAB
  0
TABLE
  2
LTYPE
 70
     2
  0
LTYPE
  2
CONTINUOUS
 70
     0
  3
Solid Line
 72
    65
 73
     0
 40
0.0
  0
LTYPE
  2
31
 70
     0
  3

 72
    65
 73
     4
 40
2.1
 49
1.5
 49
-0.3
 49
0.0
 49
-0.3
  0
ENDTAB
  0
TABLE
  2
LAYER
 70
    11
  0
LAYER
  2
0
 70
     0
 62
     7
  6
CONTINUOUS
  0
LAYER
  2
DEFPOINTS
 70
     0
 62
     7
  6
CONTINUOUS
  0
LAYER
  2
TEAM-BODY
 70
     0
 62
     2
  6
CONTINUOUS
  0
LAYER
  2
TEAM-AXE
 70
     0
 62
    10
  6
31
  0
LAYER
  2
TEAM-MAS
 70
     0
 62
     9
  6
CONTINUOUS
  0
LAYER
  2
TEAM-TXT
 70
     0
 62
    11
  6
CONTINUOUS
  0
LAYER
  2
TEAM-DET1
 70
     0
 62
     4
  6
CONTINUOUS
  0
LAYER
  2
TEAM-COLD
 70
     0
 62
     3
  6
CONTINUOUS
  0
LAYER
  2
TEAM-KAN
 70
     0
 62
     6
  6
CONTINUOUS
  0
LAYER
  2
TEAM-WARM
 70
     0
 62
     1
  6
CONTINUOUS
  0
LAYER
  2
TEAM-INSP
 70
     0
 62
     5
  6
CONTINUOUS
  0
ENDTAB
  0
TABLE
  2
STYLE
 70
     2
  0
STYLE
  2
STANDARD
 70
     0
 40
0.0
 41
1.0
 50
0.0
 71
     0
 42
200.0
  3
txt
  4

  0
STYLE
  2
TEAM
 70
     0
 40
0.0
 41
0.8
 50
15.0
 71
     0
 42
7.0
  3
ROMANS.shx
  4

  0
ENDTAB
  0
TABLE
  2
VIEW
 70
     0
  0
ENDTAB
  0
TABLE
  2
UCS
 70
     0
  0
ENDTAB
  0
TABLE
  2
APPID
 70
     1
  0
APPID
  2
ACAD
 70
     0
  0
ENDTAB
  0
TABLE
  2
DIMSTYLE
 70
     1
  0
DIMSTYLE
  2
TEAM
 70
     0
  3

  4

  5

  6

  7

 40
0.0
 41
20.0
 42
10.0
 43
1.0
 44
1.0
 45
0.0
 46
0.0
 47
0.0
 48
0.0
140
35.0
141
1.0
142
0.0
143
25.4
144
1.0
145
0.0
146
1.0
147
15.0
 71
     0
 72
     0
 73
     0
 74
     0
 75
     0
 76
     0
 77
     0
 78
     0
170
     0
171
     2
172
     0
173
     0
174
     0
175
     0
176
     9
177
     9
178
    11
  0
ENDTAB
  0
ENDSEC
  0
SECTION
  2
BLOCKS
  0
BLOCK
  8
0
  2
$MODEL_SPACE
 70
     0
 10
0.0
 20
0.0
 30
0.0
  3
$MODEL_SPACE
  1

  0
ENDBLK
  5
12F
  8
0
  0
BLOCK
 67
     1
  8
0
  2
$PAPER_SPACE
 70
     0
 10
0.0
 20
0.0
 30
0.0
  3
$PAPER_SPACE
  1

  0
ENDBLK
  5
12D
 67
     1
  8
0
  0
BLOCK
  8
0
  2
*D0
 70
     1
 10
0.0
 20
0.0
 30
0.0
  3
*D0
  1

  0
LINE
  5
83
  8
0
  6
BYBLOCK
 62
     9
 10
7931.781898
 20
12594.000001
 30
0.0
 11
7931.781898
 21
12428.000001
 31
0.0
  0
LINE
  5
84
  8
0
  6
BYBLOCK
 62
     9
 10
8051.781898
 20
12594.000001
 30
0.0
 11
8051.781898
 21
12428.000001
 31
0.0
  0
LINE
  5
85
  8
0
  6
BYBLOCK
 62
     9
 10
7951.781898
 20
12429.000001
 30
0.0
 11
8031.781898
 21
12429.000001
 31
0.0
  0
TEXT
  5
86
  8
0
  6
BYBLOCK
 62
    11
 10
7958.518118
 20
12466.695816
 30
0.0
 40
35.0
  1
120
  0
SOLID
  5
87
  8
0
  6
BYBLOCK
 62
     9
 10
7951.781898
 20
12432.333334
 30
0.0
 11
7951.781898
 21
12425.666667
 31
0.0
 12
7931.781898
 22
12429.000001
 32
0.0
 13
7931.781898
 23
12429.000001
 33
0.0
  0
SOLID
  5
88
  8
0
  6
BYBLOCK
 62
     9
 10
8031.781898
 20
12432.333334
 30
0.0
 11
8031.781898
 21
12425.666667
 31
0.0
 12
8051.781898
 22
12429.000001
 32
0.0
 13
8051.781898
 23
12429.000001
 33
0.0
  0
POINT
  5
89
  8
DEFPOINTS
  6
BYBLOCK
 62
     0
 10
7931.781898
 20
12604.000001
 30
10.0
  0
POINT
  5
8A
  8
DEFPOINTS
  6
BYBLOCK
 62
     0
 10
8051.781898
 20
12604.000001
 30
10.0
  0
POINT
  5
8B
  8
DEFPOINTS
  6
BYBLOCK
 62
     0
 10
8051.781898
 20
12429.000001
 30
10.0
  0
ENDBLK
  5
8D
  8
0
  0
BLOCK
  8
0
  2
*D1
 70
     1
 10
0.0
 20
0.0
 30
0.0
  3
*D1
  1

  0
LINE
  5
3F
  8
0
  6
BYBLOCK
 62
     9
 10
8351.691593
 20
12849.000001
 30
0.0
 11
8352.691593
 21
12849.000001
 31
0.0
  0
LINE
  5
40
  8
0
  6
BYBLOCK
 62
     9
 10
8041.781898
 20
12659.000001
 30
0.0
 11
8352.691593
 21
12659.000001
 31
0.0
  0
LINE
  5
41
  8
0
  6
BYBLOCK
 62
     9
 10
8351.691593
 20
12829.000001
 30
0.0
 11
8351.691593
 21
12797.074931
 31
0.0
  0
LINE
  5
42
  8
0
  6
BYBLOCK
 62
     9
 10
8351.691593
 20
12679.000001
 30
0.0
 11
8351.691593
 21
12710.92507
 31
0.0
  0
SOLID
  5
43
  8
0
  6
BYBLOCK
 62
     9
 10
8348.35826
 20
12829.000001
 30
0.0
 11
8355.024927
 21
12829.000001
 31
0.0
 12
8351.691593
 22
12849.000001
 32
0.0
 13
8351.691593
 23
12849.000001
 33
0.0
  0
SOLID
  5
44
  8
0
  6
BYBLOCK
 62
     9
 10
8348.35826
 20
12679.000001
 30
0.0
 11
8355.024927
 21
12679.000001
 31
0.0
 12
8351.691593
 22
12659.000001
 32
0.0
 13
8351.691593
 23
12659.000001
 33
0.0
  0
TEXT
  5
45
  8
0
  6
BYBLOCK
 62
    11
 10
8369.191593
 20
12720.67507
 30
0.0
 40
35.0
  1
190
 50
90.0
  0
POINT
  5
46
  8
DEFPOINTS
  6
BYBLOCK
 62
     0
 10
8341.691593
 20
12849.000001
 30
10.0
  0
POINT
  5
47
  8
DEFPOINTS
  6
BYBLOCK
 62
     0
 10
8031.781898
 20
12659.000001
 30
0.0
  0
POINT
  5
48
  8
DEFPOINTS
  6
BYBLOCK
 62
     0
 10
8351.691593
 20
12659.000001
 30
10.0
  0
ENDBLK
  5
4A
  8
0
  0
BLOCK
  8
0
  2
*D2
 70
     1
 10
0.0
 20
0.0
 30
0.0
  3
*D2
  1

  0
LINE
  5
4D
  8
0
  6
BYBLOCK
 62
     9
 10
8081.841101
 20
12599.000001
 30
0.0
 11
8397.248111
 21
12599.000001
 31
0.0
  0
LINE
  5
4E
  8
0
  6
BYBLOCK
 62
     9
 10
8001.781898
 20
11999.000001
 30
0.0
 11
8397.248111
 21
11999.000001
 31
0.0
  0
LINE
  5
4F
  8
0
  6
BYBLOCK
 62
     9
 10
8396.248111
 20
12579.000001
 30
0.0
 11
8396.248111
 21
12346.561024
 31
0.0
  0
LINE
  5
50
  8
0
  6
BYBLOCK
 62
     9
 10
8396.248111
 20
12019.000001
 30
0.0
 11
8396.248111
 21
12251.438977
 31
0.0
  0
SOLID
  5
51
  8
0
  6
BYBLOCK
 62
     9
 10
8392.914777
 20
12579.000001
 30
0.0
 11
8399.581444
 21
12579.000001
 31
0.0
 12
8396.248111
 22
12599.000001
 32
0.0
 13
8396.248111
 23
12599.000001
 33
0.0
  0
SOLID
  5
52
  8
0
  6
BYBLOCK
 62
     9
 10
8392.914777
 20
12019.000001
 30
0.0
 11
8399.581444
 21
12019.000001
 31
0.0
 12
8396.248111
 22
11999.000001
 32
0.0
 13
8396.248111
 23
11999.000001
 33
0.0
  0
TEXT
  5
53
  8
0
  6
BYBLOCK
 62
    11
 10
8413.748111
 20
12263.283465
 30
0.0
 40
35.0
  1
600
 50
90.0
  0
POINT
  5
54
  8
DEFPOINTS
  6
BYBLOCK
 62
     0
 10
8071.841101
 20
12599.000001
 30
10.0
  0
POINT
  5
55
  8
DEFPOINTS
  6
BYBLOCK
 62
     0
 10
7991.781898
 20
11999.000001
 30
0.0
  0
POINT
  5
56
  8
DEFPOINTS
  6
BYBLOCK
 62
     0
 10
8396.248111
 20
11999.000001
 30
0.0
  0
ENDBLK
  5
58
  8
0
  0
BLOCK
  8
0
  2
*D3
 70
     1
 10
0.0
 20
0.0
 30
0.0
  3
*D3
  1

  0
LINE
  5
5B
  8
0
  6
BYBLOCK
 62
     9
 10
8031.781898
 20
12539.000001
 30
0.0
 11
8444.654255
 21
12539.000001
 31
0.0
  0
LINE
  5
5C
  8
0
  6
BYBLOCK
 62
     9
 10
8001.781898
 20
11999.000001
 30
0.0
 11
8444.654255
 21
11999.000001
 31
0.0
  0
LINE
  5
5D
  8
0
  6
BYBLOCK
 62
     9
 10
8443.654255
 20
12519.000001
 30
0.0
 11
8443.654255
 21
12317.26378
 31
0.0
  0
LINE
  5
5E
  8
0
  6
BYBLOCK
 62
     9
 10
8443.654255
 20
12019.000001
 30
0.0
 11
8443.654255
 21
12220.736221
 31
0.0
  0
SOLID
  5
5F
  8
0
  6
BYBLOCK
 62
     9
 10
8440.320922
 20
12519.000001
 30
0.0
 11
8446.987589
 21
12519.000001
 31
0.0
 12
8443.654255
 22
12539.000001
 32
0.0
 13
8443.654255
 23
12539.000001
 33
0.0
  0
SOLID
  5
60
  8
0
  6
BYBLOCK
 62
     9
 10
8440.320922
 20
12019.000001
 30
0.0
 11
8446.987589
 21
12019.000001
 31
0.0
 12
8443.654255
 22
11999.000001
 32
0.0
 13
8443.654255
 23
11999.000001
 33
0.0
  0
TEXT
  5
61
  8
0
  6
BYBLOCK
 62
    11
 10
8461.154255
 20
12230.486221
 30
0.0
 40
35.0
  1
540
 50
90.0
  0
POINT
  5
62
  8
DEFPOINTS
  6
BYBLOCK
 62
     0
 10
8021.781898
 20
12539.000001
 30
0.0
  0
POINT
  5
63
  8
DEFPOINTS
  6
BYBLOCK
 62
     0
 10
7991.781898
 20
11999.000001
 30
0.0
  0
POINT
  5
64
  8
DEFPOINTS
  6
BYBLOCK
 62
     0
 10
8443.654255
 20
11999.000001
 30
0.0
  0
ENDBLK
  5
66
  8
0
  0
BLOCK
  8
0
  2
*D4
 70
     1
 10
0.0
 20
0.0
 30
0.0
  3
*D4
  1

  0
LINE
  5
69
  8
0
  6
BYBLOCK
 62
     9
 10
8316.580273
 20
12849.000001
 30
0.0
 11
8494.129223
 21
12849.000001
 31
0.0
  0
LINE
  5
6A
  8
0
  6
BYBLOCK
 62
     9
 10
8001.781898
 20
11999.000001
 30
0.0
 11
8494.129223
 21
11999.000001
 31
0.0
  0
LINE
  5
6B
  8
0
  6
BYBLOCK
 62
     9
 10
8493.129223
 20
12829.000001
 30
0.0
 11
8493.129223
 21
12470.51378
 31
0.0
  0
LINE
  5
6C
  8
0
  6
BYBLOCK
 62
     9
 10
8493.129223
 20
12019.000001
 30
0.0
 11
8493.129223
 21
12377.486221
 31
0.0
  0
SOLID
  5
6D
  8
0
  6
BYBLOCK
 62
     9
 10
8489.79589
 20
12829.000001
 30
0.0
 11
8496.462557
 21
12829.000001
 31
0.0
 12
8493.129223
 22
12849.000001
 32
0.0
 13
8493.129223
 23
12849.000001
 33
0.0
  0
SOLID
  5
6E
  8
0
  6
BYBLOCK
 62
     9
 10
8489.79589
 20
12019.000001
 30
0.0
 11
8496.462557
 21
12019.000001
 31
0.0
 12
8493.129223
 22
11999.000001
 32
0.0
 13
8493.129223
 23
11999.000001
 33
0.0
  0
TEXT
  5
6F
  8
0
  6
BYBLOCK
 62
    11
 10
8510.629223
 20
12387.236221
 30
0.0
 40
35.0
  1
850
 50
90.0
  0
POINT
  5
70
  8
DEFPOINTS
  6
BYBLOCK
 62
     0
 10
8306.580273
 20
12849.000001
 30
10.0
  0
POINT
  5
71
  8
DEFPOINTS
  6
BYBLOCK
 62
     0
 10
7991.781898
 20
11999.000001
 30
0.0
  0
POINT
  5
72
  8
DEFPOINTS
  6
BYBLOCK
 62
     0
 10
8493.129223
 20
11999.000001
 30
10.0
  0
ENDBLK
  5
74
  8
0
  0
BLOCK
  8
0
  2
*D5
 70
     1
 10
0.0
 20
0.0
 30
0.0
  3
*D5
  1

  0
LINE
  5
BC
  8
0
  6
BYBLOCK
 62
     9
 10
8267.5
 20
12849.000001
 30
0.0
 11
8307.580273
 21
12849.000001
 31
0.0
  0
LINE
  5
BD
  8
0
  6
BYBLOCK
 62
     9
 10
8267.5
 20
12814.000001
 30
0.0
 11
8307.580273
 21
12814.000001
 31
0.0
  0
LINE
  5
BE
  8
0
  6
BYBLOCK
 62
     9
 10
8306.580273
 20
12869.000001
 30
0.0
 11
8306.580273
 21
12889.000001
 31
0.0
  0
LINE
  5
BF
  8
0
  6
BYBLOCK
 62
     9
 10
8306.580273
 20
12794.000001
 30
0.0
 11
8306.580273
 21
12774.000001
 31
0.0
  0
TEXT
  5
C0
  8
0
  6
BYBLOCK
 62
    11
 10
8326.317618
 20
12725.929458
 30
0.0
 40
35.0
  1
35
 50
90.0
  0
LINE
  5
C1
  8
0
  6
BYBLOCK
 62
     9
 10
8306.580273
 20
12849.000001
 30
0.0
 11
8306.580273
 21
12814.000001
 31
0.0
  0
SOLID
  5
C2
  8
0
  6
BYBLOCK
 62
     9
 10
8303.246939
 20
12869.000001
 30
0.0
 11
8309.913606
 21
12869.000001
 31
0.0
 12
8306.580273
 22
12849.000001
 32
0.0
 13
8306.580273
 23
12849.000001
 33
0.0
  0
SOLID
  5
C3
  8
0
  6
BYBLOCK
 62
     9
 10
8303.246939
 20
12794.000001
 30
0.0
 11
8309.913606
 21
12794.000001
 31
0.0
 12
8306.580273
 22
12814.000001
 32
0.0
 13
8306.580273
 23
12814.000001
 33
0.0
  0
POINT
  5
C4
  8
DEFPOINTS
  6
BYBLOCK
 62
     0
 10
8257.5
 20
12849.000001
 30
0.0
  0
POINT
  5
C5
  8
DEFPOINTS
  6
BYBLOCK
 62
     0
 10
8257.5
 20
12814.000001
 30
0.0
  0
POINT
  5
C6
  8
DEFPOINTS
  6
BYBLOCK
 62
     0
 10
8306.580273
 20
12814.000001
 30
10.0
  0
ENDBLK
  5
C8
  8
0
  0
BLOCK
  8
0
  2
*D6
 70
     1
 10
0.0
 20
0.0
 30
0.0
  3
*D6
  1

  0
LINE
  5
AE
  8
0
  6
BYBLOCK
 62
     9
 10
8086.781898
 20
12599.000001
 30
0.0
 11
8397.248111
 21
12599.000001
 31
0.0
  0
LINE
  5
AF
  8
0
  6
BYBLOCK
 62
     9
 10
8267.5
 20
12849.000001
 30
0.0
 11
8397.248111
 21
12849.000001
 31
0.0
  0
LINE
  5
B0
  8
0
  6
BYBLOCK
 62
     9
 10
8396.248111
 20
12619.000001
 30
0.0
 11
8396.248111
 21
12677.041831
 31
0.0
  0
LINE
  5
B1
  8
0
  6
BYBLOCK
 62
     9
 10
8396.248111
 20
12829.000001
 30
0.0
 11
8396.248111
 21
12770.95817
 31
0.0
  0
SOLID
  5
B2
  8
0
  6
BYBLOCK
 62
     9
 10
8392.914777
 20
12619.000001
 30
0.0
 11
8399.581444
 21
12619.000001
 31
0.0
 12
8396.248111
 22
12599.000001
 32
0.0
 13
8396.248111
 23
12599.000001
 33
0.0
  0
SOLID
  5
B3
  8
0
  6
BYBLOCK
 62
     9
 10
8392.914777
 20
12829.000001
 30
0.0
 11
8399.581444
 21
12829.000001
 31
0.0
 12
8396.248111
 22
12849.000001
 32
0.0
 13
8396.248111
 23
12849.000001
 33
0.0
  0
TEXT
  5
B4
  8
0
  6
BYBLOCK
 62
    11
 10
8413.748111
 20
12687.680611
 30
0.0
 40
35.0
  1
250
 50
90.0
  0
POINT
  5
B5
  8
DEFPOINTS
  6
BYBLOCK
 62
     0
 10
8076.781898
 20
12599.000001
 30
0.0
  0
POINT
  5
B6
  8
DEFPOINTS
  6
BYBLOCK
 62
     0
 10
8257.5
 20
12849.000001
 30
0.0
  0
POINT
  5
B7
  8
DEFPOINTS
  6
BYBLOCK
 62
     0
 10
8396.248111
 20
12849.000001
 30
0.0
  0
ENDBLK
  5
B9
  8
0
  0
BLOCK
  8
0
  2
*D7
 70
     1
 10
0.0
 20
0.0
 30
0.0
  3
*D7
  1

  0
LINE
  5
22
  8
0
  6
BYBLOCK
 62
     9
 10
8031.781898
 20
12539.000001
 30
0.0
 11
8444.654255
 21
12539.000001
 31
0.0
  0
LINE
  5
23
  8
0
  6
BYBLOCK
 62
     9
 10
8267.5
 20
12849.000001
 30
0.0
 11
8444.654255
 21
12849.000001
 31
0.0
  0
LINE
  5
24
  8
0
  6
BYBLOCK
 62
     9
 10
8443.654255
 20
12559.000001
 30
0.0
 11
8443.654255
 21
12650.986221
 31
0.0
  0
LINE
  5
25
  8
0
  6
BYBLOCK
 62
     9
 10
8443.654255
 20
12829.000001
 30
0.0
 11
8443.654255
 21
12737.01378
 31
0.0
  0
SOLID
  5
26
  8
0
  6
BYBLOCK
 62
     9
 10
8440.320922
 20
12559.000001
 30
0.0
 11
8446.987589
 21
12559.000001
 31
0.0
 12
8443.654255
 22
12539.000001
 32
0.0
 13
8443.654255
 23
12539.000001
 33
0.0
  0
SOLID
  5
27
  8
0
  6
BYBLOCK
 62
     9
 10
8440.320922
 20
12829.000001
 30
0.0
 11
8446.987589
 21
12829.000001
 31
0.0
 12
8443.654255
 22
12849.000001
 32
0.0
 13
8443.654255
 23
12849.000001
 33
0.0
  0
TEXT
  5
28
  8
0
  6
BYBLOCK
 62
    11
 10
8461.154255
 20
12660.736221
 30
0.0
 40
35.0
  1
310
 50
90.0
  0
POINT
  5
29
  8
DEFPOINTS
  6
BYBLOCK
 62
     0
 10
8021.781898
 20
12539.000001
 30
0.0
  0
POINT
  5
2B
  8
DEFPOINTS
  6
BYBLOCK
 62
     0
 10
8257.5
 20
12849.000001
 30
0.0
  0
POINT
  5
2C
  8
DEFPOINTS
  6
BYBLOCK
 62
     0
 10
8443.654255
 20
12849.000001
 30
0.0
  0
ENDBLK
  5
2E
  8
0
  0
BLOCK
  8
0
  2
*D8
 70
     1
 10
0.0
 20
0.0
 30
0.0
  3
*D8
  1

  0
LINE
  5
31
  8
0
  6
BYBLOCK
 62
     9
 10
7737.5
 20
12841.500001
 30
0.0
 11
7737.5
 21
12886.862778
 31
0.0
  0
LINE
  5
32
  8
0
  6
BYBLOCK
 62
     9
 10
8262.5
 20
12841.500001
 30
0.0
 11
8262.5
 21
12886.862778
 31
0.0
  0
LINE
  5
33
  8
0
  6
BYBLOCK
 62
     9
 10
7757.5
 20
12885.862778
 30
0.0
 11
7952.775126
 21
12885.862778
 31
0.0
  0
LINE
  5
34
  8
0
  6
BYBLOCK
 62
     9
 10
8242.5
 20
12885.862778
 30
0.0
 11
8047.224874
 21
12885.862778
 31
0.0
  0
SOLID
  5
35
  8
0
  6
BYBLOCK
 62
     9
 10
7757.5
 20
12889.196111
 30
0.0
 11
7757.5
 21
12882.529445
 31
0.0
 12
7737.5
 22
12885.862778
 32
0.0
 13
7737.5
 23
12885.862778
 33
0.0
  0
SOLID
  5
36
  8
0
  6
BYBLOCK
 62
     9
 10
8242.5
 20
12889.196111
 30
0.0
 11
8242.5
 21
12882.529445
 31
0.0
 12
8262.5
 22
12885.862778
 32
0.0
 13
8262.5
 23
12885.862778
 33
0.0
  0
TEXT
  5
37
  8
0
  6
BYBLOCK
 62
    11
 10
7962.525126
 20
12868.362778
 30
0.0
 40
35.0
  1
525
  0
POINT
  5
38
  8
DEFPOINTS
  6
BYBLOCK
 62
     0
 10
7737.5
 20
12831.500001
 30
0.0
  0
POINT
  5
39
  8
DEFPOINTS
  6
BYBLOCK
 62
     0
 10
8262.5
 20
12831.500001
 30
0.0
  0
POINT
  5
3A
  8
DEFPOINTS
  6
BYBLOCK
 62
     0
 10
8262.5
 20
12885.862778
 30
0.0
  0
ENDBLK
  5
3C
  8
0
  0
ENDSEC
  0
SECTION
  2
ENTITIES
  0
DIMENSION
  5
20
  8
TEAM-MAS
  2
*D7
 10
443.654255
 20
849.000001
 30
0.0
 11
443.654255
 21
694.000001
 31
0.0
 12
-8000.0
 22
-12000.0
 32
0.0
 13
21.781898
 23
539.000001
 33
0.0
 14
257.5
 24
849.000001
 34
0.0
 50
90.0
1001
ACAD
1000
DSTYLE
1002
{
1070
    40
1040
1.0
1002
}
  0
DIMENSION
  5
2F
  8
TEAM-MAS
  2
*D8
 10
262.5
 20
885.862778
 30
0.0
 11
0.0
 21
885.862778
 31
0.0
 12
-8000.0
 22
-12000.0
 32
0.0
 13
-262.5
 23
831.500001
 33
0.0
 14
262.5
 24
831.500001
 34
0.0
1001
ACAD
1000
DSTYLE
1002
{
1070
    40
1040
1.0
1002
}
  0
DIMENSION
  5
3D
  8
TEAM-MAS
  2
*D1
 10
351.691593
 20
659.000001
 30
10.0
 11
351.691593
 21
754.000001
 31
0.0
 12
-8000.0
 22
-12000.0
 32
0.0
 13
341.691593
 23
849.000001
 33
10.0
 14
31.781898
 24
659.000001
 34
0.0
 50
90.0
1001
ACAD
1000
DSTYLE
1002
{
1070
    40
1040
1.0
1002
}
  0
DIMENSION
  5
4B
  8
TEAM-MAS
  2
*D2
 10
396.248111
 20
-0.999999
 30
0.0
 11
396.248111
 21
299.000001
 31
0.0
 12
-8000.0
 22
-12000.0
 32
0.0
 13
71.841101
 23
599.000001
 33
10.0
 14
-8.218102
 24
-0.999999
 34
0.0
 50
90.0
1001
ACAD
1000
DSTYLE
1002
{
1070
    40
1040
1.0
1002
}
  0
DIMENSION
  5
59
  8
TEAM-MAS
  2
*D3
 10
443.654255
 20
-0.999999
 30
0.0
 11
443.654255
 21
269.000001
 31
0.0
 12
-8000.0
 22
-12000.0
 32
0.0
 13
21.781898
 23
539.000001
 33
0.0
 14
-8.218102
 24
-0.999999
 34
0.0
 50
90.0
1001
ACAD
1000
DSTYLE
1002
{
1070
    40
1040
1.0
1002
}
  0
DIMENSION
  5
67
  8
TEAM-MAS
  2
*D4
 10
493.129223
 20
-0.999999
 30
10.0
 11
493.129223
 21
424.000001
 31
0.0
 12
-8000.0
 22
-12000.0
 32
0.0
 13
306.580273
 23
849.000001
 33
10.0
 14
-8.218102
 24
-0.999999
 34
0.0
 50
90.0
1001
ACAD
1000
DSTYLE
1002
{
1070
    40
1040
1.0
1002
}
  0
POLYLINE
  5
75
  8
TEAM-BODY
 66
     1
 10
0.0
 20
0.0
 30
0.0
 70
     1
  0
VERTEX
  5
135
  8
TEAM-BODY
 10
249.586375
 20
814.000001
 30
0.0
  0
VERTEX
  5
136
  8
TEAM-BODY
 10
257.5
 20
814.000001
 30
0.0
 42
0.414214
  0
VERTEX
  5
137
  8
TEAM-BODY
 10
262.5
 20
819.000001
 30
0.0
  0
VERTEX
  5
138
  8
TEAM-BODY
 10
262.5
 20
844.000001
 30
0.0
 42
0.414214
  0
VERTEX
  5
139
  8
TEAM-BODY
 10
257.5
 20
849.000001
 30
0.0
  0
VERTEX
  5
13A
  8
TEAM-BODY
 10
-257.5
 20
849.000001
 30
0.0
 42
0.414214
  0
VERTEX
  5
13B
  8
TEAM-BODY
 10
-262.5
 20
844.000001
 30
0.0
  0
VERTEX
  5
13C
  8
TEAM-BODY
 10
-262.5
 20
819.000001
 30
0.0
 42
0.414214
  0
VERTEX
  5
13D
  8
TEAM-BODY
 10
-257.5
 20
814.000001
 30
0.0
  0
VERTEX
  5
13E
  8
TEAM-BODY
 10
-248.834098
 20
814.000001
 30
0.0
 42
0.33346
  0
VERTEX
  5
13F
  8
TEAM-BODY
 10
-134.791558
 20
702.358774
 30
0.0
 42
0.042743
  0
VERTEX
  5
140
  8
TEAM-BODY
 10
-64.274717
 20
693.274208
 30
0.0
 42
-0.124839
  0
VERTEX
  5
141
  8
TEAM-BODY
 10
-40.818071
 20
683.298869
 30
0.0
 42
-0.234224
  0
VERTEX
  5
142
  8
TEAM-BODY
 10
-36.873827
 20
675.340992
 30
0.0
  0
VERTEX
  5
143
  8
TEAM-BODY
 10
-36.873827
 20
659.000001
 30
0.0
  0
VERTEX
  5
144
  8
TEAM-BODY
 10
0.376139
 20
659.000001
 30
0.0
  0
VERTEX
  5
145
  8
TEAM-BODY
 10
37.626104
 20
659.000001
 30
0.0
  0
VERTEX
  5
146
  8
TEAM-BODY
 10
37.626104
 20
675.340992
 30
0.0
 42
-0.234224
  0
VERTEX
  5
147
  8
TEAM-BODY
 10
41.570348
 20
683.298869
 30
0.0
 42
-0.124839
  0
VERTEX
  5
148
  8
TEAM-BODY
 10
65.026994
 20
693.274208
 30
0.0
 42
0.042743
  0
VERTEX
  5
149
  8
TEAM-BODY
 10
135.543836
 20
702.358774
 30
0.0
 42
0.33346
  0
SEQEND
  5
14A
  8
TEAM-BODY
  0
LINE
  5
77
  8
TEAM-DET1
 10
257.5
 20
814.000001
 30
0.0
 11
37.046344
 21
814.000001
 31
0.0
  0
TEXT
  5
79
  8
TEAM-TXT
 10
-66.944074
 20
737.862315
 30
0.0
 40
30.0
  1
team 231026
 41
0.8
 51
15.0
  7
TEAM
  0
CIRCLE
  5
7C
  8
TEAM-COLD
 10
51.781898
 20
599.000001
 30
0.0
 40
12.0
  0
LINE
  5
7E
  8
TEAM-AXE
 10
51.781898
 20
599.000001
 30
0.0
 11
76.781898
 21
599.000001
 31
0.0
  0
DIMENSION
  5
81
  8
TEAM-MAS
  2
*D0
 10
51.781898
 20
429.000001
 30
10.0
 11
-8.218102
 21
484.195816
 31
0.0
 12
-8000.0
 22
-12000.0
 32
0.0
 70
   128
 13
-68.218102
 23
604.000001
 33
10.0
 14
51.781898
 24
604.000001
 34
10.0
1001
ACAD
1000
DSTYLE
1002
{
1070
    40
1040
1.0
1002
}
  0
ARC
  5
8E
  8
TEAM-DET1
 10
-27.046344
 20
667.894372
 30
0.0
 40
5.0
 50
180.0
 51
273.172223
  0
ARC
  5
8F
  8
TEAM-DET1
 10
27.046344
 20
667.939611
 30
0.0
 40
5.0
 50
266.923613
 51
0.0
  0
LINE
  5
90
  8
TEAM-DET1
 10
37.486839
 20
846.851157
 30
0.0
 11
37.486839
 21
817.030411
 31
0.0
  0
ARC
  5
91
  8
TEAM-DET1
 10
0.414403
 20
172.413202
 30
0.0
 40
491.241557
 50
86.923613
 51
93.172223
  0
ARC
  5
92
  8
TEAM-DET1
 10
37.046344
 20
809.000001
 30
0.0
 40
5.0
 50
90.0
 51
180.0
  0
LINE
  5
93
  8
TEAM-DET1
 10
32.046344
 20
667.939611
 30
0.0
 11
32.046344
 21
849.000001
 31
0.0
  0
LINE
  5
94
  8
TEAM-DET1
 10
-32.046344
 20
667.894372
 30
0.0
 11
-32.046344
 21
849.000001
 31
0.0
  0
ARC
  5
95
  8
TEAM-DET1
 10
-37.046344
 20
809.000001
 30
0.0
 40
5.0
 50
0.0
 51
90.0
  0
LINE
  5
96
  8
TEAM-DET1
 10
-257.5
 20
814.000001
 30
0.0
 11
-37.046344
 21
814.000001
 31
0.0
  0
LINE
  5
97
  8
TEAM-DET1
 10
-37.486839
 20
846.851157
 30
0.0
 11
-37.486839
 21
817.030411
 31
0.0
  0
LINE
  5
98
  8
TEAM-DET1
 10
-24.632498
 20
758.088065
 30
0.0
 11
25.368239
 21
758.088065
 31
0.0
  0
LINE
  5
99
  8
TEAM-AXE
 10
0.376139
 20
637.722978
 30
0.0
 11
0.376139
 21
671.7382
 31
0.0
  0
CIRCLE
  5
9A
  8
TEAM-INSP
 10
-8.218102
 20
-0.999999
 30
0.0
 40
10.0
  0
ARC
  5
9C
  8
TEAM-BODY
 10
0.0
 20
0.0
 30
0.0
 40
0.999999
 50
269.999957
 51
0.000043
  0
LINE
  5
9D
  8
TEAM-AXE
 10
-8.218102
 20
539.000001
 30
0.0
 11
-8.218102
 21
568.285319
 31
0.0
  0
LINE
  5
9E
  8
TEAM-AXE
 10
-8.218102
 20
539.000001
 30
0.0
 11
-8.218102
 21
509.000001
 31
0.0
  0
LINE
  5
9F
  8
TEAM-AXE
 10
-8.218102
 20
539.000001
 30
0.0
 11
21.781898
 21
539.000001
 31
0.0
  0
CIRCLE
  5
A0
  8
TEAM-KAN
 10
-8.218102
 20
539.000001
 30
0.0
 40
20.0
  0
LINE
  5
A2
  8
TEAM-AXE
 10
-8.218102
 20
539.000001
 30
0.0
 11
-38.218102
 21
539.000001
 31
0.0
  0
LINE
  5
A3
  8
TEAM-AXE
 10
-68.218102
 20
599.000001
 30
0.0
 11
-93.218102
 21
599.000001
 31
0.0
  0
LINE
  5
A4
  8
TEAM-AXE
 10
-68.218102
 20
599.000001
 30
0.0
 11
-43.218102
 21
599.000001
 31
0.0
  0
CIRCLE
  5
A5
  8
TEAM-WARM
 10
-68.218102
 20
599.000001
 30
0.0
 40
12.0
  0
LINE
  5
A7
  8
TEAM-AXE
 10
-68.218102
 20
599.000001
 30
0.0
 11
-68.218102
 21
624.000001
 31
0.0
  0
LINE
  5
A8
  8
TEAM-AXE
 10
-68.218102
 20
599.000001
 30
0.0
 11
-68.218102
 21
604.000001
 31
0.0
  0
LINE
  5
A9
  8
TEAM-AXE
 10
51.781898
 20
599.000001
 30
0.0
 11
26.781898
 21
599.000001
 31
0.0
  0
LINE
  5
AA
  8
TEAM-AXE
 10
51.781898
 20
599.000001
 30
0.0
 11
51.781898
 21
624.000001
 31
0.0
  0
LINE
  5
AB
  8
TEAM-AXE
 10
51.781898
 20
599.000001
 30
0.0
 11
51.781898
 21
604.000001
 31
0.0
  0
DIMENSION
  5
AC
  8
TEAM-MAS
  2
*D6
 10
396.248111
 20
849.000001
 30
0.0
 11
396.248111
 21
724.000001
 31
0.0
 12
-8000.0
 22
-12000.0
 32
0.0
 13
76.781898
 23
599.000001
 33
0.0
 14
257.5
 24
849.000001
 34
0.0
 50
90.0
1001
ACAD
1000
DSTYLE
1002
{
1070
    40
1040
1.0
1002
}
  0
DIMENSION
  5
BA
  8
TEAM-MAS
  2
*D5
 10
306.580273
 20
814.000001
 30
10.0
 11
308.817618
 21
751.154332
 31
0.0
 12
-8000.0
 22
-12000.0
 32
0.0
 70
   128
 13
257.5
 23
849.000001
 33
0.0
 14
257.5
 24
814.000001
 34
0.0
 50
90.0
1001
ACAD
1000
DSTYLE
1002
{
1070
    40
1040
1.0
1002
}
  0
ENDSEC
  0
EOF
