  0
SECTION
  2
HEADER
  9
$ACADVER
  1
AC1009
  9
$INSBASE
 10
0.0
 20
0.0
 30
0.0
  9
$EXTMIN
 10
-160.026983
 20
-432.464157
 30
0.0
  9
$EXTMAX
 10
282.83282
 20
8.231982
 30
0.0
  9
$LIMMIN
 10
-160.026983
 20
-432.464157
  9
$LIMMAX
 10
282.83282
 20
8.231982
  9
$ORTHOMODE
 70
     1
  9
$REGENMODE
 70
     1
  9
$FILLMODE
 70
     1
  9
$QTEXTMODE
 70
     0
  9
$MIRRTEXT
 70
     0
  9
$DRAGMODE
 70
     2
  9
$LTSCALE
 40
25.0
  9
$OSMODE
 70
     0
  9
$ATTMODE
 70
     1
  9
$TEXTSIZE
 40
200.0
  9
$TRACEWID
 40
1.0
  9
$TEXTSTYLE
  7
STANDARD
  9
$CLAYER
  8
TEAM-MAS
  9
$CELTYPE
  6
BYLAYER
  9
$CECOLOR
 62
   256
  9
$DIMSCALE
 40
1.0
  9
$DIMASZ
 40
20.0
  9
$DIMEXO
 40
10.0
  9
$DIMDLI
 40
1.0
  9
$DIMRND
 40
0.0
  9
$DIMDLE
 40
0.0
  9
$DIMEXE
 40
1.0
  9
$DIMTP
 40
0.0
  9
$DIMTM
 40
0.0
  9
$DIMTXT
 40
35.0
  9
$DIMCEN
 40
1.0
  9
$DIMTSZ
 40
0.0
  9
$DIMTOL
 70
     0
  9
$DIMLIM
 70
     0
  9
$DIMTIH
 70
     0
  9
$DIMTOH
 70
     0
  9
$DIMSE1
 70
     0
  9
$DIMSE2
 70
     0
  9
$DIMTAD
 70
     0
  9
$DIMZIN
 70
     0
  9
$DIMBLK
  1

  9
$DIMASO
 70
     1
  9
$DIMSHO
 70
     0
  9
$DIMPOST
  1

  9
$DIMAPOST
  1

  9
$DIMALT
 70
     0
  9
$DIMALTD
 70
     2
  9
$DIMALTF
 40
25.4
  9
$DIMLFAC
 40
1.0
  9
$DIMTOFL
 70
     0
  9
$DIMTVP
 40
0.0
  9
$DIMTIX
 70
     0
  9
$DIMSOXD
 70
     0
  9
$DIMSAH
 70
     0
  9
$DIMBLK1
  1

  9
$DIMBLK2
  1

  9
$DIMSTYLE
  2
TEAM
  9
$DIMCLRD
 70
     9
  9
$DIMCLRE
 70
     9
  9
$DIMCLRT
 70
    11
  9
$DIMTFAC
 40
1.0
  9
$DIMGAP
 40
15.0
  9
$LUNITS
 70
     2
  9
$LUPREC
 70
     1
  9
$SKETCHINC
 40
1.0
  9
$FILLETRAD
 40
50.0
  9
$AUNITS
 70
     0
  9
$AUPREC
 70
     0
  9
$MENU
  1
ROPLANS
  9
$ELEVATION
 40
0.0
  9
$PELEVATION
 40
0.0
  9
$THICKNESS
 40
0.0
  9
$LIMCHECK
 70
     0
  9
$BLIPMODE
 70
     1
  9
$CHAMFERA
 40
0.0
  9
$CHAMFERB
 40
0.0
  9
$SKPOLY
 70
     0
  9
$TDCREATE
 40
2450392.957851
  9
$TDUPDATE
 40
2455505.473099
  9
$TDINDWG
 40
2.023557
  9
$TDUSRTIMER
 40
2.023557
  9
$USRTIMER
 70
     1
  9
$ANGBASE
 50
0.0
  9
$ANGDIR
 70
     0
  9
$PDMODE
 70
     0
  9
$PDSIZE
 40
0.0
  9
$PLINEWID
 40
0.0
  9
$COORDS
 70
     2
  9
$SPLFRAME
 70
     0
  9
$SPLINETYPE
 70
     6
  9
$SPLINESEGS
 70
     8
  9
$ATTDIA
 70
     0
  9
$ATTREQ
 70
     0
  9
$HANDLING
 70
     1
  9
$HANDSEED
  5
FA
  9
$SURFTAB1
 70
    24
  9
$SURFTAB2
 70
    24
  9
$SURFTYPE
 70
     6
  9
$SURFU
 70
     6
  9
$SURFV
 70
     6
  9
$UCSNAME
  2

  9
$UCSORG
 10
0.0
 20
0.0
 30
0.0
  9
$UCSXDIR
 10
1.0
 20
0.0
 30
0.0
  9
$UCSYDIR
 10
0.0
 20
1.0
 30
0.0
  9
$PUCSNAME
  2

  9
$PUCSORG
 10
0.0
 20
0.0
 30
0.0
  9
$PUCSXDIR
 10
1.0
 20
0.0
 30
0.0
  9
$PUCSYDIR
 10
0.0
 20
1.0
 30
0.0
  9
$USERI1
 70
     0
  9
$USERI2
 70
     0
  9
$USERI3
 70
     0
  9
$USERI4
 70
     0
  9
$USERI5
 70
     0
  9
$USERR1
 40
0.0
  9
$USERR2
 40
0.0
  9
$USERR3
 40
0.0
  9
$USERR4
 40
0.0
  9
$USERR5
 40
0.0
  9
$WORLDVIEW
 70
     1
  9
$SHADEDGE
 70
     0
  9
$SHADEDIF
 70
    70
  9
$TILEMODE
 70
     1
  9
$MAXACTVP
 70
    16
  9
$PLIMCHECK
 70
     0
  9
$PEXTMIN
 10
-0.805942
 20
0.005011
 30
0.0
  9
$PEXTMAX
 10
20.250094
 20
11.356329
 30
0.0
  9
$PLIMMIN
 10
0.0
 20
0.0
  9
$PLIMMAX
 10
12.0
 20
9.0
  9
$UNITMODE
 70
     0
  9
$VISRETAIN
 70
     0
  9
$PLINEGEN
 70
     0
  9
$PSLTSCALE
 70
     0
  0
ENDSEC
  0
SECTION
  2
TABLES
  0
TABLE
  2
VPORT
 70
     2
  0
VPORT
  2
*ACTIVE
 70
     0
 10
0.0
 20
0.0
 11
1.0
 21
1.0
 12
61.402919
 22
-212.116088
 13
0.0
 23
0.0
 14
1.0
 24
1.0
 15
50.0
 25
50.0
 16
0.0
 26
0.0
 36
1.0
 17
0.0
 27
0.0
 37
0.0
 40
443.402564
 41
1.865779
 42
50.0
 43
0.0
 44
0.0
 50
0.0
 51
0.0
 71
     0
 72
   100
 73
     1
 74
     1
 75
     0
 76
     0
 77
     0
 78
     0
  0
ENDTAB
  0
TABLE
  2
LTYPE
 70
     3
  0
LTYPE
  2
CONTINUOUS
 70
     0
  3
Solid Line
 72
    65
 73
     0
 40
0.0
  0
LTYPE
  2
31
 70
     0
  3

 72
    65
 73
     4
 40
2.1
 49
1.5
 49
-0.3
 49
0.0
 49
-0.3
  0
LTYPE
  2
22
 70
     0
  3

 72
    65
 73
     2
 40
1.4
 49
1.2
 49
-0.2
  0
ENDTAB
  0
TABLE
  2
LAYER
 70
    10
  0
LAYER
  2
0
 70
     0
 62
     7
  6
CONTINUOUS
  0
LAYER
  2
DEFPOINTS
 70
     0
 62
     7
  6
CONTINUOUS
  0
LAYER
  2
TEAM-BODY
 70
     0
 62
     2
  6
CONTINUOUS
  0
LAYER
  2
TEAM-AXE
 70
     0
 62
    10
  6
31
  0
LAYER
  2
TEAM-MAS
 70
     0
 62
     9
  6
CONTINUOUS
  0
LAYER
  2
TEAM-TXT
 70
     0
 62
    11
  6
CONTINUOUS
  0
LAYER
  2
TEAM-DET1
 70
     0
 62
     4
  6
CONTINUOUS
  0
LAYER
  2
TEAM-HIDE
 70
     0
 62
     8
  6
22
  0
LAYER
  2
TEAM-KAN
 70
     0
 62
     6
  6
CONTINUOUS
  0
LAYER
  2
TEAM-INSP
 70
     0
 62
     5
  6
CONTINUOUS
  0
ENDTAB
  0
TABLE
  2
STYLE
 70
     2
  0
STYLE
  2
STANDARD
 70
     0
 40
0.0
 41
1.0
 50
0.0
 71
     0
 42
200.0
  3
txt
  4

  0
STYLE
  2
TEAM
 70
     0
 40
0.0
 41
0.8
 50
15.0
 71
     0
 42
7.0
  3
ROMANS.shx
  4

  0
ENDTAB
  0
TABLE
  2
VIEW
 70
     0
  0
ENDTAB
  0
TABLE
  2
UCS
 70
     0
  0
ENDTAB
  0
TABLE
  2
APPID
 70
     1
  0
APPID
  2
ACAD
 70
     0
  0
ENDTAB
  0
TABLE
  2
DIMSTYLE
 70
     1
  0
DIMSTYLE
  2
TEAM
 70
     0
  3

  4

  5

  6

  7

 40
1.0
 41
20.0
 42
10.0
 43
1.0
 44
1.0
 45
0.0
 46
0.0
 47
0.0
 48
0.0
140
35.0
141
1.0
142
0.0
143
25.4
144
1.0
145
0.0
146
1.0
147
15.0
 71
     0
 72
     0
 73
     0
 74
     0
 75
     0
 76
     0
 77
     0
 78
     0
170
     0
171
     2
172
     0
173
     0
174
     0
175
     0
176
     9
177
     9
178
    11
  0
ENDTAB
  0
ENDSEC
  0
SECTION
  2
BLOCKS
  0
BLOCK
  8
0
  2
$MODEL_SPACE
 70
     0
 10
0.0
 20
0.0
 30
0.0
  3
$MODEL_SPACE
  1

  0
ENDBLK
  5
EE
  8
0
  0
BLOCK
 67
     1
  8
0
  2
$PAPER_SPACE
 70
     0
 10
0.0
 20
0.0
 30
0.0
  3
$PAPER_SPACE
  1

  0
ENDBLK
  5
EC
 67
     1
  8
0
  0
BLOCK
  8
0
  2
*D0
 70
     1
 10
0.0
 20
0.0
 30
0.0
  3
*D0
  1

  0
LINE
  5
5F
  8
0
  6
BYBLOCK
 62
     9
 10
4160.0
 20
35830.0
 30
0.0
 11
4160.0
 21
35583.767334
 31
0.0
  0
LINE
  5
60
  8
0
  6
BYBLOCK
 62
     9
 10
3840.0
 20
35830.0
 30
0.0
 11
3840.0
 21
35583.767334
 31
0.0
  0
LINE
  5
61
  8
0
  6
BYBLOCK
 62
     9
 10
4140.0
 20
35584.767334
 30
0.0
 11
4046.51378
 21
35584.767334
 31
0.0
  0
LINE
  5
62
  8
0
  6
BYBLOCK
 62
     9
 10
3860.0
 20
35584.767334
 30
0.0
 11
3953.48622
 21
35584.767334
 31
0.0
  0
SOLID
  5
63
  8
0
  6
BYBLOCK
 62
     9
 10
4140.0
 20
35588.100667
 30
0.0
 11
4140.0
 21
35581.434001
 31
0.0
 12
4160.0
 22
35584.767334
 32
0.0
 13
4160.0
 23
35584.767334
 33
0.0
  0
SOLID
  5
64
  8
0
  6
BYBLOCK
 62
     9
 10
3860.0
 20
35588.100667
 30
0.0
 11
3860.0
 21
35581.434001
 31
0.0
 12
3840.0
 22
35584.767334
 32
0.0
 13
3840.0
 23
35584.767334
 33
0.0
  0
TEXT
  5
65
  8
0
  6
BYBLOCK
 62
    11
 10
3963.23622
 20
35567.267334
 30
0.0
 40
35.0
  1
320
  0
POINT
  5
66
  8
DEFPOINTS
  6
BYBLOCK
 62
     0
 10
4160.0
 20
35840.0
 30
0.0
  0
POINT
  5
67
  8
DEFPOINTS
  6
BYBLOCK
 62
     0
 10
3840.0
 20
35840.0
 30
0.0
  0
POINT
  5
68
  8
DEFPOINTS
  6
BYBLOCK
 62
     0
 10
3840.0
 20
35584.767334
 30
0.0
  0
ENDBLK
  5
6A
  8
0
  0
BLOCK
  8
0
  2
*D1
 70
     1
 10
0.0
 20
0.0
 30
0.0
  3
*D1
  1

  0
LINE
  5
51
  8
0
  6
BYBLOCK
 62
     9
 10
4137.5
 20
35830.0
 30
0.0
 11
4137.5
 21
35632.647452
 31
0.0
  0
LINE
  5
52
  8
0
  6
BYBLOCK
 62
     9
 10
3862.5
 20
35830.0
 30
0.0
 11
3862.5
 21
35632.647452
 31
0.0
  0
LINE
  5
53
  8
0
  6
BYBLOCK
 62
     9
 10
4117.5
 20
35633.647452
 30
0.0
 11
4047.669263
 21
35633.647452
 31
0.0
  0
LINE
  5
54
  8
0
  6
BYBLOCK
 62
     9
 10
3882.5
 20
35633.647452
 30
0.0
 11
3952.330737
 21
35633.647452
 31
0.0
  0
SOLID
  5
55
  8
0
  6
BYBLOCK
 62
     9
 10
4117.5
 20
35636.980785
 30
0.0
 11
4117.5
 21
35630.314118
 31
0.0
 12
4137.5
 22
35633.647452
 32
0.0
 13
4137.5
 23
35633.647452
 33
0.0
  0
SOLID
  5
56
  8
0
  6
BYBLOCK
 62
     9
 10
3882.5
 20
35636.980785
 30
0.0
 11
3882.5
 21
35630.314118
 31
0.0
 12
3862.5
 22
35633.647452
 32
0.0
 13
3862.5
 23
35633.647452
 33
0.0
  0
TEXT
  5
57
  8
0
  6
BYBLOCK
 62
    11
 10
3962.969516
 20
35616.147452
 30
0.0
 40
35.0
  1
275
  0
POINT
  5
58
  8
DEFPOINTS
  6
BYBLOCK
 62
     0
 10
4137.5
 20
35840.0
 30
0.0
  0
POINT
  5
59
  8
DEFPOINTS
  6
BYBLOCK
 62
     0
 10
3862.5
 20
35840.0
 30
0.0
  0
POINT
  5
5A
  8
DEFPOINTS
  6
BYBLOCK
 62
     0
 10
3862.5
 20
35633.647452
 30
0.0
  0
ENDBLK
  5
5C
  8
0
  0
BLOCK
  8
0
  2
*D2
 70
     1
 10
0.0
 20
0.0
 30
0.0
  3
*D2
  1

  0
LINE
  5
3F
  8
0
  6
BYBLOCK
 62
     9
 10
4010.0
 20
35977.5
 30
0.0
 11
4215.759959
 21
35977.5
 31
0.0
  0
LINE
  5
40
  8
0
  6
BYBLOCK
 62
     9
 10
4010.0
 20
35702.5
 30
0.0
 11
4215.759959
 21
35702.5
 31
0.0
  0
LINE
  5
41
  8
0
  6
BYBLOCK
 62
     9
 10
4214.759959
 20
35957.5
 30
0.0
 11
4214.759959
 21
35887.669263
 31
0.0
  0
LINE
  5
42
  8
0
  6
BYBLOCK
 62
     9
 10
4214.759959
 20
35722.5
 30
0.0
 11
4214.759959
 21
35792.330737
 31
0.0
  0
SOLID
  5
43
  8
0
  6
BYBLOCK
 62
     9
 10
4211.426626
 20
35957.5
 30
0.0
 11
4218.093292
 21
35957.5
 31
0.0
 12
4214.759959
 22
35977.5
 32
0.0
 13
4214.759959
 23
35977.5
 33
0.0
  0
SOLID
  5
44
  8
0
  6
BYBLOCK
 62
     9
 10
4211.426626
 20
35722.5
 30
0.0
 11
4218.093292
 21
35722.5
 31
0.0
 12
4214.759959
 22
35702.5
 32
0.0
 13
4214.759959
 23
35702.5
 33
0.0
  0
TEXT
  5
45
  8
0
  6
BYBLOCK
 62
    11
 10
4232.259959
 20
35802.969516
 30
0.0
 40
35.0
  1
275
 50
90.0
  0
POINT
  5
46
  8
DEFPOINTS
  6
BYBLOCK
 62
     0
 10
4000.0
 20
35977.5
 30
0.0
  0
POINT
  5
47
  8
DEFPOINTS
  6
BYBLOCK
 62
     0
 10
4000.0
 20
35702.5
 30
0.0
  0
POINT
  5
48
  8
DEFPOINTS
  6
BYBLOCK
 62
     0
 10
4214.759959
 20
35702.5
 30
0.0
  0
ENDBLK
  5
4A
  8
0
  0
BLOCK
  8
0
  2
*D3
 70
     1
 10
0.0
 20
0.0
 30
0.0
  3
*D3
  1

  0
LINE
  5
24
  8
0
  6
BYBLOCK
 62
     9
 10
4010.0
 20
36000.0
 30
0.0
 11
4266.627795
 21
36000.0
 31
0.0
  0
LINE
  5
25
  8
0
  6
BYBLOCK
 62
     9
 10
4010.0
 20
35680.0
 30
0.0
 11
4266.627795
 21
35680.0
 31
0.0
  0
LINE
  5
26
  8
0
  6
BYBLOCK
 62
     9
 10
4265.627795
 20
35980.0
 30
0.0
 11
4265.627795
 21
35886.51378
 31
0.0
  0
LINE
  5
27
  8
0
  6
BYBLOCK
 62
     9
 10
4265.627795
 20
35700.0
 30
0.0
 11
4265.627795
 21
35793.48622
 31
0.0
  0
SOLID
  5
28
  8
0
  6
BYBLOCK
 62
     9
 10
4262.294461
 20
35980.0
 30
0.0
 11
4268.961128
 21
35980.0
 31
0.0
 12
4265.627795
 22
36000.0
 32
0.0
 13
4265.627795
 23
36000.0
 33
0.0
  0
SOLID
  5
29
  8
0
  6
BYBLOCK
 62
     9
 10
4262.294461
 20
35700.0
 30
0.0
 11
4268.961128
 21
35700.0
 31
0.0
 12
4265.627795
 22
35680.0
 32
0.0
 13
4265.627795
 23
35680.0
 33
0.0
  0
TEXT
  5
2A
  8
0
  6
BYBLOCK
 62
    11
 10
4283.127795
 20
35803.23622
 30
0.0
 40
35.0
  1
320
 50
90.0
  0
POINT
  5
2B
  8
DEFPOINTS
  6
BYBLOCK
 62
     0
 10
4000.0
 20
36000.0
 30
0.0
  0
POINT
  5
2D
  8
DEFPOINTS
  6
BYBLOCK
 62
     0
 10
4000.0
 20
35680.0
 30
0.0
  0
POINT
  5
2E
  8
DEFPOINTS
  6
BYBLOCK
 62
     0
 10
4265.627795
 20
35680.0
 30
0.0
  0
ENDBLK
  5
30
  8
0
  0
ENDSEC
  0
SECTION
  2
ENTITIES
  0
CIRCLE
  5
20
  8
TEAM-INSP
 10
0.0
 20
0.0
 30
0.0
 40
8.205128
  0
DIMENSION
  5
22
  8
TEAM-MAS
  2
*D3
 10
265.627795
 20
-320.0
 30
0.0
 11
265.627795
 21
-160.0
 31
0.0
 12
-4000.0
 22
-36000.0
 32
0.0
 13
0.0
 23
0.0
 33
0.0
 14
0.0
 24
-320.0
 34
0.0
 50
90.0
1001
ACAD
1000
DSTYLE
1002
{
1070
    40
1040
1.0
1002
}
  0
CIRCLE
  5
31
  8
TEAM-BODY
 10
0.0
 20
-160.0
 30
0.0
 40
160.0
  0
CIRCLE
  5
33
  8
TEAM-KAN
 10
0.0
 20
-160.0
 30
0.0
 40
20.512821
  0
CIRCLE
  5
35
  8
TEAM-DET1
 10
0.0
 20
-160.0
 30
0.0
 40
28.717949
  0
LINE
  5
37
  8
TEAM-AXE
 10
-11.335441
 20
-160.0
 30
0.0
 11
-37.3161
 21
-160.0
 31
0.0
  0
LINE
  5
3A
  8
TEAM-AXE
 10
0.0
 20
-171.334556
 30
0.0
 11
0.0
 21
-197.3161
 31
0.0
  0
LINE
  5
3B
  8
TEAM-AXE
 10
37.3161
 20
-160.0
 30
0.0
 11
11.335441
 21
-160.0
 31
0.0
  0
LINE
  5
3C
  8
TEAM-AXE
 10
0.0
 20
-122.6839
 30
0.0
 11
0.0
 21
-148.664284
 31
0.0
  0
DIMENSION
  5
3D
  8
TEAM-MAS
  2
*D2
 10
214.759959
 20
-297.5
 30
0.0
 11
214.759959
 21
-160.0
 31
0.0
 12
-4000.0
 22
-36000.0
 32
0.0
 13
0.0
 23
-22.5
 33
0.0
 14
0.0
 24
-297.5
 34
0.0
 50
90.0
1001
ACAD
1000
DSTYLE
1002
{
1070
    40
1040
1.0
1002
}
  0
CIRCLE
  5
4B
  8
TEAM-DET1
 10
0.0
 20
-160.0
 30
0.0
 40
137.5
  0
TEXT
  5
4C
  8
TEAM-TXT
 10
-136.258766
 20
-124.418252
 30
0.0
 40
30.0
  1
team 231032
 41
0.8
 51
15.0
  7
TEAM
  0
DIMENSION
  5
4F
  8
TEAM-MAS
  2
*D1
 10
-137.5
 20
-366.352548
 30
0.0
 11
0.0
 21
-366.352548
 31
0.0
 12
-4000.0
 22
-36000.0
 32
0.0
 13
137.5
 23
-160.0
 33
0.0
 14
-137.5
 24
-160.0
 34
0.0
1001
ACAD
1000
DSTYLE
1002
{
1070
    40
1040
1.0
1002
}
  0
DIMENSION
  5
5D
  8
TEAM-MAS
  2
*D0
 10
-160.0
 20
-415.232666
 30
0.0
 11
0.0
 21
-415.232666
 31
0.0
 12
-4000.0
 22
-36000.0
 32
0.0
 13
160.0
 23
-160.0
 33
0.0
 14
-160.0
 24
-160.0
 34
0.0
1001
ACAD
1000
DSTYLE
1002
{
1070
    40
1040
1.0
1002
}
  0
POLYLINE
  5
6B
  8
TEAM-HIDE
 66
     1
 10
0.0
 20
0.0
 30
0.0
  0
VERTEX
  5
F4
  8
TEAM-HIDE
 10
-25.0
 20
-1.794872
 30
0.0
  0
VERTEX
  5
F5
  8
TEAM-HIDE
 10
-25.0
 20
8.205128
 30
0.0
  0
VERTEX
  5
F6
  8
TEAM-HIDE
 10
25.0
 20
8.205128
 30
0.0
  0
VERTEX
  5
F7
  8
TEAM-HIDE
 10
25.0
 20
-1.794872
 30
0.0
  0
SEQEND
  5
F8
  8
TEAM-HIDE
  0
ENDSEC
  0
EOF
