  0
SECTION
  2
HEADER
  9
$ACADVER
  1
AC1009
  9
$INSBASE
 10
0.0
 20
0.0
 30
0.0
  9
$EXTMIN
 10
-277.541161
 20
-492.392639
 30
0.0
  9
$EXTMAX
 10
397.674828
 20
7.130444
 30
0.0
  9
$LIMMIN
 10
-277.541161
 20
-492.392639
  9
$LIMMAX
 10
397.674828
 20
7.130444
  9
$ORTHOMODE
 70
     1
  9
$REGENMODE
 70
     1
  9
$FILLMODE
 70
     1
  9
$QTEXTMODE
 70
     0
  9
$MIRRTEXT
 70
     0
  9
$DRAGMODE
 70
     2
  9
$LTSCALE
 40
25.0
  9
$OSMODE
 70
     0
  9
$ATTMODE
 70
     1
  9
$TEXTSIZE
 40
200.0
  9
$TRACEWID
 40
1.0
  9
$TEXTSTYLE
  7
STANDARD
  9
$CLAYER
  8
TEAM-MAS
  9
$CELTYPE
  6
BYLAYER
  9
$CECOLOR
 62
   256
  9
$DIMSCALE
 40
1.0
  9
$DIMASZ
 40
20.0
  9
$DIMEXO
 40
10.0
  9
$DIMDLI
 40
1.0
  9
$DIMRND
 40
0.0
  9
$DIMDLE
 40
0.0
  9
$DIMEXE
 40
1.0
  9
$DIMTP
 40
0.0
  9
$DIMTM
 40
0.0
  9
$DIMTXT
 40
35.0
  9
$DIMCEN
 40
1.0
  9
$DIMTSZ
 40
0.0
  9
$DIMTOL
 70
     0
  9
$DIMLIM
 70
     0
  9
$DIMTIH
 70
     0
  9
$DIMTOH
 70
     0
  9
$DIMSE1
 70
     0
  9
$DIMSE2
 70
     0
  9
$DIMTAD
 70
     0
  9
$DIMZIN
 70
     0
  9
$DIMBLK
  1

  9
$DIMASO
 70
     1
  9
$DIMSHO
 70
     0
  9
$DIMPOST
  1

  9
$DIMAPOST
  1

  9
$DIMALT
 70
     0
  9
$DIMALTD
 70
     2
  9
$DIMALTF
 40
25.4
  9
$DIMLFAC
 40
1.0
  9
$DIMTOFL
 70
     0
  9
$DIMTVP
 40
0.0
  9
$DIMTIX
 70
     0
  9
$DIMSOXD
 70
     0
  9
$DIMSAH
 70
     0
  9
$DIMBLK1
  1

  9
$DIMBLK2
  1

  9
$DIMSTYLE
  2
TEAM
  9
$DIMCLRD
 70
     9
  9
$DIMCLRE
 70
     9
  9
$DIMCLRT
 70
    11
  9
$DIMTFAC
 40
1.0
  9
$DIMGAP
 40
15.0
  9
$LUNITS
 70
     2
  9
$LUPREC
 70
     1
  9
$SKETCHINC
 40
1.0
  9
$FILLETRAD
 40
50.0
  9
$AUNITS
 70
     0
  9
$AUPREC
 70
     0
  9
$MENU
  1
ROPLANS
  9
$ELEVATION
 40
0.0
  9
$PELEVATION
 40
0.0
  9
$THICKNESS
 40
0.0
  9
$LIMCHECK
 70
     0
  9
$BLIPMODE
 70
     1
  9
$CHAMFERA
 40
0.0
  9
$CHAMFERB
 40
0.0
  9
$SKPOLY
 70
     0
  9
$TDCREATE
 40
2450392.957851
  9
$TDUPDATE
 40
2455505.473099
  9
$TDINDWG
 40
2.023557
  9
$TDUSRTIMER
 40
2.023557
  9
$USRTIMER
 70
     1
  9
$ANGBASE
 50
0.0
  9
$ANGDIR
 70
     0
  9
$PDMODE
 70
     0
  9
$PDSIZE
 40
0.0
  9
$PLINEWID
 40
0.0
  9
$COORDS
 70
     2
  9
$SPLFRAME
 70
     0
  9
$SPLINETYPE
 70
     6
  9
$SPLINESEGS
 70
     8
  9
$ATTDIA
 70
     0
  9
$ATTREQ
 70
     0
  9
$HANDLING
 70
     1
  9
$HANDSEED
  5
4DF
  9
$SURFTAB1
 70
    24
  9
$SURFTAB2
 70
    24
  9
$SURFTYPE
 70
     6
  9
$SURFU
 70
     6
  9
$SURFV
 70
     6
  9
$UCSNAME
  2

  9
$UCSORG
 10
0.0
 20
0.0
 30
0.0
  9
$UCSXDIR
 10
1.0
 20
0.0
 30
0.0
  9
$UCSYDIR
 10
0.0
 20
1.0
 30
0.0
  9
$PUCSNAME
  2

  9
$PUCSORG
 10
0.0
 20
0.0
 30
0.0
  9
$PUCSXDIR
 10
1.0
 20
0.0
 30
0.0
  9
$PUCSYDIR
 10
0.0
 20
1.0
 30
0.0
  9
$USERI1
 70
     0
  9
$USERI2
 70
     0
  9
$USERI3
 70
     0
  9
$USERI4
 70
     0
  9
$USERI5
 70
     0
  9
$USERR1
 40
0.0
  9
$USERR2
 40
0.0
  9
$USERR3
 40
0.0
  9
$USERR4
 40
0.0
  9
$USERR5
 40
0.0
  9
$WORLDVIEW
 70
     1
  9
$SHADEDGE
 70
     0
  9
$SHADEDIF
 70
    70
  9
$TILEMODE
 70
     1
  9
$MAXACTVP
 70
    16
  9
$PLIMCHECK
 70
     0
  9
$PEXTMIN
 10
-0.805942
 20
0.005011
 30
0.0
  9
$PEXTMAX
 10
20.250094
 20
11.356329
 30
0.0
  9
$PLIMMIN
 10
0.0
 20
0.0
  9
$PLIMMAX
 10
12.0
 20
9.0
  9
$UNITMODE
 70
     0
  9
$VISRETAIN
 70
     0
  9
$PLINEGEN
 70
     0
  9
$PSLTSCALE
 70
     0
  0
ENDSEC
  0
SECTION
  2
TABLES
  0
TABLE
  2
VPORT
 70
     2
  0
VPORT
  2
*ACTIVE
 70
     0
 10
0.0
 20
0.0
 11
1.0
 21
1.0
 12
60.066834
 22
-242.631097
 13
0.0
 23
0.0
 14
1.0
 24
1.0
 15
50.0
 25
50.0
 16
0.0
 26
0.0
 36
1.0
 17
0.0
 27
0.0
 37
0.0
 40
502.590778
 41
1.865779
 42
50.0
 43
0.0
 44
0.0
 50
0.0
 51
0.0
 71
     0
 72
   100
 73
     1
 74
     1
 75
     0
 76
     0
 77
     0
 78
     0
  0
ENDTAB
  0
TABLE
  2
LTYPE
 70
     2
  0
LTYPE
  2
CONTINUOUS
 70
     0
  3
Solid Line
 72
    65
 73
     0
 40
0.0
  0
LTYPE
  2
31
 70
     0
  3

 72
    65
 73
     4
 40
2.1
 49
1.5
 49
-0.3
 49
0.0
 49
-0.3
  0
ENDTAB
  0
TABLE
  2
LAYER
 70
     9
  0
LAYER
  2
0
 70
     0
 62
     7
  6
CONTINUOUS
  0
LAYER
  2
DEFPOINTS
 70
     0
 62
     7
  6
CONTINUOUS
  0
LAYER
  2
TEAM-BODY
 70
     0
 62
     2
  6
CONTINUOUS
  0
LAYER
  2
TEAM-AXE
 70
     0
 62
    10
  6
31
  0
LAYER
  2
TEAM-MAS
 70
     0
 62
     9
  6
CONTINUOUS
  0
LAYER
  2
TEAM-TXT
 70
     0
 62
    11
  6
CONTINUOUS
  0
LAYER
  2
TEAM-DET1
 70
     0
 62
     4
  6
CONTINUOUS
  0
LAYER
  2
TEAM-KAN
 70
     0
 62
     6
  6
CONTINUOUS
  0
LAYER
  2
TEAM-INSP
 70
     0
 62
     5
  6
CONTINUOUS
  0
ENDTAB
  0
TABLE
  2
STYLE
 70
     2
  0
STYLE
  2
STANDARD
 70
     0
 40
0.0
 41
1.0
 50
0.0
 71
     0
 42
200.0
  3
txt
  4

  0
STYLE
  2
TEAM
 70
     0
 40
0.0
 41
0.8
 50
15.0
 71
     0
 42
7.0
  3
ROMANS.shx
  4

  0
ENDTAB
  0
TABLE
  2
VIEW
 70
     0
  0
ENDTAB
  0
TABLE
  2
UCS
 70
     0
  0
ENDTAB
  0
TABLE
  2
APPID
 70
     1
  0
APPID
  2
ACAD
 70
     0
  0
ENDTAB
  0
TABLE
  2
DIMSTYLE
 70
     1
  0
DIMSTYLE
  2
TEAM
 70
     0
  3

  4

  5

  6

  7

 40
1.0
 41
20.0
 42
10.0
 43
1.0
 44
1.0
 45
0.0
 46
0.0
 47
0.0
 48
0.0
140
35.0
141
1.0
142
0.0
143
25.4
144
1.0
145
0.0
146
1.0
147
15.0
 71
     0
 72
     0
 73
     0
 74
     0
 75
     0
 76
     0
 77
     0
 78
     0
170
     0
171
     2
172
     0
173
     0
174
     0
175
     0
176
     9
177
     9
178
    11
  0
ENDTAB
  0
ENDSEC
  0
SECTION
  2
BLOCKS
  0
BLOCK
  8
0
  2
$MODEL_SPACE
 70
     0
 10
0.0
 20
0.0
 30
0.0
  3
$MODEL_SPACE
  1

  0
ENDBLK
  5
4D8
  8
0
  0
BLOCK
 67
     1
  8
0
  2
$PAPER_SPACE
 70
     0
 10
0.0
 20
0.0
 30
0.0
  3
$PAPER_SPACE
  1

  0
ENDBLK
  5
4D6
 67
     1
  8
0
  0
BLOCK
  8
0
  2
*D0
 70
     1
 10
0.0
 20
0.0
 30
0.0
  3
*D0
  1

  0
LINE
  5
45E
  8
0
  6
BYBLOCK
 62
     9
 10
4010.0
 20
48000.0
 30
0.0
 11
4381.430714
 21
48000.0
 31
0.0
  0
LINE
  5
45F
  8
0
  6
BYBLOCK
 62
     9
 10
4250.00354
 20
47619.997274
 30
0.0
 11
4381.430714
 21
47619.997274
 31
0.0
  0
LINE
  5
460
  8
0
  6
BYBLOCK
 62
     9
 10
4380.430714
 20
47980.0
 30
0.0
 11
4380.430714
 21
47856.512416
 31
0.0
  0
LINE
  5
461
  8
0
  6
BYBLOCK
 62
     9
 10
4380.430714
 20
47639.997274
 30
0.0
 11
4380.430714
 21
47763.484857
 31
0.0
  0
SOLID
  5
462
  8
0
  6
BYBLOCK
 62
     9
 10
4377.097381
 20
47980.0
 30
0.0
 11
4383.764048
 21
47980.0
 31
0.0
 12
4380.430714
 22
48000.0
 32
0.0
 13
4380.430714
 23
48000.0
 33
0.0
  0
SOLID
  5
463
  8
0
  6
BYBLOCK
 62
     9
 10
4377.097381
 20
47639.997274
 30
0.0
 11
4383.764048
 21
47639.997274
 31
0.0
 12
4380.430714
 22
47619.997274
 32
0.0
 13
4380.430714
 23
47619.997274
 33
0.0
  0
TEXT
  5
464
  8
0
  6
BYBLOCK
 62
    11
 10
4397.930714
 20
47773.234857
 30
0.0
 40
35.0
  1
380
 50
90.0
  0
POINT
  5
465
  8
DEFPOINTS
  6
BYBLOCK
 62
     0
 10
4000.0
 20
48000.0
 30
0.0
  0
POINT
  5
466
  8
DEFPOINTS
  6
BYBLOCK
 62
     0
 10
4240.00354
 20
47619.997274
 30
0.0
  0
POINT
  5
467
  8
DEFPOINTS
  6
BYBLOCK
 62
     0
 10
4380.430714
 20
47619.997274
 30
0.0
  0
ENDBLK
  5
469
  8
0
  0
BLOCK
  8
0
  2
*D1
 70
     1
 10
0.0
 20
0.0
 30
0.0
  3
*D1
  1

  0
LINE
  5
44F
  8
0
  6
BYBLOCK
 62
     9
 10
3722.5
 20
47657.947912
 30
0.0
 11
3722.5
 21
47523.83164
 31
0.0
  0
LINE
  5
450
  8
0
  6
BYBLOCK
 62
     9
 10
4277.5
 20
47657.947851
 30
0.0
 11
4277.5
 21
47523.83164
 31
0.0
  0
LINE
  5
451
  8
0
  6
BYBLOCK
 62
     9
 10
3742.5
 20
47524.83164
 30
0.0
 11
3952.775126
 21
47524.83164
 31
0.0
  0
LINE
  5
452
  8
0
  6
BYBLOCK
 62
     9
 10
4257.5
 20
47524.83164
 30
0.0
 11
4047.224874
 21
47524.83164
 31
0.0
  0
SOLID
  5
453
  8
0
  6
BYBLOCK
 62
     9
 10
3742.5
 20
47528.164974
 30
0.0
 11
3742.5
 21
47521.498307
 31
0.0
 12
3722.5
 22
47524.83164
 32
0.0
 13
3722.5
 23
47524.83164
 33
0.0
  0
SOLID
  5
454
  8
0
  6
BYBLOCK
 62
     9
 10
4257.5
 20
47528.164974
 30
0.0
 11
4257.5
 21
47521.498307
 31
0.0
 12
4277.5
 22
47524.83164
 32
0.0
 13
4277.5
 23
47524.83164
 33
0.0
  0
TEXT
  5
455
  8
0
  6
BYBLOCK
 62
    11
 10
3962.525126
 20
47507.33164
 30
0.0
 40
35.0
  1
555
  0
POINT
  5
456
  8
DEFPOINTS
  6
BYBLOCK
 62
     0
 10
3722.5
 20
47667.947912
 30
0.0
  0
POINT
  5
458
  8
DEFPOINTS
  6
BYBLOCK
 62
     0
 10
4277.5
 20
47667.947851
 30
0.0
  0
POINT
  5
459
  8
DEFPOINTS
  6
BYBLOCK
 62
     0
 10
4277.5
 20
47524.83164
 30
0.0
  0
ENDBLK
  5
45B
  8
0
  0
ENDSEC
  0
SECTION
  2
ENTITIES
  0
CIRCLE
  5
20
  8
TEAM-INSP
 10
0.0
 20
0.0
 30
0.0
 40
7.1
  0
POLYLINE
  5
22
  8
TEAM-BODY
 66
     1
 10
0.0
 20
0.0
 30
0.0
 70
    12
 75
     6
  0
VERTEX
  5
23
  8
TEAM-BODY
 10
-223.522255
 20
-74.590469
 30
0.0
 70
    48
  0
VERTEX
  5
24
  8
TEAM-BODY
 10
-223.522255
 20
-74.590469
 30
0.0
 70
    40
  0
VERTEX
  5
25
  8
TEAM-BODY
 10
-223.301925
 20
-70.363981
 30
0.0
 70
    40
  0
VERTEX
  5
26
  8
TEAM-BODY
 10
-222.682812
 20
-66.758921
 30
0.0
 70
    40
  0
VERTEX
  5
27
  8
TEAM-BODY
 10
-221.727733
 20
-63.719496
 30
0.0
 70
    40
  0
VERTEX
  5
28
  8
TEAM-BODY
 10
-220.499505
 20
-61.189909
 30
0.0
 70
    40
  0
VERTEX
  5
29
  8
TEAM-BODY
 10
-219.060942
 20
-59.114366
 30
0.0
 70
    40
  0
VERTEX
  5
2A
  8
TEAM-BODY
 10
-217.474863
 20
-57.437071
 30
0.0
 70
    40
  0
VERTEX
  5
2B
  8
TEAM-BODY
 10
-215.804082
 20
-56.10223
 30
0.0
 70
    40
  0
VERTEX
  5
2C
  8
TEAM-BODY
 10
-214.111417
 20
-55.054047
 30
0.0
 70
    40
  0
VERTEX
  5
2D
  8
TEAM-BODY
 10
-212.452317
 20
-54.241217
 30
0.0
 70
    40
  0
VERTEX
  5
2E
  8
TEAM-BODY
 10
-210.852766
 20
-53.630391
 30
0.0
 70
    40
  0
VERTEX
  5
2F
  8
TEAM-BODY
 10
-209.33138
 20
-53.192713
 30
0.0
 70
    40
  0
VERTEX
  5
30
  8
TEAM-BODY
 10
-207.906777
 20
-52.899325
 30
0.0
 70
    40
  0
VERTEX
  5
31
  8
TEAM-BODY
 10
-206.597574
 20
-52.721368
 30
0.0
 70
    40
  0
VERTEX
  5
32
  8
TEAM-BODY
 10
-205.422388
 20
-52.629985
 30
0.0
 70
    40
  0
VERTEX
  5
33
  8
TEAM-BODY
 10
-204.399835
 20
-52.596317
 30
0.0
 70
    40
  0
VERTEX
  5
34
  8
TEAM-BODY
 10
-203.548533
 20
-52.591508
 30
0.0
 70
    40
  0
VERTEX
  5
35
  8
TEAM-BODY
 10
-202.749018
 20
-52.591508
 30
0.0
 70
    40
  0
VERTEX
  5
36
  8
TEAM-BODY
 10
-201.329503
 20
-52.591508
 30
0.0
 70
    40
  0
VERTEX
  5
37
  8
TEAM-BODY
 10
-198.48012
 20
-52.591508
 30
0.0
 70
    40
  0
VERTEX
  5
38
  8
TEAM-BODY
 10
-193.391001
 20
-52.591508
 30
0.0
 70
    40
  0
VERTEX
  5
39
  8
TEAM-BODY
 10
-185.252279
 20
-52.591508
 30
0.0
 70
    40
  0
VERTEX
  5
3A
  8
TEAM-BODY
 10
-173.254085
 20
-52.591508
 30
0.0
 70
    40
  0
VERTEX
  5
3B
  8
TEAM-BODY
 10
-156.586552
 20
-52.591508
 30
0.0
 70
    40
  0
VERTEX
  5
3C
  8
TEAM-BODY
 10
-134.439813
 20
-52.591508
 30
0.0
 70
    40
  0
VERTEX
  5
3D
  8
TEAM-BODY
 10
-106.401021
 20
-52.591508
 30
0.0
 70
    40
  0
VERTEX
  5
3E
  8
TEAM-BODY
 10
-73.645423
 20
-52.591508
 30
0.0
 70
    40
  0
VERTEX
  5
3F
  8
TEAM-BODY
 10
-37.745288
 20
-52.591508
 30
0.0
 70
    40
  0
VERTEX
  5
40
  8
TEAM-BODY
 10
-0.272884
 20
-52.591508
 30
0.0
 70
    40
  0
VERTEX
  5
41
  8
TEAM-BODY
 10
37.19952
 20
-52.591508
 30
0.0
 70
    40
  0
VERTEX
  5
42
  8
TEAM-BODY
 10
73.099655
 20
-52.591508
 30
0.0
 70
    40
  0
VERTEX
  5
43
  8
TEAM-BODY
 10
105.855253
 20
-52.591508
 30
0.0
 70
    40
  0
VERTEX
  5
44
  8
TEAM-BODY
 10
133.894045
 20
-52.591508
 30
0.0
 70
    40
  0
VERTEX
  5
45
  8
TEAM-BODY
 10
156.040785
 20
-52.591508
 30
0.0
 70
    40
  0
VERTEX
  5
46
  8
TEAM-BODY
 10
172.708324
 20
-52.591508
 30
0.0
 70
    40
  0
VERTEX
  5
47
  8
TEAM-BODY
 10
184.706535
 20
-52.591508
 30
0.0
 70
    40
  0
VERTEX
  5
48
  8
TEAM-BODY
 10
192.84529
 20
-52.591508
 30
0.0
 70
    40
  0
VERTEX
  5
49
  8
TEAM-BODY
 10
197.934464
 20
-52.591508
 30
0.0
 70
    40
  0
VERTEX
  5
4A
  8
TEAM-BODY
 10
200.783929
 20
-52.591508
 30
0.0
 70
    40
  0
VERTEX
  5
4B
  8
TEAM-BODY
 10
202.203558
 20
-52.591508
 30
0.0
 70
    40
  0
VERTEX
  5
4C
  8
TEAM-BODY
 10
203.003225
 20
-52.591508
 30
0.0
 70
    40
  0
VERTEX
  5
4D
  8
TEAM-BODY
 10
203.853116
 20
-52.594714
 30
0.0
 70
    40
  0
VERTEX
  5
4E
  8
TEAM-BODY
 10
204.864668
 20
-52.617159
 30
0.0
 70
    40
  0
VERTEX
  5
4F
  8
TEAM-BODY
 10
206.009631
 20
-52.678081
 30
0.0
 70
    40
  0
VERTEX
  5
50
  8
TEAM-BODY
 10
207.259757
 20
-52.796719
 30
0.0
 70
    40
  0
VERTEX
  5
51
  8
TEAM-BODY
 10
208.586794
 20
-52.992311
 30
0.0
 70
    40
  0
VERTEX
  5
52
  8
TEAM-BODY
 10
209.962494
 20
-53.284097
 30
0.0
 70
    40
  0
VERTEX
  5
53
  8
TEAM-BODY
 10
211.358607
 20
-53.691314
 30
0.0
 70
    40
  0
VERTEX
  5
54
  8
TEAM-BODY
 10
212.746883
 20
-54.2332
 30
0.0
 70
    40
  0
VERTEX
  5
55
  8
TEAM-BODY
 10
214.101327
 20
-54.923332
 30
0.0
 70
    40
  0
VERTEX
  5
56
  8
TEAM-BODY
 10
215.404968
 20
-55.752622
 30
0.0
 70
    40
  0
VERTEX
  5
57
  8
TEAM-BODY
 10
216.643088
 20
-56.706324
 30
0.0
 70
    40
  0
VERTEX
  5
58
  8
TEAM-BODY
 10
217.80097
 20
-57.769687
 30
0.0
 70
    40
  0
VERTEX
  5
59
  8
TEAM-BODY
 10
218.863896
 20
-58.927962
 30
0.0
 70
    40
  0
VERTEX
  5
5A
  8
TEAM-BODY
 10
219.81715
 20
-60.166401
 30
0.0
 70
    40
  0
VERTEX
  5
5B
  8
TEAM-BODY
 10
220.646014
 20
-61.470254
 30
0.0
 70
    40
  0
VERTEX
  5
5C
  8
TEAM-BODY
 10
221.33577
 20
-62.824773
 30
0.0
 70
    40
  0
VERTEX
  5
5D
  8
TEAM-BODY
 10
221.87736
 20
-64.212964
 30
0.0
 70
    40
  0
VERTEX
  5
5E
  8
TEAM-BODY
 10
222.284354
 20
-65.608853
 30
0.0
 70
    40
  0
VERTEX
  5
5F
  8
TEAM-BODY
 10
222.575979
 20
-66.984223
 30
0.0
 70
    40
  0
VERTEX
  5
60
  8
TEAM-BODY
 10
222.771464
 20
-68.310856
 30
0.0
 70
    40
  0
VERTEX
  5
61
  8
TEAM-BODY
 10
222.890037
 20
-69.560535
 30
0.0
 70
    40
  0
VERTEX
  5
62
  8
TEAM-BODY
 10
222.950926
 20
-70.705042
 30
0.0
 70
    40
  0
VERTEX
  5
63
  8
TEAM-BODY
 10
222.973358
 20
-71.716159
 30
0.0
 70
    40
  0
VERTEX
  5
64
  8
TEAM-BODY
 10
222.976563
 20
-72.565669
 30
0.0
 70
    40
  0
VERTEX
  5
65
  8
TEAM-BODY
 10
222.976563
 20
-73.308937
 30
0.0
 70
    40
  0
VERTEX
  5
66
  8
TEAM-BODY
 10
222.976563
 20
-74.335661
 30
0.0
 70
    40
  0
VERTEX
  5
67
  8
TEAM-BODY
 10
222.976563
 20
-76.119124
 30
0.0
 70
    40
  0
VERTEX
  5
68
  8
TEAM-BODY
 10
222.976563
 20
-79.132607
 30
0.0
 70
    40
  0
VERTEX
  5
69
  8
TEAM-BODY
 10
222.976563
 20
-83.849391
 30
0.0
 70
    40
  0
VERTEX
  5
6A
  8
TEAM-BODY
 10
222.976563
 20
-90.742758
 30
0.0
 70
    40
  0
VERTEX
  5
6B
  8
TEAM-BODY
 10
222.976563
 20
-100.28599
 30
0.0
 70
    40
  0
VERTEX
  5
6C
  8
TEAM-BODY
 10
222.976563
 20
-112.952368
 30
0.0
 70
    40
  0
VERTEX
  5
6D
  8
TEAM-BODY
 10
222.976563
 20
-128.986442
 30
0.0
 70
    40
  0
VERTEX
  5
6E
  8
TEAM-BODY
 10
222.976563
 20
-147.717838
 30
0.0
 70
    40
  0
VERTEX
  5
6F
  8
TEAM-BODY
 10
222.976563
 20
-168.247447
 30
0.0
 70
    40
  0
VERTEX
  5
70
  8
TEAM-BODY
 10
222.976563
 20
-189.676164
 30
0.0
 70
    40
  0
VERTEX
  5
71
  8
TEAM-BODY
 10
222.976563
 20
-211.104881
 30
0.0
 70
    40
  0
VERTEX
  5
72
  8
TEAM-BODY
 10
222.976563
 20
-231.63449
 30
0.0
 70
    40
  0
VERTEX
  5
73
  8
TEAM-BODY
 10
222.976563
 20
-250.365886
 30
0.0
 70
    40
  0
VERTEX
  5
74
  8
TEAM-BODY
 10
222.976563
 20
-266.39996
 30
0.0
 70
    40
  0
VERTEX
  5
75
  8
TEAM-BODY
 10
222.976563
 20
-279.066339
 30
0.0
 70
    40
  0
VERTEX
  5
76
  8
TEAM-BODY
 10
222.976563
 20
-288.609577
 30
0.0
 70
    40
  0
VERTEX
  5
77
  8
TEAM-BODY
 10
222.976563
 20
-295.502961
 30
0.0
 70
    40
  0
VERTEX
  5
78
  8
TEAM-BODY
 10
222.976563
 20
-300.219778
 30
0.0
 70
    40
  0
VERTEX
  5
79
  8
TEAM-BODY
 10
222.976563
 20
-303.233315
 30
0.0
 70
    40
  0
VERTEX
  5
7A
  8
TEAM-BODY
 10
222.976563
 20
-305.016859
 30
0.0
 70
    40
  0
VERTEX
  5
7B
  8
TEAM-BODY
 10
222.976563
 20
-306.043696
 30
0.0
 70
    40
  0
VERTEX
  5
7C
  8
TEAM-BODY
 10
222.976563
 20
-306.787114
 30
0.0
 70
    40
  0
VERTEX
  5
7D
  8
TEAM-BODY
 10
222.973358
 20
-307.636814
 30
0.0
 70
    40
  0
VERTEX
  5
7E
  8
TEAM-BODY
 10
222.950926
 20
-308.648154
 30
0.0
 70
    40
  0
VERTEX
  5
7F
  8
TEAM-BODY
 10
222.890037
 20
-309.792905
 30
0.0
 70
    40
  0
VERTEX
  5
80
  8
TEAM-BODY
 10
222.771464
 20
-311.042838
 30
0.0
 70
    40
  0
VERTEX
  5
81
  8
TEAM-BODY
 10
222.575979
 20
-312.369726
 30
0.0
 70
    40
  0
VERTEX
  5
82
  8
TEAM-BODY
 10
222.284354
 20
-313.745341
 30
0.0
 70
    40
  0
VERTEX
  5
83
  8
TEAM-BODY
 10
221.87736
 20
-315.141454
 30
0.0
 70
    40
  0
VERTEX
  5
84
  8
TEAM-BODY
 10
221.33577
 20
-316.529836
 30
0.0
 70
    40
  0
VERTEX
  5
85
  8
TEAM-BODY
 10
220.646014
 20
-317.884507
 30
0.0
 70
    40
  0
VERTEX
  5
86
  8
TEAM-BODY
 10
219.81715
 20
-319.188476
 30
0.0
 70
    40
  0
VERTEX
  5
87
  8
TEAM-BODY
 10
218.863896
 20
-320.426998
 30
0.0
 70
    40
  0
VERTEX
  5
88
  8
TEAM-BODY
 10
217.80097
 20
-321.585331
 30
0.0
 70
    40
  0
VERTEX
  5
89
  8
TEAM-BODY
 10
216.643088
 20
-322.64873
 30
0.0
 70
    40
  0
VERTEX
  5
8A
  8
TEAM-BODY
 10
215.404968
 20
-323.602451
 30
0.0
 70
    40
  0
VERTEX
  5
8B
  8
TEAM-BODY
 10
214.101327
 20
-324.43175
 30
0.0
 70
    40
  0
VERTEX
  5
8C
  8
TEAM-BODY
 10
212.746883
 20
-325.121884
 30
0.0
 70
    40
  0
VERTEX
  5
8D
  8
TEAM-BODY
 10
211.358607
 20
-325.663773
 30
0.0
 70
    40
  0
VERTEX
  5
8E
  8
TEAM-BODY
 10
209.962494
 20
-326.070991
 30
0.0
 70
    40
  0
VERTEX
  5
8F
  8
TEAM-BODY
 10
208.586794
 20
-326.362777
 30
0.0
 70
    40
  0
VERTEX
  5
90
  8
TEAM-BODY
 10
207.259757
 20
-326.55837
 30
0.0
 70
    40
  0
VERTEX
  5
91
  8
TEAM-BODY
 10
206.009631
 20
-326.677009
 30
0.0
 70
    40
  0
VERTEX
  5
92
  8
TEAM-BODY
 10
204.864668
 20
-326.737931
 30
0.0
 70
    40
  0
VERTEX
  5
93
  8
TEAM-BODY
 10
203.853116
 20
-326.760376
 30
0.0
 70
    40
  0
VERTEX
  5
94
  8
TEAM-BODY
 10
203.003225
 20
-326.763582
 30
0.0
 70
    40
  0
VERTEX
  5
95
  8
TEAM-BODY
 10
202.203558
 20
-326.763582
 30
0.0
 70
    40
  0
VERTEX
  5
96
  8
TEAM-BODY
 10
200.783929
 20
-326.763582
 30
0.0
 70
    40
  0
VERTEX
  5
97
  8
TEAM-BODY
 10
197.934464
 20
-326.763582
 30
0.0
 70
    40
  0
VERTEX
  5
98
  8
TEAM-BODY
 10
192.84529
 20
-326.763582
 30
0.0
 70
    40
  0
VERTEX
  5
99
  8
TEAM-BODY
 10
184.706535
 20
-326.763582
 30
0.0
 70
    40
  0
VERTEX
  5
9A
  8
TEAM-BODY
 10
172.708324
 20
-326.763582
 30
0.0
 70
    40
  0
VERTEX
  5
9B
  8
TEAM-BODY
 10
156.040785
 20
-326.763582
 30
0.0
 70
    40
  0
VERTEX
  5
9C
  8
TEAM-BODY
 10
133.894045
 20
-326.763582
 30
0.0
 70
    40
  0
VERTEX
  5
9D
  8
TEAM-BODY
 10
105.855253
 20
-326.763582
 30
0.0
 70
    40
  0
VERTEX
  5
9E
  8
TEAM-BODY
 10
73.099655
 20
-326.763582
 30
0.0
 70
    40
  0
VERTEX
  5
9F
  8
TEAM-BODY
 10
37.19952
 20
-326.763582
 30
0.0
 70
    40
  0
VERTEX
  5
A0
  8
TEAM-BODY
 10
-0.272884
 20
-326.763582
 30
0.0
 70
    40
  0
VERTEX
  5
A1
  8
TEAM-BODY
 10
-37.745288
 20
-326.763582
 30
0.0
 70
    40
  0
VERTEX
  5
A2
  8
TEAM-BODY
 10
-73.645423
 20
-326.763582
 30
0.0
 70
    40
  0
VERTEX
  5
A3
  8
TEAM-BODY
 10
-106.401021
 20
-326.763582
 30
0.0
 70
    40
  0
VERTEX
  5
A4
  8
TEAM-BODY
 10
-134.439813
 20
-326.763582
 30
0.0
 70
    40
  0
VERTEX
  5
A5
  8
TEAM-BODY
 10
-156.586552
 20
-326.763582
 30
0.0
 70
    40
  0
VERTEX
  5
A6
  8
TEAM-BODY
 10
-173.254085
 20
-326.763582
 30
0.0
 70
    40
  0
VERTEX
  5
A7
  8
TEAM-BODY
 10
-185.252279
 20
-326.763582
 30
0.0
 70
    40
  0
VERTEX
  5
A8
  8
TEAM-BODY
 10
-193.391001
 20
-326.763582
 30
0.0
 70
    40
  0
VERTEX
  5
A9
  8
TEAM-BODY
 10
-198.48012
 20
-326.763582
 30
0.0
 70
    40
  0
VERTEX
  5
AA
  8
TEAM-BODY
 10
-201.329503
 20
-326.763582
 30
0.0
 70
    40
  0
VERTEX
  5
AB
  8
TEAM-BODY
 10
-202.749018
 20
-326.763582
 30
0.0
 70
    40
  0
VERTEX
  5
AC
  8
TEAM-BODY
 10
-203.548533
 20
-326.763582
 30
0.0
 70
    40
  0
VERTEX
  5
AD
  8
TEAM-BODY
 10
-204.398232
 20
-326.760376
 30
0.0
 70
    40
  0
VERTEX
  5
AE
  8
TEAM-BODY
 10
-205.409565
 20
-326.737931
 30
0.0
 70
    40
  0
VERTEX
  5
AF
  8
TEAM-BODY
 10
-206.554299
 20
-326.677009
 30
0.0
 70
    40
  0
VERTEX
  5
B0
  8
TEAM-BODY
 10
-207.8042
 20
-326.55837
 30
0.0
 70
    40
  0
VERTEX
  5
B1
  8
TEAM-BODY
 10
-209.131033
 20
-326.362777
 30
0.0
 70
    40
  0
VERTEX
  5
B2
  8
TEAM-BODY
 10
-210.506566
 20
-326.070991
 30
0.0
 70
    40
  0
VERTEX
  5
B3
  8
TEAM-BODY
 10
-211.902565
 20
-325.663773
 30
0.0
 70
    40
  0
VERTEX
  5
B4
  8
TEAM-BODY
 10
-213.290797
 20
-325.121884
 30
0.0
 70
    40
  0
VERTEX
  5
B5
  8
TEAM-BODY
 10
-214.645277
 20
-324.43175
 30
0.0
 70
    40
  0
VERTEX
  5
B6
  8
TEAM-BODY
 10
-215.949022
 20
-323.602451
 30
0.0
 70
    40
  0
VERTEX
  5
B7
  8
TEAM-BODY
 10
-217.1873
 20
-322.64873
 30
0.0
 70
    40
  0
VERTEX
  5
B8
  8
TEAM-BODY
 10
-218.345377
 20
-321.585331
 30
0.0
 70
    40
  0
VERTEX
  5
B9
  8
TEAM-BODY
 10
-219.40852
 20
-320.426998
 30
0.0
 70
    40
  0
VERTEX
  5
BA
  8
TEAM-BODY
 10
-220.361996
 20
-319.188476
 30
0.0
 70
    40
  0
VERTEX
  5
BB
  8
TEAM-BODY
 10
-221.191072
 20
-317.884507
 30
0.0
 70
    40
  0
VERTEX
  5
BC
  8
TEAM-BODY
 10
-221.881014
 20
-316.529836
 30
0.0
 70
    40
  0
VERTEX
  5
BD
  8
TEAM-BODY
 10
-222.422752
 20
-315.141454
 30
0.0
 70
    40
  0
VERTEX
  5
BE
  8
TEAM-BODY
 10
-222.829857
 20
-313.745341
 30
0.0
 70
    40
  0
VERTEX
  5
BF
  8
TEAM-BODY
 10
-223.121562
 20
-312.369726
 30
0.0
 70
    40
  0
VERTEX
  5
C0
  8
TEAM-BODY
 10
-223.3171
 20
-311.042838
 30
0.0
 70
    40
  0
VERTEX
  5
C1
  8
TEAM-BODY
 10
-223.435705
 20
-309.792905
 30
0.0
 70
    40
  0
VERTEX
  5
C2
  8
TEAM-BODY
 10
-223.496611
 20
-308.648154
 30
0.0
 70
    40
  0
VERTEX
  5
C3
  8
TEAM-BODY
 10
-223.519049
 20
-307.636814
 30
0.0
 70
    40
  0
VERTEX
  5
C4
  8
TEAM-BODY
 10
-223.522255
 20
-306.787114
 30
0.0
 70
    40
  0
VERTEX
  5
C5
  8
TEAM-BODY
 10
-223.522255
 20
-306.043696
 30
0.0
 70
    40
  0
VERTEX
  5
C6
  8
TEAM-BODY
 10
-223.522255
 20
-305.016859
 30
0.0
 70
    40
  0
VERTEX
  5
C7
  8
TEAM-BODY
 10
-223.522255
 20
-303.233315
 30
0.0
 70
    40
  0
VERTEX
  5
C8
  8
TEAM-BODY
 10
-223.522255
 20
-300.219778
 30
0.0
 70
    40
  0
VERTEX
  5
C9
  8
TEAM-BODY
 10
-223.522255
 20
-295.502961
 30
0.0
 70
    40
  0
VERTEX
  5
CA
  8
TEAM-BODY
 10
-223.522255
 20
-288.609577
 30
0.0
 70
    40
  0
VERTEX
  5
CB
  8
TEAM-BODY
 10
-223.522255
 20
-279.066339
 30
0.0
 70
    40
  0
VERTEX
  5
CC
  8
TEAM-BODY
 10
-223.522255
 20
-266.39996
 30
0.0
 70
    40
  0
VERTEX
  5
CD
  8
TEAM-BODY
 10
-223.522255
 20
-250.365886
 30
0.0
 70
    40
  0
VERTEX
  5
CE
  8
TEAM-BODY
 10
-223.522255
 20
-231.63449
 30
0.0
 70
    40
  0
VERTEX
  5
CF
  8
TEAM-BODY
 10
-223.522255
 20
-211.104881
 30
0.0
 70
    40
  0
VERTEX
  5
D0
  8
TEAM-BODY
 10
-223.522255
 20
-189.676164
 30
0.0
 70
    40
  0
VERTEX
  5
D1
  8
TEAM-BODY
 10
-223.522255
 20
-168.247447
 30
0.0
 70
    40
  0
VERTEX
  5
D2
  8
TEAM-BODY
 10
-223.522255
 20
-147.717838
 30
0.0
 70
    40
  0
VERTEX
  5
D3
  8
TEAM-BODY
 10
-223.522255
 20
-128.986442
 30
0.0
 70
    40
  0
VERTEX
  5
D4
  8
TEAM-BODY
 10
-223.522255
 20
-112.952368
 30
0.0
 70
    40
  0
VERTEX
  5
D5
  8
TEAM-BODY
 10
-223.522255
 20
-100.289944
 30
0.0
 70
    40
  0
VERTEX
  5
D6
  8
TEAM-BODY
 10
-223.522255
 20
-90.774395
 30
0.0
 70
    40
  0
VERTEX
  5
D7
  8
TEAM-BODY
 10
-223.522255
 20
-83.956167
 30
0.0
 70
    40
  0
VERTEX
  5
D8
  8
TEAM-BODY
 10
-223.522255
 20
-79.385707
 30
0.0
 70
    40
  0
VERTEX
  5
D9
  8
TEAM-BODY
 10
-223.522255
 20
-76.61346
 30
0.0
 70
    40
  0
VERTEX
  5
DA
  8
TEAM-BODY
 10
-223.522255
 20
-75.189874
 30
0.0
 70
    40
  0
VERTEX
  5
DB
  8
TEAM-BODY
 10
-223.522255
 20
-74.665395
 30
0.0
 70
    40
  0
VERTEX
  5
DC
  8
TEAM-BODY
 10
-223.522255
 20
-74.590469
 30
0.0
 70
    40
  0
VERTEX
  5
DD
  8
TEAM-BODY
 10
-223.522255
 20
-74.590469
 30
0.0
 70
    40
  0
VERTEX
  5
DE
  8
TEAM-BODY
 10
-223.522255
 20
-74.590469
 30
0.0
 70
    40
  0
VERTEX
  5
DF
  8
TEAM-BODY
 10
-223.522255
 20
-74.590469
 30
0.0
 70
    40
  0
VERTEX
  5
E0
  8
TEAM-BODY
 10
-223.522255
 20
-74.590469
 30
0.0
 70
    40
  0
VERTEX
  5
E1
  8
TEAM-BODY
 10
-223.522255
 20
-74.590469
 30
0.0
 70
    40
  0
VERTEX
  5
E2
  8
TEAM-BODY
 10
-223.522255
 20
-74.590469
 30
0.0
 70
    40
  0
VERTEX
  5
E3
  8
TEAM-BODY
 10
-223.522255
 20
-74.590469
 30
0.0
 70
    40
  0
VERTEX
  5
E4
  8
TEAM-BODY
 10
-223.522255
 20
-74.590469
 30
0.0
 70
    40
  0
VERTEX
  5
E5
  8
TEAM-BODY
 10
-223.522255
 20
-74.590469
 30
0.0
 70
    40
  0
VERTEX
  5
E6
  8
TEAM-BODY
 10
-223.522255
 20
-74.590469
 30
0.0
 70
    40
  0
VERTEX
  5
E7
  8
TEAM-BODY
 10
-223.522255
 20
-74.590469
 30
0.0
 70
    40
  0
VERTEX
  5
E8
  8
TEAM-BODY
 10
-223.522255
 20
-74.590469
 30
0.0
 70
    40
  0
VERTEX
  5
E9
  8
TEAM-BODY
 10
-223.522255
 20
-74.590469
 30
0.0
 70
    40
  0
VERTEX
  5
EA
  8
TEAM-BODY
 10
-223.522255
 20
-74.590469
 30
0.0
 70
    40
  0
VERTEX
  5
EB
  8
TEAM-BODY
 10
-223.522255
 20
-74.590469
 30
0.0
 70
    40
  0
VERTEX
  5
EC
  8
TEAM-BODY
 10
-223.522255
 20
-74.590469
 30
0.0
 70
    40
  0
VERTEX
  5
ED
  8
TEAM-BODY
 10
-223.522255
 20
-62.441666
 30
0.0
 70
    48
  0
VERTEX
  5
EE
  8
TEAM-BODY
 10
-213.674812
 20
-52.591508
 30
0.0
 70
    48
  0
VERTEX
  5
EF
  8
TEAM-BODY
 10
-201.523277
 20
-52.591508
 30
0.0
 70
    48
  0
VERTEX
  5
F0
  8
TEAM-BODY
 10
-201.523277
 20
-52.591508
 30
0.0
 70
    48
  0
VERTEX
  5
F1
  8
TEAM-BODY
 10
200.977509
 20
-52.591508
 30
0.0
 70
    48
  0
VERTEX
  5
F2
  8
TEAM-BODY
 10
200.977509
 20
-52.591508
 30
0.0
 70
    48
  0
VERTEX
  5
F3
  8
TEAM-BODY
 10
213.131806
 20
-52.591508
 30
0.0
 70
    48
  0
VERTEX
  5
F4
  8
TEAM-BODY
 10
222.976563
 20
-62.441666
 30
0.0
 70
    48
  0
VERTEX
  5
F5
  8
TEAM-BODY
 10
222.976563
 20
-74.590469
 30
0.0
 70
    48
  0
VERTEX
  5
F6
  8
TEAM-BODY
 10
222.976563
 20
-74.590469
 30
0.0
 70
    48
  0
VERTEX
  5
F7
  8
TEAM-BODY
 10
222.976563
 20
-304.761858
 30
0.0
 70
    48
  0
VERTEX
  5
F8
  8
TEAM-BODY
 10
222.976563
 20
-304.761858
 30
0.0
 70
    48
  0
VERTEX
  5
F9
  8
TEAM-BODY
 10
222.976563
 20
-316.913393
 30
0.0
 70
    48
  0
VERTEX
  5
FA
  8
TEAM-BODY
 10
213.131806
 20
-326.763582
 30
0.0
 70
    48
  0
VERTEX
  5
FB
  8
TEAM-BODY
 10
200.977509
 20
-326.763582
 30
0.0
 70
    48
  0
VERTEX
  5
FC
  8
TEAM-BODY
 10
200.977509
 20
-326.763582
 30
0.0
 70
    48
  0
VERTEX
  5
FD
  8
TEAM-BODY
 10
-201.523277
 20
-326.763582
 30
0.0
 70
    48
  0
VERTEX
  5
FE
  8
TEAM-BODY
 10
-201.523277
 20
-326.763582
 30
0.0
 70
    48
  0
VERTEX
  5
FF
  8
TEAM-BODY
 10
-213.674812
 20
-326.763582
 30
0.0
 70
    48
  0
VERTEX
  5
100
  8
TEAM-BODY
 10
-223.522255
 20
-316.913393
 30
0.0
 70
    48
  0
VERTEX
  5
101
  8
TEAM-BODY
 10
-223.522255
 20
-304.761858
 30
0.0
 70
    48
  0
VERTEX
  5
102
  8
TEAM-BODY
 10
-223.522255
 20
-304.761858
 30
0.0
 70
    48
  0
VERTEX
  5
103
  8
TEAM-BODY
 10
-223.522255
 20
-74.590469
 30
0.0
 70
    48
  0
VERTEX
  5
104
  8
TEAM-BODY
 10
-223.522255
 20
-74.590469
 30
0.0
 70
    48
  0
VERTEX
  5
105
  8
TEAM-BODY
 10
-223.522255
 20
-74.590469
 30
0.0
 70
    48
  0
VERTEX
  5
106
  8
TEAM-BODY
 10
-223.522255
 20
-74.590469
 30
0.0
 70
    48
  0
VERTEX
  5
107
  8
TEAM-BODY
 10
-223.522255
 20
-74.590469
 30
0.0
 70
    48
  0
SEQEND
  5
109
  8
TEAM-BODY
  0
POLYLINE
  5
10A
  8
TEAM-BODY
 66
     1
 10
0.0
 20
0.0
 30
0.0
 70
    12
 75
     6
  0
VERTEX
  5
10B
  8
TEAM-BODY
 10
-277.5
 20
-37.499223
 30
0.0
 70
    48
  0
VERTEX
  5
10C
  8
TEAM-BODY
 10
-277.5
 20
-37.499222
 30
0.0
 70
    40
  0
VERTEX
  5
10D
  8
TEAM-BODY
 10
-277.124338
 20
-30.294657
 30
0.0
 70
    40
  0
VERTEX
  5
10E
  8
TEAM-BODY
 10
-276.068765
 20
-24.149427
 30
0.0
 70
    40
  0
VERTEX
  5
10F
  8
TEAM-BODY
 10
-274.440404
 20
-18.968414
 30
0.0
 70
    40
  0
VERTEX
  5
110
  8
TEAM-BODY
 10
-272.346373
 20
-14.656502
 30
0.0
 70
    40
  0
VERTEX
  5
111
  8
TEAM-BODY
 10
-269.893794
 20
-11.118574
 30
0.0
 70
    40
  0
VERTEX
  5
112
  8
TEAM-BODY
 10
-267.189788
 20
-8.259513
 30
0.0
 70
    40
  0
VERTEX
  5
113
  8
TEAM-BODY
 10
-264.341476
 20
-5.984202
 30
0.0
 70
    40
  0
VERTEX
  5
114
  8
TEAM-BODY
 10
-261.455978
 20
-4.197525
 30
0.0
 70
    40
  0
VERTEX
  5
115
  8
TEAM-BODY
 10
-258.627846
 20
-2.812019
 30
0.0
 70
    40
  0
VERTEX
  5
116
  8
TEAM-BODY
 10
-255.901355
 20
-1.77084
 30
0.0
 70
    40
  0
VERTEX
  5
117
  8
TEAM-BODY
 10
-253.30821
 20
-1.024798
 30
0.0
 70
    40
  0
VERTEX
  5
118
  8
TEAM-BODY
 10
-250.880118
 20
-0.524704
 30
0.0
 70
    40
  0
VERTEX
  5
119
  8
TEAM-BODY
 10
-248.648783
 20
-0.221369
 30
0.0
 70
    40
  0
VERTEX
  5
11A
  8
TEAM-BODY
 10
-246.645912
 20
-0.065602
 30
0.0
 70
    40
  0
VERTEX
  5
11B
  8
TEAM-BODY
 10
-244.90321
 20
-0.008214
 30
0.0
 70
    40
  0
VERTEX
  5
11C
  8
TEAM-BODY
 10
-243.452382
 20
-0.000016
 30
0.0
 70
    40
  0
VERTEX
  5
11D
  8
TEAM-BODY
 10
-242.156858
 20
-0.000016
 30
0.0
 70
    40
  0
VERTEX
  5
11E
  8
TEAM-BODY
 10
-240.206958
 20
-0.000016
 30
0.0
 70
    40
  0
VERTEX
  5
11F
  8
TEAM-BODY
 10
-236.624727
 20
-0.000016
 30
0.0
 70
    40
  0
VERTEX
  5
120
  8
TEAM-BODY
 10
-230.432207
 20
-0.000016
 30
0.0
 70
    40
  0
VERTEX
  5
121
  8
TEAM-BODY
 10
-220.651443
 20
-0.000016
 30
0.0
 70
    40
  0
VERTEX
  5
122
  8
TEAM-BODY
 10
-206.304479
 20
-0.000016
 30
0.0
 70
    40
  0
VERTEX
  5
123
  8
TEAM-BODY
 10
-186.413358
 20
-0.000016
 30
0.0
 70
    40
  0
VERTEX
  5
124
  8
TEAM-BODY
 10
-160.000125
 20
-0.000016
 30
0.0
 70
    40
  0
VERTEX
  5
125
  8
TEAM-BODY
 10
-126.562319
 20
-0.000016
 30
0.0
 70
    40
  0
VERTEX
  5
126
  8
TEAM-BODY
 10
-87.499461
 20
-0.000016
 30
0.0
 70
    40
  0
VERTEX
  5
127
  8
TEAM-BODY
 10
-44.686568
 20
-0.000016
 30
0.0
 70
    40
  0
VERTEX
  5
128
  8
TEAM-BODY
 10
0.001341
 20
-0.000016
 30
0.0
 70
    40
  0
VERTEX
  5
129
  8
TEAM-BODY
 10
44.68925
 20
-0.000016
 30
0.0
 70
    40
  0
VERTEX
  5
12A
  8
TEAM-BODY
 10
87.502143
 20
-0.000016
 30
0.0
 70
    40
  0
VERTEX
  5
12B
  8
TEAM-BODY
 10
126.565001
 20
-0.000016
 30
0.0
 70
    40
  0
VERTEX
  5
12C
  8
TEAM-BODY
 10
160.002807
 20
-0.000016
 30
0.0
 70
    40
  0
VERTEX
  5
12D
  8
TEAM-BODY
 10
186.416038
 20
-0.000016
 30
0.0
 70
    40
  0
VERTEX
  5
12E
  8
TEAM-BODY
 10
206.307147
 20
-0.000016
 30
0.0
 70
    40
  0
VERTEX
  5
12F
  8
TEAM-BODY
 10
220.654077
 20
-0.000016
 30
0.0
 70
    40
  0
VERTEX
  5
130
  8
TEAM-BODY
 10
230.434775
 20
-0.000016
 30
0.0
 70
    40
  0
VERTEX
  5
131
  8
TEAM-BODY
 10
236.627186
 20
-0.000016
 30
0.0
 70
    40
  0
VERTEX
  5
132
  8
TEAM-BODY
 10
240.209256
 20
-0.000016
 30
0.0
 70
    40
  0
VERTEX
  5
133
  8
TEAM-BODY
 10
242.158929
 20
-0.000016
 30
0.0
 70
    40
  0
VERTEX
  5
134
  8
TEAM-BODY
 10
243.454152
 20
-0.000016
 30
0.0
 70
    40
  0
VERTEX
  5
135
  8
TEAM-BODY
 10
244.901867
 20
-0.005481
 30
0.0
 70
    40
  0
VERTEX
  5
136
  8
TEAM-BODY
 10
246.625001
 20
-0.04374
 30
0.0
 70
    40
  0
VERTEX
  5
137
  8
TEAM-BODY
 10
248.57548
 20
-0.147584
 30
0.0
 70
    40
  0
VERTEX
  5
138
  8
TEAM-BODY
 10
250.705227
 20
-0.349808
 30
0.0
 70
    40
  0
VERTEX
  5
139
  8
TEAM-BODY
 10
252.966168
 20
-0.683204
 30
0.0
 70
    40
  0
VERTEX
  5
13A
  8
TEAM-BODY
 10
255.310228
 20
-1.180565
 30
0.0
 70
    40
  0
VERTEX
  5
13B
  8
TEAM-BODY
 10
257.68933
 20
-1.874685
 30
0.0
 70
    40
  0
VERTEX
  5
13C
  8
TEAM-BODY
 10
260.0554
 20
-2.798355
 30
0.0
 70
    40
  0
VERTEX
  5
13D
  8
TEAM-BODY
 10
262.364182
 20
-3.974715
 30
0.0
 70
    40
  0
VERTEX
  5
13E
  8
TEAM-BODY
 10
264.586696
 20
-5.388281
 30
0.0
 70
    40
  0
VERTEX
  5
13F
  8
TEAM-BODY
 10
266.697782
 20
-7.013914
 30
0.0
 70
    40
  0
VERTEX
  5
140
  8
TEAM-BODY
 10
268.672281
 20
-8.826476
 30
0.0
 70
    40
  0
VERTEX
  5
141
  8
TEAM-BODY
 10
270.485032
 20
-10.800828
 30
0.0
 70
    40
  0
VERTEX
  5
142
  8
TEAM-BODY
 10
272.110876
 20
-12.911833
 30
0.0
 70
    40
  0
VERTEX
  5
143
  8
TEAM-BODY
 10
273.524653
 20
-15.13435
 30
0.0
 70
    40
  0
VERTEX
  5
144
  8
TEAM-BODY
 10
274.701203
 20
-17.443243
 30
0.0
 70
    40
  0
VERTEX
  5
145
  8
TEAM-BODY
 10
275.625024
 20
-19.809544
 30
0.0
 70
    40
  0
VERTEX
  5
146
  8
TEAM-BODY
 10
276.319257
 20
-22.18898
 30
0.0
 70
    40
  0
VERTEX
  5
147
  8
TEAM-BODY
 10
276.8167
 20
-24.533448
 30
0.0
 70
    40
  0
VERTEX
  5
148
  8
TEAM-BODY
 10
277.15015
 20
-26.794846
 30
0.0
 70
    40
  0
VERTEX
  5
149
  8
TEAM-BODY
 10
277.352407
 20
-28.925072
 30
0.0
 70
    40
  0
VERTEX
  5
14A
  8
TEAM-BODY
 10
277.456269
 20
-30.876023
 30
0.0
 70
    40
  0
VERTEX
  5
14B
  8
TEAM-BODY
 10
277.494534
 20
-32.599598
 30
0.0
 70
    40
  0
VERTEX
  5
14C
  8
TEAM-BODY
 10
277.5
 20
-34.047695
 30
0.0
 70
    40
  0
VERTEX
  5
14D
  8
TEAM-BODY
 10
277.5
 20
-35.286254
 30
0.0
 70
    40
  0
VERTEX
  5
14E
  8
TEAM-BODY
 10
277.5
 20
-36.837391
 30
0.0
 70
    40
  0
VERTEX
  5
14F
  8
TEAM-BODY
 10
277.5
 20
-39.337266
 30
0.0
 70
    40
  0
VERTEX
  5
150
  8
TEAM-BODY
 10
277.5
 20
-43.422038
 30
0.0
 70
    40
  0
VERTEX
  5
151
  8
TEAM-BODY
 10
277.5
 20
-49.727866
 30
0.0
 70
    40
  0
VERTEX
  5
152
  8
TEAM-BODY
 10
277.5
 20
-58.890909
 30
0.0
 70
    40
  0
VERTEX
  5
153
  8
TEAM-BODY
 10
277.5
 20
-71.547326
 30
0.0
 70
    40
  0
VERTEX
  5
154
  8
TEAM-BODY
 10
277.5
 20
-88.333276
 30
0.0
 70
    40
  0
VERTEX
  5
155
  8
TEAM-BODY
 10
277.5
 20
-109.580322
 30
0.0
 70
    40
  0
VERTEX
  5
156
  8
TEAM-BODY
 10
277.5
 20
-134.401637
 30
0.0
 70
    40
  0
VERTEX
  5
157
  8
TEAM-BODY
 10
277.5
 20
-161.605798
 30
0.0
 70
    40
  0
VERTEX
  5
158
  8
TEAM-BODY
 10
277.5
 20
-190.001382
 30
0.0
 70
    40
  0
VERTEX
  5
159
  8
TEAM-BODY
 10
277.5
 20
-218.396967
 30
0.0
 70
    40
  0
VERTEX
  5
15A
  8
TEAM-BODY
 10
277.5
 20
-245.601128
 30
0.0
 70
    40
  0
VERTEX
  5
15B
  8
TEAM-BODY
 10
277.5
 20
-270.422443
 30
0.0
 70
    40
  0
VERTEX
  5
15C
  8
TEAM-BODY
 10
277.5
 20
-291.669489
 30
0.0
 70
    40
  0
VERTEX
  5
15D
  8
TEAM-BODY
 10
277.5
 20
-308.45544
 30
0.0
 70
    40
  0
VERTEX
  5
15E
  8
TEAM-BODY
 10
277.5
 20
-321.111864
 30
0.0
 70
    40
  0
VERTEX
  5
15F
  8
TEAM-BODY
 10
277.5
 20
-330.274923
 30
0.0
 70
    40
  0
VERTEX
  5
160
  8
TEAM-BODY
 10
277.5
 20
-336.580784
 30
0.0
 70
    40
  0
VERTEX
  5
161
  8
TEAM-BODY
 10
277.5
 20
-340.665611
 30
0.0
 70
    40
  0
VERTEX
  5
162
  8
TEAM-BODY
 10
277.5
 20
-343.165568
 30
0.0
 70
    40
  0
VERTEX
  5
163
  8
TEAM-BODY
 10
277.5
 20
-344.71682
 30
0.0
 70
    40
  0
VERTEX
  5
164
  8
TEAM-BODY
 10
277.5
 20
-345.955531
 30
0.0
 70
    40
  0
VERTEX
  5
165
  8
TEAM-BODY
 10
277.494534
 20
-347.403819
 30
0.0
 70
    40
  0
VERTEX
  5
166
  8
TEAM-BODY
 10
277.456269
 20
-349.127613
 30
0.0
 70
    40
  0
VERTEX
  5
167
  8
TEAM-BODY
 10
277.352407
 20
-351.078794
 30
0.0
 70
    40
  0
VERTEX
  5
168
  8
TEAM-BODY
 10
277.15015
 20
-353.209243
 30
0.0
 70
    40
  0
VERTEX
  5
169
  8
TEAM-BODY
 10
276.8167
 20
-355.470843
 30
0.0
 70
    40
  0
VERTEX
  5
16A
  8
TEAM-BODY
 10
276.319257
 20
-357.815475
 30
0.0
 70
    40
  0
VERTEX
  5
16B
  8
TEAM-BODY
 10
275.625024
 20
-360.195021
 30
0.0
 70
    40
  0
VERTEX
  5
16C
  8
TEAM-BODY
 10
274.701203
 20
-362.561362
 30
0.0
 70
    40
  0
VERTEX
  5
16D
  8
TEAM-BODY
 10
273.524653
 20
-364.870212
 30
0.0
 70
    40
  0
VERTEX
  5
16E
  8
TEAM-BODY
 10
272.110876
 20
-367.092617
 30
0.0
 70
    40
  0
VERTEX
  5
16F
  8
TEAM-BODY
 10
270.485032
 20
-369.203455
 30
0.0
 70
    40
  0
VERTEX
  5
170
  8
TEAM-BODY
 10
268.672281
 20
-371.177602
 30
0.0
 70
    40
  0
VERTEX
  5
171
  8
TEAM-BODY
 10
266.697782
 20
-372.989938
 30
0.0
 70
    40
  0
VERTEX
  5
172
  8
TEAM-BODY
 10
264.586696
 20
-374.61534
 30
0.0
 70
    40
  0
VERTEX
  5
173
  8
TEAM-BODY
 10
262.364182
 20
-376.028685
 30
0.0
 70
    40
  0
VERTEX
  5
174
  8
TEAM-BODY
 10
260.0554
 20
-377.204851
 30
0.0
 70
    40
  0
VERTEX
  5
175
  8
TEAM-BODY
 10
257.68933
 20
-378.128369
 30
0.0
 70
    40
  0
VERTEX
  5
176
  8
TEAM-BODY
 10
255.310228
 20
-378.822373
 30
0.0
 70
    40
  0
VERTEX
  5
177
  8
TEAM-BODY
 10
252.966168
 20
-379.319652
 30
0.0
 70
    40
  0
VERTEX
  5
178
  8
TEAM-BODY
 10
250.705227
 20
-379.652992
 30
0.0
 70
    40
  0
VERTEX
  5
179
  8
TEAM-BODY
 10
248.57548
 20
-379.855182
 30
0.0
 70
    40
  0
VERTEX
  5
17A
  8
TEAM-BODY
 10
246.625001
 20
-379.95901
 30
0.0
 70
    40
  0
VERTEX
  5
17B
  8
TEAM-BODY
 10
244.901867
 20
-379.997262
 30
0.0
 70
    40
  0
VERTEX
  5
17C
  8
TEAM-BODY
 10
243.454152
 20
-380.002726
 30
0.0
 70
    40
  0
VERTEX
  5
17D
  8
TEAM-BODY
 10
242.158929
 20
-380.002726
 30
0.0
 70
    40
  0
VERTEX
  5
17E
  8
TEAM-BODY
 10
240.209256
 20
-380.002726
 30
0.0
 70
    40
  0
VERTEX
  5
17F
  8
TEAM-BODY
 10
236.627186
 20
-380.002726
 30
0.0
 70
    40
  0
VERTEX
  5
180
  8
TEAM-BODY
 10
230.434775
 20
-380.002726
 30
0.0
 70
    40
  0
VERTEX
  5
181
  8
TEAM-BODY
 10
220.654077
 20
-380.002726
 30
0.0
 70
    40
  0
VERTEX
  5
182
  8
TEAM-BODY
 10
206.307147
 20
-380.002726
 30
0.0
 70
    40
  0
VERTEX
  5
183
  8
TEAM-BODY
 10
186.416038
 20
-380.002726
 30
0.0
 70
    40
  0
VERTEX
  5
184
  8
TEAM-BODY
 10
160.002807
 20
-380.002726
 30
0.0
 70
    40
  0
VERTEX
  5
185
  8
TEAM-BODY
 10
126.565001
 20
-380.002726
 30
0.0
 70
    40
  0
VERTEX
  5
186
  8
TEAM-BODY
 10
87.502143
 20
-380.002726
 30
0.0
 70
    40
  0
VERTEX
  5
187
  8
TEAM-BODY
 10
44.68925
 20
-380.002726
 30
0.0
 70
    40
  0
VERTEX
  5
188
  8
TEAM-BODY
 10
0.001341
 20
-380.002726
 30
0.0
 70
    40
  0
VERTEX
  5
189
  8
TEAM-BODY
 10
-44.686568
 20
-380.002726
 30
0.0
 70
    40
  0
VERTEX
  5
18A
  8
TEAM-BODY
 10
-87.499461
 20
-380.002726
 30
0.0
 70
    40
  0
VERTEX
  5
18B
  8
TEAM-BODY
 10
-126.562319
 20
-380.002726
 30
0.0
 70
    40
  0
VERTEX
  5
18C
  8
TEAM-BODY
 10
-160.000125
 20
-380.002726
 30
0.0
 70
    40
  0
VERTEX
  5
18D
  8
TEAM-BODY
 10
-186.413358
 20
-380.002726
 30
0.0
 70
    40
  0
VERTEX
  5
18E
  8
TEAM-BODY
 10
-206.304479
 20
-380.002726
 30
0.0
 70
    40
  0
VERTEX
  5
18F
  8
TEAM-BODY
 10
-220.651443
 20
-380.002726
 30
0.0
 70
    40
  0
VERTEX
  5
190
  8
TEAM-BODY
 10
-230.432207
 20
-380.002726
 30
0.0
 70
    40
  0
VERTEX
  5
191
  8
TEAM-BODY
 10
-236.624727
 20
-380.002726
 30
0.0
 70
    40
  0
VERTEX
  5
192
  8
TEAM-BODY
 10
-240.206958
 20
-380.002726
 30
0.0
 70
    40
  0
VERTEX
  5
193
  8
TEAM-BODY
 10
-242.156858
 20
-380.002726
 30
0.0
 70
    40
  0
VERTEX
  5
194
  8
TEAM-BODY
 10
-243.452382
 20
-380.002726
 30
0.0
 70
    40
  0
VERTEX
  5
195
  8
TEAM-BODY
 10
-244.900477
 20
-379.997262
 30
0.0
 70
    40
  0
VERTEX
  5
196
  8
TEAM-BODY
 10
-246.62405
 20
-379.95901
 30
0.0
 70
    40
  0
VERTEX
  5
197
  8
TEAM-BODY
 10
-248.574999
 20
-379.855182
 30
0.0
 70
    40
  0
VERTEX
  5
198
  8
TEAM-BODY
 10
-250.705222
 20
-379.652992
 30
0.0
 70
    40
  0
VERTEX
  5
199
  8
TEAM-BODY
 10
-252.966617
 20
-379.319652
 30
0.0
 70
    40
  0
VERTEX
  5
19A
  8
TEAM-BODY
 10
-255.311082
 20
-378.822373
 30
0.0
 70
    40
  0
VERTEX
  5
19B
  8
TEAM-BODY
 10
-257.690514
 20
-378.128369
 30
0.0
 70
    40
  0
VERTEX
  5
19C
  8
TEAM-BODY
 10
-260.056812
 20
-377.204851
 30
0.0
 70
    40
  0
VERTEX
  5
19D
  8
TEAM-BODY
 10
-262.3657
 20
-376.028685
 30
0.0
 70
    40
  0
VERTEX
  5
19E
  8
TEAM-BODY
 10
-264.588213
 20
-374.61534
 30
0.0
 70
    40
  0
VERTEX
  5
19F
  8
TEAM-BODY
 10
-266.699213
 20
-372.989938
 30
0.0
 70
    40
  0
VERTEX
  5
1A0
  8
TEAM-BODY
 10
-268.673561
 20
-371.177602
 30
0.0
 70
    40
  0
VERTEX
  5
1A1
  8
TEAM-BODY
 10
-270.486119
 20
-369.203455
 30
0.0
 70
    40
  0
VERTEX
  5
1A2
  8
TEAM-BODY
 10
-272.111748
 20
-367.092617
 30
0.0
 70
    40
  0
VERTEX
  5
1A3
  8
TEAM-BODY
 10
-273.52531
 20
-364.870212
 30
0.0
 70
    40
  0
VERTEX
  5
1A4
  8
TEAM-BODY
 10
-274.701667
 20
-362.561362
 30
0.0
 70
    40
  0
VERTEX
  5
1A5
  8
TEAM-BODY
 10
-275.625336
 20
-360.195021
 30
0.0
 70
    40
  0
VERTEX
  5
1A6
  8
TEAM-BODY
 10
-276.319453
 20
-357.815475
 30
0.0
 70
    40
  0
VERTEX
  5
1A7
  8
TEAM-BODY
 10
-276.816813
 20
-355.470843
 30
0.0
 70
    40
  0
VERTEX
  5
1A8
  8
TEAM-BODY
 10
-277.150208
 20
-353.209243
 30
0.0
 70
    40
  0
VERTEX
  5
1A9
  8
TEAM-BODY
 10
-277.352432
 20
-351.078794
 30
0.0
 70
    40
  0
VERTEX
  5
1AA
  8
TEAM-BODY
 10
-277.456276
 20
-349.127613
 30
0.0
 70
    40
  0
VERTEX
  5
1AB
  8
TEAM-BODY
 10
-277.494535
 20
-347.403819
 30
0.0
 70
    40
  0
VERTEX
  5
1AC
  8
TEAM-BODY
 10
-277.5
 20
-345.955531
 30
0.0
 70
    40
  0
VERTEX
  5
1AD
  8
TEAM-BODY
 10
-277.5
 20
-344.71682
 30
0.0
 70
    40
  0
VERTEX
  5
1AE
  8
TEAM-BODY
 10
-277.5
 20
-343.165568
 30
0.0
 70
    40
  0
VERTEX
  5
1AF
  8
TEAM-BODY
 10
-277.5
 20
-340.665611
 30
0.0
 70
    40
  0
VERTEX
  5
1B0
  8
TEAM-BODY
 10
-277.5
 20
-336.580784
 30
0.0
 70
    40
  0
VERTEX
  5
1B1
  8
TEAM-BODY
 10
-277.5
 20
-330.274923
 30
0.0
 70
    40
  0
VERTEX
  5
1B2
  8
TEAM-BODY
 10
-277.5
 20
-321.111864
 30
0.0
 70
    40
  0
VERTEX
  5
1B3
  8
TEAM-BODY
 10
-277.5
 20
-308.45544
 30
0.0
 70
    40
  0
VERTEX
  5
1B4
  8
TEAM-BODY
 10
-277.5
 20
-291.669489
 30
0.0
 70
    40
  0
VERTEX
  5
1B5
  8
TEAM-BODY
 10
-277.5
 20
-270.422443
 30
0.0
 70
    40
  0
VERTEX
  5
1B6
  8
TEAM-BODY
 10
-277.5
 20
-245.601128
 30
0.0
 70
    40
  0
VERTEX
  5
1B7
  8
TEAM-BODY
 10
-277.5
 20
-218.396967
 30
0.0
 70
    40
  0
VERTEX
  5
1B8
  8
TEAM-BODY
 10
-277.5
 20
-190.001382
 30
0.0
 70
    40
  0
VERTEX
  5
1B9
  8
TEAM-BODY
 10
-277.5
 20
-161.605798
 30
0.0
 70
    40
  0
VERTEX
  5
1BA
  8
TEAM-BODY
 10
-277.5
 20
-134.401637
 30
0.0
 70
    40
  0
VERTEX
  5
1BB
  8
TEAM-BODY
 10
-277.5
 20
-109.580322
 30
0.0
 70
    40
  0
VERTEX
  5
1BC
  8
TEAM-BODY
 10
-277.5
 20
-88.333276
 30
0.0
 70
    40
  0
VERTEX
  5
1BD
  8
TEAM-BODY
 10
-277.5
 20
-71.554067
 30
0.0
 70
    40
  0
VERTEX
  5
1BE
  8
TEAM-BODY
 10
-277.5
 20
-58.944839
 30
0.0
 70
    40
  0
VERTEX
  5
1BF
  8
TEAM-BODY
 10
-277.5
 20
-49.90988
 30
0.0
 70
    40
  0
VERTEX
  5
1C0
  8
TEAM-BODY
 10
-277.5
 20
-43.853479
 30
0.0
 70
    40
  0
VERTEX
  5
1C1
  8
TEAM-BODY
 10
-277.5
 20
-40.179925
 30
0.0
 70
    40
  0
VERTEX
  5
1C2
  8
TEAM-BODY
 10
-277.5
 20
-38.293505
 30
0.0
 70
    40
  0
VERTEX
  5
1C3
  8
TEAM-BODY
 10
-277.5
 20
-37.598508
 30
0.0
 70
    40
  0
VERTEX
  5
1C4
  8
TEAM-BODY
 10
-277.5
 20
-37.499223
 30
0.0
 70
    40
  0
VERTEX
  5
1C5
  8
TEAM-BODY
 10
-277.5
 20
-37.499223
 30
0.0
 70
    40
  0
VERTEX
  5
1C6
  8
TEAM-BODY
 10
-277.5
 20
-37.499223
 30
0.0
 70
    40
  0
VERTEX
  5
1C7
  8
TEAM-BODY
 10
-277.5
 20
-37.499223
 30
0.0
 70
    40
  0
VERTEX
  5
1C8
  8
TEAM-BODY
 10
-277.5
 20
-37.499223
 30
0.0
 70
    40
  0
VERTEX
  5
1C9
  8
TEAM-BODY
 10
-277.5
 20
-37.499223
 30
0.0
 70
    40
  0
VERTEX
  5
1CA
  8
TEAM-BODY
 10
-277.5
 20
-37.499223
 30
0.0
 70
    40
  0
VERTEX
  5
1CB
  8
TEAM-BODY
 10
-277.5
 20
-37.499223
 30
0.0
 70
    40
  0
VERTEX
  5
1CC
  8
TEAM-BODY
 10
-277.5
 20
-37.499222
 30
0.0
 70
    40
  0
VERTEX
  5
1CD
  8
TEAM-BODY
 10
-277.5
 20
-37.499222
 30
0.0
 70
    40
  0
VERTEX
  5
1CE
  8
TEAM-BODY
 10
-277.5
 20
-37.499222
 30
0.0
 70
    40
  0
VERTEX
  5
1CF
  8
TEAM-BODY
 10
-277.5
 20
-37.499222
 30
0.0
 70
    40
  0
VERTEX
  5
1D0
  8
TEAM-BODY
 10
-277.5
 20
-37.499222
 30
0.0
 70
    40
  0
VERTEX
  5
1D1
  8
TEAM-BODY
 10
-277.5
 20
-37.499222
 30
0.0
 70
    40
  0
VERTEX
  5
1D2
  8
TEAM-BODY
 10
-277.5
 20
-37.499222
 30
0.0
 70
    40
  0
VERTEX
  5
1D3
  8
TEAM-BODY
 10
-277.5
 20
-37.499223
 30
0.0
 70
    40
  0
VERTEX
  5
1D4
  8
TEAM-BODY
 10
-277.5
 20
-37.499223
 30
0.0
 70
    40
  0
VERTEX
  5
1D5
  8
TEAM-BODY
 10
-277.5
 20
-16.790055
 30
0.0
 70
    48
  0
VERTEX
  5
1D6
  8
TEAM-BODY
 10
-260.710003
 20
-0.000016
 30
0.0
 70
    48
  0
VERTEX
  5
1D7
  8
TEAM-BODY
 10
-240.000858
 20
-0.000016
 30
0.0
 70
    48
  0
VERTEX
  5
1D8
  8
TEAM-BODY
 10
-240.000858
 20
-0.000016
 30
0.0
 70
    48
  0
VERTEX
  5
1D9
  8
TEAM-BODY
 10
240.00354
 20
-0.000016
 30
0.0
 70
    48
  0
VERTEX
  5
1DA
  8
TEAM-BODY
 10
240.00354
 20
-0.000016
 30
0.0
 70
    48
  0
VERTEX
  5
1DB
  8
TEAM-BODY
 10
260.707215
 20
-0.000016
 30
0.0
 70
    48
  0
VERTEX
  5
1DC
  8
TEAM-BODY
 10
277.5
 20
-16.790055
 30
0.0
 70
    48
  0
VERTEX
  5
1DD
  8
TEAM-BODY
 10
277.5
 20
-37.499223
 30
0.0
 70
    48
  0
VERTEX
  5
1DE
  8
TEAM-BODY
 10
277.5
 20
-37.499223
 30
0.0
 70
    48
  0
VERTEX
  5
1DF
  8
TEAM-BODY
 10
277.5
 20
-342.503543
 30
0.0
 70
    48
  0
VERTEX
  5
1E0
  8
TEAM-BODY
 10
277.5
 20
-342.503543
 30
0.0
 70
    48
  0
VERTEX
  5
1E1
  8
TEAM-BODY
 10
277.5
 20
-363.215476
 30
0.0
 70
    48
  0
VERTEX
  5
1E2
  8
TEAM-BODY
 10
260.707215
 20
-380.002726
 30
0.0
 70
    48
  0
VERTEX
  5
1E3
  8
TEAM-BODY
 10
240.00354
 20
-380.002726
 30
0.0
 70
    48
  0
VERTEX
  5
1E4
  8
TEAM-BODY
 10
240.00354
 20
-380.002726
 30
0.0
 70
    48
  0
VERTEX
  5
1E5
  8
TEAM-BODY
 10
-240.000858
 20
-380.002726
 30
0.0
 70
    48
  0
VERTEX
  5
1E6
  8
TEAM-BODY
 10
-240.000858
 20
-380.002726
 30
0.0
 70
    48
  0
VERTEX
  5
1E7
  8
TEAM-BODY
 10
-260.710003
 20
-380.002726
 30
0.0
 70
    48
  0
VERTEX
  5
1E8
  8
TEAM-BODY
 10
-277.5
 20
-363.215476
 30
0.0
 70
    48
  0
VERTEX
  5
1E9
  8
TEAM-BODY
 10
-277.5
 20
-342.503543
 30
0.0
 70
    48
  0
VERTEX
  5
1EA
  8
TEAM-BODY
 10
-277.5
 20
-342.503543
 30
0.0
 70
    48
  0
VERTEX
  5
1EB
  8
TEAM-BODY
 10
-277.5
 20
-37.499223
 30
0.0
 70
    48
  0
VERTEX
  5
1EC
  8
TEAM-BODY
 10
-277.5
 20
-37.499223
 30
0.0
 70
    48
  0
VERTEX
  5
1ED
  8
TEAM-BODY
 10
-277.5
 20
-37.499223
 30
0.0
 70
    48
  0
VERTEX
  5
1EE
  8
TEAM-BODY
 10
-277.5
 20
-37.499223
 30
0.0
 70
    48
  0
VERTEX
  5
1EF
  8
TEAM-BODY
 10
-277.5
 20
-37.499223
 30
0.0
 70
    48
  0
SEQEND
  5
1F0
  8
TEAM-BODY
  0
POLYLINE
  5
1F1
  8
TEAM-BODY
 66
     1
 10
0.0
 20
0.0
 30
0.0
 70
    12
 75
     6
  0
VERTEX
  5
1F2
  8
TEAM-BODY
 10
-263.157398
 20
-39.629655
 30
0.0
 70
    48
  0
VERTEX
  5
1F3
  8
TEAM-BODY
 10
-263.157398
 20
-39.629655
 30
0.0
 70
    40
  0
VERTEX
  5
1F4
  8
TEAM-BODY
 10
-262.895753
 20
-34.610195
 30
0.0
 70
    40
  0
VERTEX
  5
1F5
  8
TEAM-BODY
 10
-262.16055
 20
-30.3287
 30
0.0
 70
    40
  0
VERTEX
  5
1F6
  8
TEAM-BODY
 10
-261.026389
 20
-26.718919
 30
0.0
 70
    40
  0
VERTEX
  5
1F7
  8
TEAM-BODY
 10
-259.56787
 20
-23.714602
 30
0.0
 70
    40
  0
VERTEX
  5
1F8
  8
TEAM-BODY
 10
-257.859592
 20
-21.249497
 30
0.0
 70
    40
  0
VERTEX
  5
1F9
  8
TEAM-BODY
 10
-255.976156
 20
-19.257352
 30
0.0
 70
    40
  0
VERTEX
  5
1FA
  8
TEAM-BODY
 10
-253.99216
 20
-17.671918
 30
0.0
 70
    40
  0
VERTEX
  5
1FB
  8
TEAM-BODY
 10
-251.982204
 20
-16.426942
 30
0.0
 70
    40
  0
VERTEX
  5
1FC
  8
TEAM-BODY
 10
-250.012137
 20
-15.461502
 30
0.0
 70
    40
  0
VERTEX
  5
1FD
  8
TEAM-BODY
 10
-248.112811
 20
-14.735995
 30
0.0
 70
    40
  0
VERTEX
  5
1FE
  8
TEAM-BODY
 10
-246.306324
 20
-14.216143
 30
0.0
 70
    40
  0
VERTEX
  5
1FF
  8
TEAM-BODY
 10
-244.614777
 20
-13.867671
 30
0.0
 70
    40
  0
VERTEX
  5
200
  8
TEAM-BODY
 10
-243.060268
 20
-13.656302
 30
0.0
 70
    40
  0
VERTEX
  5
201
  8
TEAM-BODY
 10
-241.664899
 20
-13.547762
 30
0.0
 70
    40
  0
VERTEX
  5
202
  8
TEAM-BODY
 10
-240.450769
 20
-13.507773
 30
0.0
 70
    40
  0
VERTEX
  5
203
  8
TEAM-BODY
 10
-239.439978
 20
-13.502061
 30
0.0
 70
    40
  0
VERTEX
  5
204
  8
TEAM-BODY
 10
-238.492232
 20
-13.502061
 30
0.0
 70
    40
  0
VERTEX
  5
205
  8
TEAM-BODY
 10
-236.817661
 20
-13.502061
 30
0.0
 70
    40
  0
VERTEX
  5
206
  8
TEAM-BODY
 10
-233.464002
 20
-13.502061
 30
0.0
 70
    40
  0
VERTEX
  5
207
  8
TEAM-BODY
 10
-227.478992
 20
-13.502061
 30
0.0
 70
    40
  0
VERTEX
  5
208
  8
TEAM-BODY
 10
-217.910368
 20
-13.502061
 30
0.0
 70
    40
  0
VERTEX
  5
209
  8
TEAM-BODY
 10
-203.805865
 20
-13.502061
 30
0.0
 70
    40
  0
VERTEX
  5
20A
  8
TEAM-BODY
 10
-184.213221
 20
-13.502061
 30
0.0
 70
    40
  0
VERTEX
  5
20B
  8
TEAM-BODY
 10
-158.180172
 20
-13.502061
 30
0.0
 70
    40
  0
VERTEX
  5
20C
  8
TEAM-BODY
 10
-125.221193
 20
-13.502061
 30
0.0
 70
    40
  0
VERTEX
  5
20D
  8
TEAM-BODY
 10
-86.717714
 20
-13.502061
 30
0.0
 70
    40
  0
VERTEX
  5
20E
  8
TEAM-BODY
 10
-44.5179
 20
-13.502061
 30
0.0
 70
    40
  0
VERTEX
  5
20F
  8
TEAM-BODY
 10
-0.469919
 20
-13.502061
 30
0.0
 70
    40
  0
VERTEX
  5
210
  8
TEAM-BODY
 10
43.578061
 20
-13.502061
 30
0.0
 70
    40
  0
VERTEX
  5
211
  8
TEAM-BODY
 10
85.777875
 20
-13.502061
 30
0.0
 70
    40
  0
VERTEX
  5
212
  8
TEAM-BODY
 10
124.281354
 20
-13.502061
 30
0.0
 70
    40
  0
VERTEX
  5
213
  8
TEAM-BODY
 10
157.240333
 20
-13.502061
 30
0.0
 70
    40
  0
VERTEX
  5
214
  8
TEAM-BODY
 10
183.273384
 20
-13.502061
 30
0.0
 70
    40
  0
VERTEX
  5
215
  8
TEAM-BODY
 10
202.866047
 20
-13.502061
 30
0.0
 70
    40
  0
VERTEX
  5
216
  8
TEAM-BODY
 10
216.970601
 20
-13.502061
 30
0.0
 70
    40
  0
VERTEX
  5
217
  8
TEAM-BODY
 10
226.539324
 20
-13.502061
 30
0.0
 70
    40
  0
VERTEX
  5
218
  8
TEAM-BODY
 10
232.524497
 20
-13.502061
 30
0.0
 70
    40
  0
VERTEX
  5
219
  8
TEAM-BODY
 10
235.878399
 20
-13.502061
 30
0.0
 70
    40
  0
VERTEX
  5
21A
  8
TEAM-BODY
 10
237.553308
 20
-13.502061
 30
0.0
 70
    40
  0
VERTEX
  5
21B
  8
TEAM-BODY
 10
238.501506
 20
-13.502061
 30
0.0
 70
    40
  0
VERTEX
  5
21C
  8
TEAM-BODY
 10
239.510964
 20
-13.505869
 30
0.0
 70
    40
  0
VERTEX
  5
21D
  8
TEAM-BODY
 10
240.712432
 20
-13.532528
 30
0.0
 70
    40
  0
VERTEX
  5
21E
  8
TEAM-BODY
 10
242.072352
 20
-13.604888
 30
0.0
 70
    40
  0
VERTEX
  5
21F
  8
TEAM-BODY
 10
243.557167
 20
-13.745801
 30
0.0
 70
    40
  0
VERTEX
  5
220
  8
TEAM-BODY
 10
245.133321
 20
-13.978115
 30
0.0
 70
    40
  0
VERTEX
  5
221
  8
TEAM-BODY
 10
246.767256
 20
-14.324683
 30
0.0
 70
    40
  0
VERTEX
  5
222
  8
TEAM-BODY
 10
248.425414
 20
-14.808355
 30
0.0
 70
    40
  0
VERTEX
  5
223
  8
TEAM-BODY
 10
250.07424
 20
-15.451981
 30
0.0
 70
    40
  0
VERTEX
  5
224
  8
TEAM-BODY
 10
251.682855
 20
-16.271684
 30
0.0
 70
    40
  0
VERTEX
  5
225
  8
TEAM-BODY
 10
253.231106
 20
-17.25667
 30
0.0
 70
    40
  0
VERTEX
  5
226
  8
TEAM-BODY
 10
254.701521
 20
-18.389418
 30
0.0
 70
    40
  0
VERTEX
  5
227
  8
TEAM-BODY
 10
256.076625
 20
-19.652407
 30
0.0
 70
    40
  0
VERTEX
  5
228
  8
TEAM-BODY
 10
257.338946
 20
-21.028116
 30
0.0
 70
    40
  0
VERTEX
  5
229
  8
TEAM-BODY
 10
258.47101
 20
-22.499022
 30
0.0
 70
    40
  0
VERTEX
  5
22A
  8
TEAM-BODY
 10
259.455344
 20
-24.047605
 30
0.0
 70
    40
  0
VERTEX
  5
22B
  8
TEAM-BODY
 10
260.274476
 20
-25.656342
 30
0.0
 70
    40
  0
VERTEX
  5
22C
  8
TEAM-BODY
 10
260.917649
 20
-27.305049
 30
0.0
 70
    40
  0
VERTEX
  5
22D
  8
TEAM-BODY
 10
261.40098
 20
-28.96288
 30
0.0
 70
    40
  0
VERTEX
  5
22E
  8
TEAM-BODY
 10
261.747303
 20
-30.596326
 30
0.0
 70
    40
  0
VERTEX
  5
22F
  8
TEAM-BODY
 10
261.979455
 20
-32.171879
 30
0.0
 70
    40
  0
VERTEX
  5
230
  8
TEAM-BODY
 10
262.120268
 20
-33.65603
 30
0.0
 70
    40
  0
VERTEX
  5
231
  8
TEAM-BODY
 10
262.192577
 20
-35.015269
 30
0.0
 70
    40
  0
VERTEX
  5
232
  8
TEAM-BODY
 10
262.219217
 20
-36.216087
 30
0.0
 70
    40
  0
VERTEX
  5
233
  8
TEAM-BODY
 10
262.223023
 20
-37.224976
 30
0.0
 70
    40
  0
VERTEX
  5
234
  8
TEAM-BODY
 10
262.223023
 20
-38.116447
 30
0.0
 70
    40
  0
VERTEX
  5
235
  8
TEAM-BODY
 10
262.223023
 20
-39.397097
 30
0.0
 70
    40
  0
VERTEX
  5
236
  8
TEAM-BODY
 10
262.223023
 20
-41.68154
 30
0.0
 70
    40
  0
VERTEX
  5
237
  8
TEAM-BODY
 10
262.223023
 20
-45.584396
 30
0.0
 70
    40
  0
VERTEX
  5
238
  8
TEAM-BODY
 10
262.223023
 20
-51.720279
 30
0.0
 70
    40
  0
VERTEX
  5
239
  8
TEAM-BODY
 10
262.223023
 20
-60.703806
 30
0.0
 70
    40
  0
VERTEX
  5
23A
  8
TEAM-BODY
 10
262.223023
 20
-73.149595
 30
0.0
 70
    40
  0
VERTEX
  5
23B
  8
TEAM-BODY
 10
262.223023
 20
-89.672261
 30
0.0
 70
    40
  0
VERTEX
  5
23C
  8
TEAM-BODY
 10
262.223023
 20
-110.588507
 30
0.0
 70
    40
  0
VERTEX
  5
23D
  8
TEAM-BODY
 10
262.223023
 20
-135.023373
 30
0.0
 70
    40
  0
VERTEX
  5
23E
  8
TEAM-BODY
 10
262.223023
 20
-161.803987
 30
0.0
 70
    40
  0
VERTEX
  5
23F
  8
TEAM-BODY
 10
262.223023
 20
-189.757474
 30
0.0
 70
    40
  0
VERTEX
  5
240
  8
TEAM-BODY
 10
262.223023
 20
-217.710962
 30
0.0
 70
    40
  0
VERTEX
  5
241
  8
TEAM-BODY
 10
262.223023
 20
-244.491576
 30
0.0
 70
    40
  0
VERTEX
  5
242
  8
TEAM-BODY
 10
262.223023
 20
-268.926442
 30
0.0
 70
    40
  0
VERTEX
  5
243
  8
TEAM-BODY
 10
262.223023
 20
-289.842688
 30
0.0
 70
    40
  0
VERTEX
  5
244
  8
TEAM-BODY
 10
262.223023
 20
-306.365354
 30
0.0
 70
    40
  0
VERTEX
  5
245
  8
TEAM-BODY
 10
262.223023
 20
-318.811143
 30
0.0
 70
    40
  0
VERTEX
  5
246
  8
TEAM-BODY
 10
262.223023
 20
-327.79467
 30
0.0
 70
    40
  0
VERTEX
  5
247
  8
TEAM-BODY
 10
262.223023
 20
-333.930553
 30
0.0
 70
    40
  0
VERTEX
  5
248
  8
TEAM-BODY
 10
262.223023
 20
-337.833408
 30
0.0
 70
    40
  0
VERTEX
  5
249
  8
TEAM-BODY
 10
262.223023
 20
-340.117851
 30
0.0
 70
    40
  0
VERTEX
  5
24A
  8
TEAM-BODY
 10
262.223023
 20
-341.398499
 30
0.0
 70
    40
  0
VERTEX
  5
24B
  8
TEAM-BODY
 10
262.223023
 20
-342.289969
 30
0.0
 70
    40
  0
VERTEX
  5
24C
  8
TEAM-BODY
 10
262.219217
 20
-343.298855
 30
0.0
 70
    40
  0
VERTEX
  5
24D
  8
TEAM-BODY
 10
262.192577
 20
-344.499666
 30
0.0
 70
    40
  0
VERTEX
  5
24E
  8
TEAM-BODY
 10
262.120268
 20
-345.858885
 30
0.0
 70
    40
  0
VERTEX
  5
24F
  8
TEAM-BODY
 10
261.979455
 20
-347.343001
 30
0.0
 70
    40
  0
VERTEX
  5
250
  8
TEAM-BODY
 10
261.747303
 20
-348.918497
 30
0.0
 70
    40
  0
VERTEX
  5
251
  8
TEAM-BODY
 10
261.40098
 20
-350.55186
 30
0.0
 70
    40
  0
VERTEX
  5
252
  8
TEAM-BODY
 10
260.917649
 20
-352.209575
 30
0.0
 70
    40
  0
VERTEX
  5
253
  8
TEAM-BODY
 10
260.274476
 20
-353.858129
 30
0.0
 70
    40
  0
VERTEX
  5
254
  8
TEAM-BODY
 10
259.455344
 20
-355.466673
 30
0.0
 70
    40
  0
VERTEX
  5
255
  8
TEAM-BODY
 10
258.47101
 20
-357.015031
 30
0.0
 70
    40
  0
VERTEX
  5
256
  8
TEAM-BODY
 10
257.338946
 20
-358.485691
 30
0.0
 70
    40
  0
VERTEX
  5
257
  8
TEAM-BODY
 10
256.076625
 20
-359.861142
 30
0.0
 70
    40
  0
VERTEX
  5
258
  8
TEAM-BODY
 10
254.701521
 20
-361.123875
 30
0.0
 70
    40
  0
VERTEX
  5
259
  8
TEAM-BODY
 10
253.231106
 20
-362.256377
 30
0.0
 70
    40
  0
VERTEX
  5
25A
  8
TEAM-BODY
 10
251.682855
 20
-363.241139
 30
0.0
 70
    40
  0
VERTEX
  5
25B
  8
TEAM-BODY
 10
250.07424
 20
-364.06065
 30
0.0
 70
    40
  0
VERTEX
  5
25C
  8
TEAM-BODY
 10
248.425414
 20
-364.704124
 30
0.0
 70
    40
  0
VERTEX
  5
25D
  8
TEAM-BODY
 10
246.767256
 20
-365.187682
 30
0.0
 70
    40
  0
VERTEX
  5
25E
  8
TEAM-BODY
 10
245.133321
 20
-365.534169
 30
0.0
 70
    40
  0
VERTEX
  5
25F
  8
TEAM-BODY
 10
243.557167
 20
-365.766429
 30
0.0
 70
    40
  0
VERTEX
  5
260
  8
TEAM-BODY
 10
242.072352
 20
-365.907308
 30
0.0
 70
    40
  0
VERTEX
  5
261
  8
TEAM-BODY
 10
240.712432
 20
-365.979651
 30
0.0
 70
    40
  0
VERTEX
  5
262
  8
TEAM-BODY
 10
239.510964
 20
-366.006304
 30
0.0
 70
    40
  0
VERTEX
  5
263
  8
TEAM-BODY
 10
238.501506
 20
-366.010111
 30
0.0
 70
    40
  0
VERTEX
  5
264
  8
TEAM-BODY
 10
237.553308
 20
-366.010111
 30
0.0
 70
    40
  0
VERTEX
  5
265
  8
TEAM-BODY
 10
235.878399
 20
-366.010111
 30
0.0
 70
    40
  0
VERTEX
  5
266
  8
TEAM-BODY
 10
232.524497
 20
-366.010111
 30
0.0
 70
    40
  0
VERTEX
  5
267
  8
TEAM-BODY
 10
226.539324
 20
-366.010111
 30
0.0
 70
    40
  0
VERTEX
  5
268
  8
TEAM-BODY
 10
216.970601
 20
-366.010111
 30
0.0
 70
    40
  0
VERTEX
  5
269
  8
TEAM-BODY
 10
202.866047
 20
-366.010111
 30
0.0
 70
    40
  0
VERTEX
  5
26A
  8
TEAM-BODY
 10
183.273384
 20
-366.010111
 30
0.0
 70
    40
  0
VERTEX
  5
26B
  8
TEAM-BODY
 10
157.240333
 20
-366.010111
 30
0.0
 70
    40
  0
VERTEX
  5
26C
  8
TEAM-BODY
 10
124.281354
 20
-366.010111
 30
0.0
 70
    40
  0
VERTEX
  5
26D
  8
TEAM-BODY
 10
85.777875
 20
-366.010111
 30
0.0
 70
    40
  0
VERTEX
  5
26E
  8
TEAM-BODY
 10
43.578061
 20
-366.010111
 30
0.0
 70
    40
  0
VERTEX
  5
26F
  8
TEAM-BODY
 10
-0.469919
 20
-366.010111
 30
0.0
 70
    40
  0
VERTEX
  5
270
  8
TEAM-BODY
 10
-44.5179
 20
-366.010111
 30
0.0
 70
    40
  0
VERTEX
  5
271
  8
TEAM-BODY
 10
-86.717714
 20
-366.010111
 30
0.0
 70
    40
  0
VERTEX
  5
272
  8
TEAM-BODY
 10
-125.221193
 20
-366.010111
 30
0.0
 70
    40
  0
VERTEX
  5
273
  8
TEAM-BODY
 10
-158.180172
 20
-366.010111
 30
0.0
 70
    40
  0
VERTEX
  5
274
  8
TEAM-BODY
 10
-184.213221
 20
-366.010111
 30
0.0
 70
    40
  0
VERTEX
  5
275
  8
TEAM-BODY
 10
-203.805865
 20
-366.010111
 30
0.0
 70
    40
  0
VERTEX
  5
276
  8
TEAM-BODY
 10
-217.910368
 20
-366.010111
 30
0.0
 70
    40
  0
VERTEX
  5
277
  8
TEAM-BODY
 10
-227.478992
 20
-366.010111
 30
0.0
 70
    40
  0
VERTEX
  5
278
  8
TEAM-BODY
 10
-233.464002
 20
-366.010111
 30
0.0
 70
    40
  0
VERTEX
  5
279
  8
TEAM-BODY
 10
-236.817661
 20
-366.010111
 30
0.0
 70
    40
  0
VERTEX
  5
27A
  8
TEAM-BODY
 10
-238.492232
 20
-366.010111
 30
0.0
 70
    40
  0
VERTEX
  5
27B
  8
TEAM-BODY
 10
-239.439978
 20
-366.010111
 30
0.0
 70
    40
  0
VERTEX
  5
27C
  8
TEAM-BODY
 10
-240.448866
 20
-366.006304
 30
0.0
 70
    40
  0
VERTEX
  5
27D
  8
TEAM-BODY
 10
-241.649673
 20
-365.979651
 30
0.0
 70
    40
  0
VERTEX
  5
27E
  8
TEAM-BODY
 10
-243.008879
 20
-365.907308
 30
0.0
 70
    40
  0
VERTEX
  5
27F
  8
TEAM-BODY
 10
-244.492964
 20
-365.766429
 30
0.0
 70
    40
  0
VERTEX
  5
280
  8
TEAM-BODY
 10
-246.068409
 20
-365.534169
 30
0.0
 70
    40
  0
VERTEX
  5
281
  8
TEAM-BODY
 10
-247.701693
 20
-365.187682
 30
0.0
 70
    40
  0
VERTEX
  5
282
  8
TEAM-BODY
 10
-249.359298
 20
-364.704124
 30
0.0
 70
    40
  0
VERTEX
  5
283
  8
TEAM-BODY
 10
-251.007702
 20
-364.06065
 30
0.0
 70
    40
  0
VERTEX
  5
284
  8
TEAM-BODY
 10
-252.616057
 20
-363.241139
 30
0.0
 70
    40
  0
VERTEX
  5
285
  8
TEAM-BODY
 10
-254.164192
 20
-362.256377
 30
0.0
 70
    40
  0
VERTEX
  5
286
  8
TEAM-BODY
 10
-255.634607
 20
-361.123875
 30
0.0
 70
    40
  0
VERTEX
  5
287
  8
TEAM-BODY
 10
-257.009803
 20
-359.861142
 30
0.0
 70
    40
  0
VERTEX
  5
288
  8
TEAM-BODY
 10
-258.27228
 20
-358.485691
 30
0.0
 70
    40
  0
VERTEX
  5
289
  8
TEAM-BODY
 10
-259.404538
 20
-357.015031
 30
0.0
 70
    40
  0
VERTEX
  5
28A
  8
TEAM-BODY
 10
-260.389076
 20
-355.466673
 30
0.0
 70
    40
  0
VERTEX
  5
28B
  8
TEAM-BODY
 10
-261.208395
 20
-353.858129
 30
0.0
 70
    40
  0
VERTEX
  5
28C
  8
TEAM-BODY
 10
-261.851718
 20
-352.209575
 30
0.0
 70
    40
  0
VERTEX
  5
28D
  8
TEAM-BODY
 10
-262.335162
 20
-350.55186
 30
0.0
 70
    40
  0
VERTEX
  5
28E
  8
TEAM-BODY
 10
-262.681567
 20
-348.918497
 30
0.0
 70
    40
  0
VERTEX
  5
28F
  8
TEAM-BODY
 10
-262.913773
 20
-347.343001
 30
0.0
 70
    40
  0
VERTEX
  5
290
  8
TEAM-BODY
 10
-263.054619
 20
-345.858885
 30
0.0
 70
    40
  0
VERTEX
  5
291
  8
TEAM-BODY
 10
-263.126945
 20
-344.499666
 30
0.0
 70
    40
  0
VERTEX
  5
292
  8
TEAM-BODY
 10
-263.153591
 20
-343.298855
 30
0.0
 70
    40
  0
VERTEX
  5
293
  8
TEAM-BODY
 10
-263.157398
 20
-342.289969
 30
0.0
 70
    40
  0
VERTEX
  5
294
  8
TEAM-BODY
 10
-263.157398
 20
-341.398499
 30
0.0
 70
    40
  0
VERTEX
  5
295
  8
TEAM-BODY
 10
-263.157398
 20
-340.117851
 30
0.0
 70
    40
  0
VERTEX
  5
296
  8
TEAM-BODY
 10
-263.157398
 20
-337.833408
 30
0.0
 70
    40
  0
VERTEX
  5
297
  8
TEAM-BODY
 10
-263.157398
 20
-333.930553
 30
0.0
 70
    40
  0
VERTEX
  5
298
  8
TEAM-BODY
 10
-263.157398
 20
-327.79467
 30
0.0
 70
    40
  0
VERTEX
  5
299
  8
TEAM-BODY
 10
-263.157398
 20
-318.811143
 30
0.0
 70
    40
  0
VERTEX
  5
29A
  8
TEAM-BODY
 10
-263.157398
 20
-306.365354
 30
0.0
 70
    40
  0
VERTEX
  5
29B
  8
TEAM-BODY
 10
-263.157398
 20
-289.842688
 30
0.0
 70
    40
  0
VERTEX
  5
29C
  8
TEAM-BODY
 10
-263.157398
 20
-268.926442
 30
0.0
 70
    40
  0
VERTEX
  5
29D
  8
TEAM-BODY
 10
-263.157398
 20
-244.491576
 30
0.0
 70
    40
  0
VERTEX
  5
29E
  8
TEAM-BODY
 10
-263.157398
 20
-217.710962
 30
0.0
 70
    40
  0
VERTEX
  5
29F
  8
TEAM-BODY
 10
-263.157398
 20
-189.757474
 30
0.0
 70
    40
  0
VERTEX
  5
2A0
  8
TEAM-BODY
 10
-263.157398
 20
-161.803987
 30
0.0
 70
    40
  0
VERTEX
  5
2A1
  8
TEAM-BODY
 10
-263.157398
 20
-135.023373
 30
0.0
 70
    40
  0
VERTEX
  5
2A2
  8
TEAM-BODY
 10
-263.157398
 20
-110.588507
 30
0.0
 70
    40
  0
VERTEX
  5
2A3
  8
TEAM-BODY
 10
-263.157398
 20
-89.672261
 30
0.0
 70
    40
  0
VERTEX
  5
2A4
  8
TEAM-BODY
 10
-263.157398
 20
-73.154291
 30
0.0
 70
    40
  0
VERTEX
  5
2A5
  8
TEAM-BODY
 10
-263.157398
 20
-60.741379
 30
0.0
 70
    40
  0
VERTEX
  5
2A6
  8
TEAM-BODY
 10
-263.157398
 20
-51.847088
 30
0.0
 70
    40
  0
VERTEX
  5
2A7
  8
TEAM-BODY
 10
-263.157398
 20
-45.88498
 30
0.0
 70
    40
  0
VERTEX
  5
2A8
  8
TEAM-BODY
 10
-263.157398
 20
-42.26862
 30
0.0
 70
    40
  0
VERTEX
  5
2A9
  8
TEAM-BODY
 10
-263.157398
 20
-40.41157
 30
0.0
 70
    40
  0
VERTEX
  5
2AA
  8
TEAM-BODY
 10
-263.157398
 20
-39.727394
 30
0.0
 70
    40
  0
VERTEX
  5
2AB
  8
TEAM-BODY
 10
-263.157398
 20
-39.629655
 30
0.0
 70
    40
  0
VERTEX
  5
2AC
  8
TEAM-BODY
 10
-263.157398
 20
-39.629655
 30
0.0
 70
    40
  0
VERTEX
  5
2AD
  8
TEAM-BODY
 10
-263.157398
 20
-39.629655
 30
0.0
 70
    40
  0
VERTEX
  5
2AE
  8
TEAM-BODY
 10
-263.157398
 20
-39.629655
 30
0.0
 70
    40
  0
VERTEX
  5
2AF
  8
TEAM-BODY
 10
-263.157398
 20
-39.629655
 30
0.0
 70
    40
  0
VERTEX
  5
2B0
  8
TEAM-BODY
 10
-263.157398
 20
-39.629655
 30
0.0
 70
    40
  0
VERTEX
  5
2B1
  8
TEAM-BODY
 10
-263.157398
 20
-39.629655
 30
0.0
 70
    40
  0
VERTEX
  5
2B2
  8
TEAM-BODY
 10
-263.157398
 20
-39.629655
 30
0.0
 70
    40
  0
VERTEX
  5
2B3
  8
TEAM-BODY
 10
-263.157398
 20
-39.629655
 30
0.0
 70
    40
  0
VERTEX
  5
2B4
  8
TEAM-BODY
 10
-263.157398
 20
-39.629655
 30
0.0
 70
    40
  0
VERTEX
  5
2B5
  8
TEAM-BODY
 10
-263.157398
 20
-39.629655
 30
0.0
 70
    40
  0
VERTEX
  5
2B6
  8
TEAM-BODY
 10
-263.157398
 20
-39.629655
 30
0.0
 70
    40
  0
VERTEX
  5
2B7
  8
TEAM-BODY
 10
-263.157398
 20
-39.629655
 30
0.0
 70
    40
  0
VERTEX
  5
2B8
  8
TEAM-BODY
 10
-263.157398
 20
-39.629655
 30
0.0
 70
    40
  0
VERTEX
  5
2B9
  8
TEAM-BODY
 10
-263.157398
 20
-39.629655
 30
0.0
 70
    40
  0
VERTEX
  5
2BA
  8
TEAM-BODY
 10
-263.157398
 20
-39.629655
 30
0.0
 70
    40
  0
VERTEX
  5
2BB
  8
TEAM-BODY
 10
-263.157398
 20
-39.629655
 30
0.0
 70
    40
  0
VERTEX
  5
2BC
  8
TEAM-BODY
 10
-263.157398
 20
-25.201584
 30
0.0
 70
    48
  0
VERTEX
  5
2BD
  8
TEAM-BODY
 10
-251.463379
 20
-13.502061
 30
0.0
 70
    48
  0
VERTEX
  5
2BE
  8
TEAM-BODY
 10
-237.035298
 20
-13.502061
 30
0.0
 70
    48
  0
VERTEX
  5
2BF
  8
TEAM-BODY
 10
-237.035298
 20
-13.502061
 30
0.0
 70
    48
  0
VERTEX
  5
2C0
  8
TEAM-BODY
 10
236.095459
 20
-13.502061
 30
0.0
 70
    48
  0
VERTEX
  5
2C1
  8
TEAM-BODY
 10
236.095459
 20
-13.502061
 30
0.0
 70
    48
  0
VERTEX
  5
2C2
  8
TEAM-BODY
 10
250.531739
 20
-13.502061
 30
0.0
 70
    48
  0
VERTEX
  5
2C3
  8
TEAM-BODY
 10
262.223023
 20
-25.201584
 30
0.0
 70
    48
  0
VERTEX
  5
2C4
  8
TEAM-BODY
 10
262.223023
 20
-39.629655
 30
0.0
 70
    48
  0
VERTEX
  5
2C5
  8
TEAM-BODY
 10
262.223023
 20
-39.629655
 30
0.0
 70
    48
  0
VERTEX
  5
2C6
  8
TEAM-BODY
 10
262.223023
 20
-339.885294
 30
0.0
 70
    48
  0
VERTEX
  5
2C7
  8
TEAM-BODY
 10
262.223023
 20
-339.885294
 30
0.0
 70
    48
  0
VERTEX
  5
2C8
  8
TEAM-BODY
 10
262.223023
 20
-354.313341
 30
0.0
 70
    48
  0
VERTEX
  5
2C9
  8
TEAM-BODY
 10
250.531739
 20
-366.010111
 30
0.0
 70
    48
  0
VERTEX
  5
2CA
  8
TEAM-BODY
 10
236.095459
 20
-366.010111
 30
0.0
 70
    48
  0
VERTEX
  5
2CB
  8
TEAM-BODY
 10
236.095459
 20
-366.010111
 30
0.0
 70
    48
  0
VERTEX
  5
2CC
  8
TEAM-BODY
 10
-237.035298
 20
-366.010111
 30
0.0
 70
    48
  0
VERTEX
  5
2CD
  8
TEAM-BODY
 10
-237.035298
 20
-366.010111
 30
0.0
 70
    48
  0
VERTEX
  5
2CE
  8
TEAM-BODY
 10
-251.463379
 20
-366.010111
 30
0.0
 70
    48
  0
VERTEX
  5
2CF
  8
TEAM-BODY
 10
-263.157398
 20
-354.313341
 30
0.0
 70
    48
  0
VERTEX
  5
2D0
  8
TEAM-BODY
 10
-263.157398
 20
-339.885294
 30
0.0
 70
    48
  0
VERTEX
  5
2D1
  8
TEAM-BODY
 10
-263.157398
 20
-339.885294
 30
0.0
 70
    48
  0
VERTEX
  5
2D2
  8
TEAM-BODY
 10
-263.157398
 20
-39.629655
 30
0.0
 70
    48
  0
VERTEX
  5
2D3
  8
TEAM-BODY
 10
-263.157398
 20
-39.629655
 30
0.0
 70
    48
  0
VERTEX
  5
2D4
  8
TEAM-BODY
 10
-263.157398
 20
-39.629655
 30
0.0
 70
    48
  0
VERTEX
  5
2D5
  8
TEAM-BODY
 10
-263.157398
 20
-39.629655
 30
0.0
 70
    48
  0
VERTEX
  5
2D6
  8
TEAM-BODY
 10
-263.157398
 20
-39.629655
 30
0.0
 70
    48
  0
SEQEND
  5
2D7
  8
TEAM-BODY
  0
POLYLINE
  5
2D8
  8
TEAM-BODY
 66
     1
 10
0.0
 20
0.0
 30
0.0
 70
    12
 75
     6
  0
VERTEX
  5
2D9
  8
TEAM-BODY
 10
-48.752242
 20
-380.137768
 30
0.0
 70
    48
  0
VERTEX
  5
2DA
  8
TEAM-BODY
 10
-48.752243
 20
-380.137768
 30
0.0
 70
    40
  0
VERTEX
  5
2DB
  8
TEAM-BODY
 10
-47.556253
 20
-380.155215
 30
0.0
 70
    40
  0
VERTEX
  5
2DC
  8
TEAM-BODY
 10
-46.61645
 20
-380.206281
 30
0.0
 70
    40
  0
VERTEX
  5
2DD
  8
TEAM-BODY
 10
-45.896013
 20
-380.289059
 30
0.0
 70
    40
  0
VERTEX
  5
2DE
  8
TEAM-BODY
 10
-45.358123
 20
-380.40164
 30
0.0
 70
    40
  0
VERTEX
  5
2DF
  8
TEAM-BODY
 10
-44.965961
 20
-380.542115
 30
0.0
 70
    40
  0
VERTEX
  5
2E0
  8
TEAM-BODY
 10
-44.682708
 20
-380.708577
 30
0.0
 70
    40
  0
VERTEX
  5
2E1
  8
TEAM-BODY
 10
-44.471543
 20
-380.899116
 30
0.0
 70
    40
  0
VERTEX
  5
2E2
  8
TEAM-BODY
 10
-44.295648
 20
-381.111825
 30
0.0
 70
    40
  0
VERTEX
  5
2E3
  8
TEAM-BODY
 10
-44.123775
 20
-381.345719
 30
0.0
 70
    40
  0
VERTEX
  5
2E4
  8
TEAM-BODY
 10
-43.946966
 20
-381.603509
 30
0.0
 70
    40
  0
VERTEX
  5
2E5
  8
TEAM-BODY
 10
-43.761836
 20
-381.888833
 30
0.0
 70
    40
  0
VERTEX
  5
2E6
  8
TEAM-BODY
 10
-43.564998
 20
-382.205327
 30
0.0
 70
    40
  0
VERTEX
  5
2E7
  8
TEAM-BODY
 10
-43.353067
 20
-382.556627
 30
0.0
 70
    40
  0
VERTEX
  5
2E8
  8
TEAM-BODY
 10
-43.122656
 20
-382.94637
 30
0.0
 70
    40
  0
VERTEX
  5
2E9
  8
TEAM-BODY
 10
-42.870381
 20
-383.378191
 30
0.0
 70
    40
  0
VERTEX
  5
2EA
  8
TEAM-BODY
 10
-42.592854
 20
-383.855727
 30
0.0
 70
    40
  0
VERTEX
  5
2EB
  8
TEAM-BODY
 10
-42.287798
 20
-384.38124
 30
0.0
 70
    40
  0
VERTEX
  5
2EC
  8
TEAM-BODY
 10
-41.957361
 20
-384.951498
 30
0.0
 70
    40
  0
VERTEX
  5
2ED
  8
TEAM-BODY
 10
-41.6048
 20
-385.56189
 30
0.0
 70
    40
  0
VERTEX
  5
2EE
  8
TEAM-BODY
 10
-41.233372
 20
-386.20781
 30
0.0
 70
    40
  0
VERTEX
  5
2EF
  8
TEAM-BODY
 10
-40.846333
 20
-386.88465
 30
0.0
 70
    40
  0
VERTEX
  5
2F0
  8
TEAM-BODY
 10
-40.44694
 20
-387.587802
 30
0.0
 70
    40
  0
VERTEX
  5
2F1
  8
TEAM-BODY
 10
-40.038449
 20
-388.312657
 30
0.0
 70
    40
  0
VERTEX
  5
2F2
  8
TEAM-BODY
 10
-39.624117
 20
-389.054608
 30
0.0
 70
    40
  0
VERTEX
  5
2F3
  8
TEAM-BODY
 10
-39.206259
 20
-389.807474
 30
0.0
 70
    40
  0
VERTEX
  5
2F4
  8
TEAM-BODY
 10
-38.783427
 20
-390.558784
 30
0.0
 70
    40
  0
VERTEX
  5
2F5
  8
TEAM-BODY
 10
-38.35323
 20
-391.294493
 30
0.0
 70
    40
  0
VERTEX
  5
2F6
  8
TEAM-BODY
 10
-37.913278
 20
-392.000559
 30
0.0
 70
    40
  0
VERTEX
  5
2F7
  8
TEAM-BODY
 10
-37.461183
 20
-392.662936
 30
0.0
 70
    40
  0
VERTEX
  5
2F8
  8
TEAM-BODY
 10
-36.994553
 20
-393.267581
 30
0.0
 70
    40
  0
VERTEX
  5
2F9
  8
TEAM-BODY
 10
-36.511
 20
-393.800449
 30
0.0
 70
    40
  0
VERTEX
  5
2FA
  8
TEAM-BODY
 10
-36.008132
 20
-394.247498
 30
0.0
 70
    40
  0
VERTEX
  5
2FB
  8
TEAM-BODY
 10
-35.481948
 20
-394.599103
 30
0.0
 70
    40
  0
VERTEX
  5
2FC
  8
TEAM-BODY
 10
-34.921992
 20
-394.863327
 30
0.0
 70
    40
  0
VERTEX
  5
2FD
  8
TEAM-BODY
 10
-34.316194
 20
-395.052653
 30
0.0
 70
    40
  0
VERTEX
  5
2FE
  8
TEAM-BODY
 10
-33.652487
 20
-395.179564
 30
0.0
 70
    40
  0
VERTEX
  5
2FF
  8
TEAM-BODY
 10
-32.918802
 20
-395.256543
 30
0.0
 70
    40
  0
VERTEX
  5
300
  8
TEAM-BODY
 10
-32.103069
 20
-395.296072
 30
0.0
 70
    40
  0
VERTEX
  5
301
  8
TEAM-BODY
 10
-31.193222
 20
-395.310636
 30
0.0
 70
    40
  0
VERTEX
  5
302
  8
TEAM-BODY
 10
-30.17719
 20
-395.312716
 30
0.0
 70
    40
  0
VERTEX
  5
303
  8
TEAM-BODY
 10
-29.048153
 20
-395.312718
 30
0.0
 70
    40
  0
VERTEX
  5
304
  8
TEAM-BODY
 10
-27.820279
 20
-395.312727
 30
0.0
 70
    40
  0
VERTEX
  5
305
  8
TEAM-BODY
 10
-26.512985
 20
-395.312753
 30
0.0
 70
    40
  0
VERTEX
  5
306
  8
TEAM-BODY
 10
-25.145688
 20
-395.312804
 30
0.0
 70
    40
  0
VERTEX
  5
307
  8
TEAM-BODY
 10
-23.737803
 20
-395.312886
 30
0.0
 70
    40
  0
VERTEX
  5
308
  8
TEAM-BODY
 10
-22.308747
 20
-395.31301
 30
0.0
 70
    40
  0
VERTEX
  5
309
  8
TEAM-BODY
 10
-20.877936
 20
-395.313183
 30
0.0
 70
    40
  0
VERTEX
  5
30A
  8
TEAM-BODY
 10
-19.464787
 20
-395.313413
 30
0.0
 70
    40
  0
VERTEX
  5
30B
  8
TEAM-BODY
 10
-18.067471
 20
-395.313702
 30
0.0
 70
    40
  0
VERTEX
  5
30C
  8
TEAM-BODY
 10
-16.599181
 20
-395.314033
 30
0.0
 70
    40
  0
VERTEX
  5
30D
  8
TEAM-BODY
 10
-14.951865
 20
-395.31438
 30
0.0
 70
    40
  0
VERTEX
  5
30E
  8
TEAM-BODY
 10
-13.01747
 20
-395.314718
 30
0.0
 70
    40
  0
VERTEX
  5
30F
  8
TEAM-BODY
 10
-10.687944
 20
-395.315024
 30
0.0
 70
    40
  0
VERTEX
  5
310
  8
TEAM-BODY
 10
-7.855236
 20
-395.315273
 30
0.0
 70
    40
  0
VERTEX
  5
311
  8
TEAM-BODY
 10
-4.411292
 20
-395.31544
 30
0.0
 70
    40
  0
VERTEX
  5
312
  8
TEAM-BODY
 10
-0.248062
 20
-395.315502
 30
0.0
 70
    40
  0
VERTEX
  5
313
  8
TEAM-BODY
 10
-45.188629
 20
-380.137768
 30
0.0
 70
    48
  0
VERTEX
  5
314
  8
TEAM-BODY
 10
-44.312179
 20
-380.895711
 30
0.0
 70
    48
  0
VERTEX
  5
315
  8
TEAM-BODY
 10
-42.898315
 20
-383.329311
 30
0.0
 70
    48
  0
VERTEX
  5
316
  8
TEAM-BODY
 10
-39.651687
 20
-388.921404
 30
0.0
 70
    48
  0
VERTEX
  5
317
  8
TEAM-BODY
 10
-36.239639
 20
-395.312716
 30
0.0
 70
    48
  0
VERTEX
  5
318
  8
TEAM-BODY
 10
-31.438552
 20
-395.312716
 30
0.0
 70
    48
  0
VERTEX
  5
319
  8
TEAM-BODY
 10
-19.06929
 20
-395.312716
 30
0.0
 70
    48
  0
VERTEX
  5
31A
  8
TEAM-BODY
 10
-12.405106
 20
-395.315502
 30
0.0
 70
    48
  0
VERTEX
  5
31B
  8
TEAM-BODY
 10
-0.248061
 20
-395.315502
 30
0.0
 70
    48
  0
SEQEND
  5
31C
  8
TEAM-BODY
  0
POLYLINE
  5
31D
  8
TEAM-BODY
 66
     1
 10
0.0
 20
0.0
 30
0.0
 70
    12
 75
     6
  0
VERTEX
  5
31E
  8
TEAM-BODY
 10
-48.752242
 20
-380.137768
 30
0.0
 70
    48
  0
VERTEX
  5
31F
  8
TEAM-BODY
 10
-48.752243
 20
-380.137768
 30
0.0
 70
    40
  0
VERTEX
  5
320
  8
TEAM-BODY
 10
-47.556253
 20
-380.155215
 30
0.0
 70
    40
  0
VERTEX
  5
321
  8
TEAM-BODY
 10
-46.61645
 20
-380.206281
 30
0.0
 70
    40
  0
VERTEX
  5
322
  8
TEAM-BODY
 10
-45.896013
 20
-380.289059
 30
0.0
 70
    40
  0
VERTEX
  5
323
  8
TEAM-BODY
 10
-45.358123
 20
-380.40164
 30
0.0
 70
    40
  0
VERTEX
  5
324
  8
TEAM-BODY
 10
-44.965961
 20
-380.542115
 30
0.0
 70
    40
  0
VERTEX
  5
325
  8
TEAM-BODY
 10
-44.682708
 20
-380.708577
 30
0.0
 70
    40
  0
VERTEX
  5
326
  8
TEAM-BODY
 10
-44.471543
 20
-380.899116
 30
0.0
 70
    40
  0
VERTEX
  5
327
  8
TEAM-BODY
 10
-44.295648
 20
-381.111825
 30
0.0
 70
    40
  0
VERTEX
  5
328
  8
TEAM-BODY
 10
-44.123775
 20
-381.345719
 30
0.0
 70
    40
  0
VERTEX
  5
329
  8
TEAM-BODY
 10
-43.946966
 20
-381.603509
 30
0.0
 70
    40
  0
VERTEX
  5
32A
  8
TEAM-BODY
 10
-43.761836
 20
-381.888833
 30
0.0
 70
    40
  0
VERTEX
  5
32B
  8
TEAM-BODY
 10
-43.564998
 20
-382.205327
 30
0.0
 70
    40
  0
VERTEX
  5
32C
  8
TEAM-BODY
 10
-43.353067
 20
-382.556627
 30
0.0
 70
    40
  0
VERTEX
  5
32D
  8
TEAM-BODY
 10
-43.122656
 20
-382.94637
 30
0.0
 70
    40
  0
VERTEX
  5
32E
  8
TEAM-BODY
 10
-42.870381
 20
-383.378191
 30
0.0
 70
    40
  0
VERTEX
  5
32F
  8
TEAM-BODY
 10
-42.592854
 20
-383.855727
 30
0.0
 70
    40
  0
VERTEX
  5
330
  8
TEAM-BODY
 10
-42.287798
 20
-384.38124
 30
0.0
 70
    40
  0
VERTEX
  5
331
  8
TEAM-BODY
 10
-41.957361
 20
-384.951498
 30
0.0
 70
    40
  0
VERTEX
  5
332
  8
TEAM-BODY
 10
-41.6048
 20
-385.56189
 30
0.0
 70
    40
  0
VERTEX
  5
333
  8
TEAM-BODY
 10
-41.233372
 20
-386.20781
 30
0.0
 70
    40
  0
VERTEX
  5
334
  8
TEAM-BODY
 10
-40.846333
 20
-386.88465
 30
0.0
 70
    40
  0
VERTEX
  5
335
  8
TEAM-BODY
 10
-40.44694
 20
-387.587802
 30
0.0
 70
    40
  0
VERTEX
  5
336
  8
TEAM-BODY
 10
-40.038449
 20
-388.312657
 30
0.0
 70
    40
  0
VERTEX
  5
337
  8
TEAM-BODY
 10
-39.624117
 20
-389.054608
 30
0.0
 70
    40
  0
VERTEX
  5
338
  8
TEAM-BODY
 10
-39.206259
 20
-389.807474
 30
0.0
 70
    40
  0
VERTEX
  5
339
  8
TEAM-BODY
 10
-38.783427
 20
-390.558784
 30
0.0
 70
    40
  0
VERTEX
  5
33A
  8
TEAM-BODY
 10
-38.35323
 20
-391.294493
 30
0.0
 70
    40
  0
VERTEX
  5
33B
  8
TEAM-BODY
 10
-37.913278
 20
-392.000559
 30
0.0
 70
    40
  0
VERTEX
  5
33C
  8
TEAM-BODY
 10
-37.461183
 20
-392.662936
 30
0.0
 70
    40
  0
VERTEX
  5
33D
  8
TEAM-BODY
 10
-36.994553
 20
-393.267581
 30
0.0
 70
    40
  0
VERTEX
  5
33E
  8
TEAM-BODY
 10
-36.511
 20
-393.800449
 30
0.0
 70
    40
  0
VERTEX
  5
33F
  8
TEAM-BODY
 10
-36.008132
 20
-394.247498
 30
0.0
 70
    40
  0
VERTEX
  5
340
  8
TEAM-BODY
 10
-35.481948
 20
-394.599103
 30
0.0
 70
    40
  0
VERTEX
  5
341
  8
TEAM-BODY
 10
-34.921992
 20
-394.863327
 30
0.0
 70
    40
  0
VERTEX
  5
342
  8
TEAM-BODY
 10
-34.316194
 20
-395.052653
 30
0.0
 70
    40
  0
VERTEX
  5
343
  8
TEAM-BODY
 10
-33.652487
 20
-395.179564
 30
0.0
 70
    40
  0
VERTEX
  5
344
  8
TEAM-BODY
 10
-32.918802
 20
-395.256543
 30
0.0
 70
    40
  0
VERTEX
  5
345
  8
TEAM-BODY
 10
-32.103069
 20
-395.296072
 30
0.0
 70
    40
  0
VERTEX
  5
346
  8
TEAM-BODY
 10
-31.193222
 20
-395.310636
 30
0.0
 70
    40
  0
VERTEX
  5
347
  8
TEAM-BODY
 10
-30.17719
 20
-395.312716
 30
0.0
 70
    40
  0
VERTEX
  5
348
  8
TEAM-BODY
 10
-29.048153
 20
-395.312718
 30
0.0
 70
    40
  0
VERTEX
  5
349
  8
TEAM-BODY
 10
-27.820279
 20
-395.312727
 30
0.0
 70
    40
  0
VERTEX
  5
34A
  8
TEAM-BODY
 10
-26.512985
 20
-395.312753
 30
0.0
 70
    40
  0
VERTEX
  5
34B
  8
TEAM-BODY
 10
-25.145688
 20
-395.312804
 30
0.0
 70
    40
  0
VERTEX
  5
34C
  8
TEAM-BODY
 10
-23.737803
 20
-395.312886
 30
0.0
 70
    40
  0
VERTEX
  5
34D
  8
TEAM-BODY
 10
-22.308747
 20
-395.31301
 30
0.0
 70
    40
  0
VERTEX
  5
34E
  8
TEAM-BODY
 10
-20.877936
 20
-395.313183
 30
0.0
 70
    40
  0
VERTEX
  5
34F
  8
TEAM-BODY
 10
-19.464787
 20
-395.313413
 30
0.0
 70
    40
  0
VERTEX
  5
350
  8
TEAM-BODY
 10
-18.067471
 20
-395.313702
 30
0.0
 70
    40
  0
VERTEX
  5
351
  8
TEAM-BODY
 10
-16.599181
 20
-395.314033
 30
0.0
 70
    40
  0
VERTEX
  5
352
  8
TEAM-BODY
 10
-14.951865
 20
-395.31438
 30
0.0
 70
    40
  0
VERTEX
  5
353
  8
TEAM-BODY
 10
-13.01747
 20
-395.314718
 30
0.0
 70
    40
  0
VERTEX
  5
354
  8
TEAM-BODY
 10
-10.687944
 20
-395.315024
 30
0.0
 70
    40
  0
VERTEX
  5
355
  8
TEAM-BODY
 10
-7.855236
 20
-395.315273
 30
0.0
 70
    40
  0
VERTEX
  5
356
  8
TEAM-BODY
 10
-4.411292
 20
-395.31544
 30
0.0
 70
    40
  0
VERTEX
  5
357
  8
TEAM-BODY
 10
-0.248062
 20
-395.315502
 30
0.0
 70
    40
  0
VERTEX
  5
358
  8
TEAM-BODY
 10
-45.188629
 20
-380.137768
 30
0.0
 70
    48
  0
VERTEX
  5
359
  8
TEAM-BODY
 10
-44.312179
 20
-380.895711
 30
0.0
 70
    48
  0
VERTEX
  5
35A
  8
TEAM-BODY
 10
-42.898315
 20
-383.329311
 30
0.0
 70
    48
  0
VERTEX
  5
35B
  8
TEAM-BODY
 10
-39.651687
 20
-388.921404
 30
0.0
 70
    48
  0
VERTEX
  5
35C
  8
TEAM-BODY
 10
-36.239639
 20
-395.312716
 30
0.0
 70
    48
  0
VERTEX
  5
35D
  8
TEAM-BODY
 10
-31.438552
 20
-395.312716
 30
0.0
 70
    48
  0
VERTEX
  5
35E
  8
TEAM-BODY
 10
-19.06929
 20
-395.312716
 30
0.0
 70
    48
  0
VERTEX
  5
35F
  8
TEAM-BODY
 10
-12.405106
 20
-395.315502
 30
0.0
 70
    48
  0
VERTEX
  5
360
  8
TEAM-BODY
 10
-0.248061
 20
-395.315502
 30
0.0
 70
    48
  0
SEQEND
  5
361
  8
TEAM-BODY
  0
POLYLINE
  5
362
  8
TEAM-BODY
 66
     1
 10
0.0
 20
0.0
 30
0.0
 70
    12
 75
     6
  0
VERTEX
  5
363
  8
TEAM-BODY
 10
49.44951
 20
-380.137768
 30
0.0
 70
    48
  0
VERTEX
  5
364
  8
TEAM-BODY
 10
49.44951
 20
-380.137768
 30
0.0
 70
    40
  0
VERTEX
  5
365
  8
TEAM-BODY
 10
48.235064
 20
-380.15485
 30
0.0
 70
    40
  0
VERTEX
  5
366
  8
TEAM-BODY
 10
47.242991
 20
-380.204917
 30
0.0
 70
    40
  0
VERTEX
  5
367
  8
TEAM-BODY
 10
46.444262
 20
-380.286199
 30
0.0
 70
    40
  0
VERTEX
  5
368
  8
TEAM-BODY
 10
45.809845
 20
-380.396929
 30
0.0
 70
    40
  0
VERTEX
  5
369
  8
TEAM-BODY
 10
45.310711
 20
-380.535339
 30
0.0
 70
    40
  0
VERTEX
  5
36A
  8
TEAM-BODY
 10
44.91783
 20
-380.699659
 30
0.0
 70
    40
  0
VERTEX
  5
36B
  8
TEAM-BODY
 10
44.602173
 20
-380.888122
 30
0.0
 70
    40
  0
VERTEX
  5
36C
  8
TEAM-BODY
 10
44.33471
 20
-381.098959
 30
0.0
 70
    40
  0
VERTEX
  5
36D
  8
TEAM-BODY
 10
44.090252
 20
-381.331297
 30
0.0
 70
    40
  0
VERTEX
  5
36E
  8
TEAM-BODY
 10
43.858977
 20
-381.587844
 30
0.0
 70
    40
  0
VERTEX
  5
36F
  8
TEAM-BODY
 10
43.634905
 20
-381.872204
 30
0.0
 70
    40
  0
VERTEX
  5
370
  8
TEAM-BODY
 10
43.412055
 20
-382.187983
 30
0.0
 70
    40
  0
VERTEX
  5
371
  8
TEAM-BODY
 10
43.184447
 20
-382.538782
 30
0.0
 70
    40
  0
VERTEX
  5
372
  8
TEAM-BODY
 10
42.946101
 20
-382.928207
 30
0.0
 70
    40
  0
VERTEX
  5
373
  8
TEAM-BODY
 10
42.691035
 20
-383.359862
 30
0.0
 70
    40
  0
VERTEX
  5
374
  8
TEAM-BODY
 10
42.413269
 20
-383.83735
 30
0.0
 70
    40
  0
VERTEX
  5
375
  8
TEAM-BODY
 10
42.108364
 20
-384.362903
 30
0.0
 70
    40
  0
VERTEX
  5
376
  8
TEAM-BODY
 10
41.778047
 20
-384.933271
 30
0.0
 70
    40
  0
VERTEX
  5
377
  8
TEAM-BODY
 10
41.425584
 20
-385.543827
 30
0.0
 70
    40
  0
VERTEX
  5
378
  8
TEAM-BODY
 10
41.054242
 20
-386.189949
 30
0.0
 70
    40
  0
VERTEX
  5
379
  8
TEAM-BODY
 10
40.667291
 20
-386.867013
 30
0.0
 70
    40
  0
VERTEX
  5
37A
  8
TEAM-BODY
 10
40.267995
 20
-387.570393
 30
0.0
 70
    40
  0
VERTEX
  5
37B
  8
TEAM-BODY
 10
39.859624
 20
-388.295468
 30
0.0
 70
    40
  0
VERTEX
  5
37C
  8
TEAM-BODY
 10
39.445445
 20
-389.037611
 30
0.0
 70
    40
  0
VERTEX
  5
37D
  8
TEAM-BODY
 10
39.027779
 20
-389.790631
 30
0.0
 70
    40
  0
VERTEX
  5
37E
  8
TEAM-BODY
 10
38.605165
 20
-390.542057
 30
0.0
 70
    40
  0
VERTEX
  5
37F
  8
TEAM-BODY
 10
38.175198
 20
-391.277851
 30
0.0
 70
    40
  0
VERTEX
  5
380
  8
TEAM-BODY
 10
37.735472
 20
-391.983974
 30
0.0
 70
    40
  0
VERTEX
  5
381
  8
TEAM-BODY
 10
37.28358
 20
-392.646388
 30
0.0
 70
    40
  0
VERTEX
  5
382
  8
TEAM-BODY
 10
36.817115
 20
-393.251053
 30
0.0
 70
    40
  0
VERTEX
  5
383
  8
TEAM-BODY
 10
36.333673
 20
-393.78393
 30
0.0
 70
    40
  0
VERTEX
  5
384
  8
TEAM-BODY
 10
35.830846
 20
-394.230982
 30
0.0
 70
    40
  0
VERTEX
  5
385
  8
TEAM-BODY
 10
35.304623
 20
-394.582589
 30
0.0
 70
    40
  0
VERTEX
  5
386
  8
TEAM-BODY
 10
34.744561
 20
-394.846815
 30
0.0
 70
    40
  0
VERTEX
  5
387
  8
TEAM-BODY
 10
34.138615
 20
-395.036142
 30
0.0
 70
    40
  0
VERTEX
  5
388
  8
TEAM-BODY
 10
33.474738
 20
-395.163053
 30
0.0
 70
    40
  0
VERTEX
  5
389
  8
TEAM-BODY
 10
32.740882
 20
-395.240033
 30
0.0
 70
    40
  0
VERTEX
  5
38A
  8
TEAM-BODY
 10
31.925
 20
-395.279562
 30
0.0
 70
    40
  0
VERTEX
  5
38B
  8
TEAM-BODY
 10
31.015047
 20
-395.294126
 30
0.0
 70
    40
  0
VERTEX
  5
38C
  8
TEAM-BODY
 10
29.998973
 20
-395.296206
 30
0.0
 70
    40
  0
VERTEX
  5
38D
  8
TEAM-BODY
 10
28.869976
 20
-395.296206
 30
0.0
 70
    40
  0
VERTEX
  5
38E
  8
TEAM-BODY
 10
27.642221
 20
-395.296206
 30
0.0
 70
    40
  0
VERTEX
  5
38F
  8
TEAM-BODY
 10
26.335115
 20
-395.296206
 30
0.0
 70
    40
  0
VERTEX
  5
390
  8
TEAM-BODY
 10
24.968068
 20
-395.296206
 30
0.0
 70
    40
  0
VERTEX
  5
391
  8
TEAM-BODY
 10
23.560487
 20
-395.296206
 30
0.0
 70
    40
  0
VERTEX
  5
392
  8
TEAM-BODY
 10
22.131781
 20
-395.296206
 30
0.0
 70
    40
  0
VERTEX
  5
393
  8
TEAM-BODY
 10
20.701358
 20
-395.296206
 30
0.0
 70
    40
  0
VERTEX
  5
394
  8
TEAM-BODY
 10
19.288626
 20
-395.296206
 30
0.0
 70
    40
  0
VERTEX
  5
395
  8
TEAM-BODY
 10
17.891736
 20
-395.296206
 30
0.0
 70
    40
  0
VERTEX
  5
396
  8
TEAM-BODY
 10
16.42381
 20
-395.296206
 30
0.0
 70
    40
  0
VERTEX
  5
397
  8
TEAM-BODY
 10
14.776713
 20
-395.296206
 30
0.0
 70
    40
  0
VERTEX
  5
398
  8
TEAM-BODY
 10
12.84231
 20
-395.296206
 30
0.0
 70
    40
  0
VERTEX
  5
399
  8
TEAM-BODY
 10
10.512464
 20
-395.296206
 30
0.0
 70
    40
  0
VERTEX
  5
39A
  8
TEAM-BODY
 10
7.679042
 20
-395.296206
 30
0.0
 70
    40
  0
VERTEX
  5
39B
  8
TEAM-BODY
 10
4.233907
 20
-395.296206
 30
0.0
 70
    40
  0
VERTEX
  5
39C
  8
TEAM-BODY
 10
0.068925
 20
-395.296206
 30
0.0
 70
    40
  0
VERTEX
  5
39D
  8
TEAM-BODY
 10
45.888687
 20
-380.137768
 30
0.0
 70
    48
  0
VERTEX
  5
39E
  8
TEAM-BODY
 10
44.130296
 20
-380.879166
 30
0.0
 70
    48
  0
VERTEX
  5
39F
  8
TEAM-BODY
 10
42.719192
 20
-383.310018
 30
0.0
 70
    48
  0
VERTEX
  5
3A0
  8
TEAM-BODY
 10
39.47255
 20
-388.90486
 30
0.0
 70
    48
  0
VERTEX
  5
3A1
  8
TEAM-BODY
 10
36.063278
 20
-395.296206
 30
0.0
 70
    48
  0
VERTEX
  5
3A2
  8
TEAM-BODY
 10
31.259415
 20
-395.296206
 30
0.0
 70
    48
  0
VERTEX
  5
3A3
  8
TEAM-BODY
 10
18.8929
 20
-395.296206
 30
0.0
 70
    48
  0
VERTEX
  5
3A4
  8
TEAM-BODY
 10
12.231462
 20
-395.296206
 30
0.0
 70
    48
  0
VERTEX
  5
3A5
  8
TEAM-BODY
 10
0.068925
 20
-395.296206
 30
0.0
 70
    48
  0
SEQEND
  5
3A6
  8
TEAM-BODY
  0
POLYLINE
  5
3A7
  8
TEAM-BODY
 66
     1
 10
0.0
 20
0.0
 30
0.0
 70
    12
 75
     6
  0
VERTEX
  5
3A8
  8
TEAM-BODY
 10
49.44951
 20
-380.137768
 30
0.0
 70
    48
  0
VERTEX
  5
3A9
  8
TEAM-BODY
 10
49.44951
 20
-380.137768
 30
0.0
 70
    40
  0
VERTEX
  5
3AA
  8
TEAM-BODY
 10
48.235064
 20
-380.15485
 30
0.0
 70
    40
  0
VERTEX
  5
3AB
  8
TEAM-BODY
 10
47.242991
 20
-380.204917
 30
0.0
 70
    40
  0
VERTEX
  5
3AC
  8
TEAM-BODY
 10
46.444262
 20
-380.286199
 30
0.0
 70
    40
  0
VERTEX
  5
3AD
  8
TEAM-BODY
 10
45.809845
 20
-380.396929
 30
0.0
 70
    40
  0
VERTEX
  5
3AE
  8
TEAM-BODY
 10
45.310711
 20
-380.535339
 30
0.0
 70
    40
  0
VERTEX
  5
3AF
  8
TEAM-BODY
 10
44.91783
 20
-380.699659
 30
0.0
 70
    40
  0
VERTEX
  5
3B0
  8
TEAM-BODY
 10
44.602173
 20
-380.888122
 30
0.0
 70
    40
  0
VERTEX
  5
3B1
  8
TEAM-BODY
 10
44.33471
 20
-381.098959
 30
0.0
 70
    40
  0
VERTEX
  5
3B2
  8
TEAM-BODY
 10
44.090252
 20
-381.331297
 30
0.0
 70
    40
  0
VERTEX
  5
3B3
  8
TEAM-BODY
 10
43.858977
 20
-381.587844
 30
0.0
 70
    40
  0
VERTEX
  5
3B4
  8
TEAM-BODY
 10
43.634905
 20
-381.872204
 30
0.0
 70
    40
  0
VERTEX
  5
3B5
  8
TEAM-BODY
 10
43.412055
 20
-382.187983
 30
0.0
 70
    40
  0
VERTEX
  5
3B6
  8
TEAM-BODY
 10
43.184447
 20
-382.538782
 30
0.0
 70
    40
  0
VERTEX
  5
3B7
  8
TEAM-BODY
 10
42.946101
 20
-382.928207
 30
0.0
 70
    40
  0
VERTEX
  5
3B8
  8
TEAM-BODY
 10
42.691035
 20
-383.359862
 30
0.0
 70
    40
  0
VERTEX
  5
3B9
  8
TEAM-BODY
 10
42.413269
 20
-383.83735
 30
0.0
 70
    40
  0
VERTEX
  5
3BA
  8
TEAM-BODY
 10
42.108364
 20
-384.362903
 30
0.0
 70
    40
  0
VERTEX
  5
3BB
  8
TEAM-BODY
 10
41.778047
 20
-384.933271
 30
0.0
 70
    40
  0
VERTEX
  5
3BC
  8
TEAM-BODY
 10
41.425584
 20
-385.543827
 30
0.0
 70
    40
  0
VERTEX
  5
3BD
  8
TEAM-BODY
 10
41.054242
 20
-386.189949
 30
0.0
 70
    40
  0
VERTEX
  5
3BE
  8
TEAM-BODY
 10
40.667291
 20
-386.867013
 30
0.0
 70
    40
  0
VERTEX
  5
3BF
  8
TEAM-BODY
 10
40.267995
 20
-387.570393
 30
0.0
 70
    40
  0
VERTEX
  5
3C0
  8
TEAM-BODY
 10
39.859624
 20
-388.295468
 30
0.0
 70
    40
  0
VERTEX
  5
3C1
  8
TEAM-BODY
 10
39.445445
 20
-389.037611
 30
0.0
 70
    40
  0
VERTEX
  5
3C2
  8
TEAM-BODY
 10
39.027779
 20
-389.790631
 30
0.0
 70
    40
  0
VERTEX
  5
3C3
  8
TEAM-BODY
 10
38.605165
 20
-390.542057
 30
0.0
 70
    40
  0
VERTEX
  5
3C4
  8
TEAM-BODY
 10
38.175198
 20
-391.277851
 30
0.0
 70
    40
  0
VERTEX
  5
3C5
  8
TEAM-BODY
 10
37.735472
 20
-391.983974
 30
0.0
 70
    40
  0
VERTEX
  5
3C6
  8
TEAM-BODY
 10
37.28358
 20
-392.646388
 30
0.0
 70
    40
  0
VERTEX
  5
3C7
  8
TEAM-BODY
 10
36.817115
 20
-393.251053
 30
0.0
 70
    40
  0
VERTEX
  5
3C8
  8
TEAM-BODY
 10
36.333673
 20
-393.78393
 30
0.0
 70
    40
  0
VERTEX
  5
3C9
  8
TEAM-BODY
 10
35.830846
 20
-394.230982
 30
0.0
 70
    40
  0
VERTEX
  5
3CA
  8
TEAM-BODY
 10
35.304623
 20
-394.582589
 30
0.0
 70
    40
  0
VERTEX
  5
3CB
  8
TEAM-BODY
 10
34.744561
 20
-394.846815
 30
0.0
 70
    40
  0
VERTEX
  5
3CC
  8
TEAM-BODY
 10
34.138615
 20
-395.036142
 30
0.0
 70
    40
  0
VERTEX
  5
3CD
  8
TEAM-BODY
 10
33.474738
 20
-395.163053
 30
0.0
 70
    40
  0
VERTEX
  5
3CE
  8
TEAM-BODY
 10
32.740882
 20
-395.240033
 30
0.0
 70
    40
  0
VERTEX
  5
3CF
  8
TEAM-BODY
 10
31.925
 20
-395.279562
 30
0.0
 70
    40
  0
VERTEX
  5
3D0
  8
TEAM-BODY
 10
31.015047
 20
-395.294126
 30
0.0
 70
    40
  0
VERTEX
  5
3D1
  8
TEAM-BODY
 10
29.998973
 20
-395.296206
 30
0.0
 70
    40
  0
VERTEX
  5
3D2
  8
TEAM-BODY
 10
28.869821
 20
-395.296206
 30
0.0
 70
    40
  0
VERTEX
  5
3D3
  8
TEAM-BODY
 10
27.640983
 20
-395.296206
 30
0.0
 70
    40
  0
VERTEX
  5
3D4
  8
TEAM-BODY
 10
26.330937
 20
-395.296206
 30
0.0
 70
    40
  0
VERTEX
  5
3D5
  8
TEAM-BODY
 10
24.958164
 20
-395.296206
 30
0.0
 70
    40
  0
VERTEX
  5
3D6
  8
TEAM-BODY
 10
23.541144
 20
-395.296206
 30
0.0
 70
    40
  0
VERTEX
  5
3D7
  8
TEAM-BODY
 10
22.098355
 20
-395.296206
 30
0.0
 70
    40
  0
VERTEX
  5
3D8
  8
TEAM-BODY
 10
20.648279
 20
-395.296206
 30
0.0
 70
    40
  0
VERTEX
  5
3D9
  8
TEAM-BODY
 10
19.209395
 20
-395.296206
 30
0.0
 70
    40
  0
VERTEX
  5
3DA
  8
TEAM-BODY
 10
17.779543
 20
-395.296206
 30
0.0
 70
    40
  0
VERTEX
  5
3DB
  8
TEAM-BODY
 10
16.274012
 20
-395.296206
 30
0.0
 70
    40
  0
VERTEX
  5
3DC
  8
TEAM-BODY
 10
14.587452
 20
-395.296206
 30
0.0
 70
    40
  0
VERTEX
  5
3DD
  8
TEAM-BODY
 10
12.614512
 20
-395.296206
 30
0.0
 70
    40
  0
VERTEX
  5
3DE
  8
TEAM-BODY
 10
10.24984
 20
-395.296206
 30
0.0
 70
    40
  0
VERTEX
  5
3DF
  8
TEAM-BODY
 10
7.388088
 20
-395.296206
 30
0.0
 70
    40
  0
VERTEX
  5
3E0
  8
TEAM-BODY
 10
3.923904
 20
-395.296206
 30
0.0
 70
    40
  0
VERTEX
  5
3E1
  8
TEAM-BODY
 10
-0.248061
 20
-395.296206
 30
0.0
 70
    40
  0
VERTEX
  5
3E2
  8
TEAM-BODY
 10
45.888687
 20
-380.137768
 30
0.0
 70
    48
  0
VERTEX
  5
3E3
  8
TEAM-BODY
 10
44.130296
 20
-380.879166
 30
0.0
 70
    48
  0
VERTEX
  5
3E4
  8
TEAM-BODY
 10
42.719192
 20
-383.310018
 30
0.0
 70
    48
  0
VERTEX
  5
3E5
  8
TEAM-BODY
 10
39.47255
 20
-388.90486
 30
0.0
 70
    48
  0
VERTEX
  5
3E6
  8
TEAM-BODY
 10
36.063278
 20
-395.296206
 30
0.0
 70
    48
  0
VERTEX
  5
3E7
  8
TEAM-BODY
 10
31.259415
 20
-395.296206
 30
0.0
 70
    48
  0
VERTEX
  5
3E8
  8
TEAM-BODY
 10
18.8929
 20
-395.296206
 30
0.0
 70
    48
  0
VERTEX
  5
3E9
  8
TEAM-BODY
 10
11.914536
 20
-395.296206
 30
0.0
 70
    48
  0
VERTEX
  5
3EA
  8
TEAM-BODY
 10
-0.248061
 20
-395.296206
 30
0.0
 70
    48
  0
SEQEND
  5
3EB
  8
TEAM-BODY
  0
POLYLINE
  5
3EC
  8
TEAM-DET1
 66
     1
 10
0.0
 20
0.0
 30
0.0
 70
    12
 75
     6
  0
VERTEX
  5
3ED
  8
TEAM-DET1
 10
12.058182
 20
-355.344794
 30
0.0
 70
    48
  0
VERTEX
  5
3EE
  8
TEAM-DET1
 10
12.058182
 20
-355.344794
 30
0.0
 70
    40
  0
VERTEX
  5
3EF
  8
TEAM-DET1
 10
11.938429
 20
-356.025796
 30
0.0
 70
    40
  0
VERTEX
  5
3F0
  8
TEAM-DET1
 10
11.601934
 20
-356.606656
 30
0.0
 70
    40
  0
VERTEX
  5
3F1
  8
TEAM-DET1
 10
11.082843
 20
-357.096364
 30
0.0
 70
    40
  0
VERTEX
  5
3F2
  8
TEAM-DET1
 10
10.415304
 20
-357.503916
 30
0.0
 70
    40
  0
VERTEX
  5
3F3
  8
TEAM-DET1
 10
9.633464
 20
-357.838304
 30
0.0
 70
    40
  0
VERTEX
  5
3F4
  8
TEAM-DET1
 10
8.771468
 20
-358.108521
 30
0.0
 70
    40
  0
VERTEX
  5
3F5
  8
TEAM-DET1
 10
7.863464
 20
-358.323561
 30
0.0
 70
    40
  0
VERTEX
  5
3F6
  8
TEAM-DET1
 10
6.943599
 20
-358.492418
 30
0.0
 70
    40
  0
VERTEX
  5
3F7
  8
TEAM-DET1
 10
6.039864
 20
-358.623359
 30
0.0
 70
    40
  0
VERTEX
  5
3F8
  8
TEAM-DET1
 10
5.155628
 20
-358.721759
 30
0.0
 70
    40
  0
VERTEX
  5
3F9
  8
TEAM-DET1
 10
4.288106
 20
-358.792266
 30
0.0
 70
    40
  0
VERTEX
  5
3FA
  8
TEAM-DET1
 10
3.434511
 20
-358.839529
 30
0.0
 70
    40
  0
VERTEX
  5
3FB
  8
TEAM-DET1
 10
2.592058
 20
-358.868197
 30
0.0
 70
    40
  0
VERTEX
  5
3FC
  8
TEAM-DET1
 10
1.757959
 20
-358.882918
 30
0.0
 70
    40
  0
VERTEX
  5
3FD
  8
TEAM-DET1
 10
0.92943
 20
-358.888342
 30
0.0
 70
    40
  0
VERTEX
  5
3FE
  8
TEAM-DET1
 10
0.103684
 20
-358.889117
 30
0.0
 70
    40
  0
VERTEX
  5
3FF
  8
TEAM-DET1
 10
-0.721193
 20
-358.8886
 30
0.0
 70
    40
  0
VERTEX
  5
400
  8
TEAM-DET1
 10
-1.543632
 20
-358.884984
 30
0.0
 70
    40
  0
VERTEX
  5
401
  8
TEAM-DET1
 10
-2.361188
 20
-358.87517
 30
0.0
 70
    40
  0
VERTEX
  5
402
  8
TEAM-DET1
 10
-3.171421
 20
-358.856058
 30
0.0
 70
    40
  0
VERTEX
  5
403
  8
TEAM-DET1
 10
-3.971888
 20
-358.82455
 30
0.0
 70
    40
  0
VERTEX
  5
404
  8
TEAM-DET1
 10
-4.760147
 20
-358.777545
 30
0.0
 70
    40
  0
VERTEX
  5
405
  8
TEAM-DET1
 10
-5.533756
 20
-358.711945
 30
0.0
 70
    40
  0
VERTEX
  5
406
  8
TEAM-DET1
 10
-6.290272
 20
-358.62465
 30
0.0
 70
    40
  0
VERTEX
  5
407
  8
TEAM-DET1
 10
-7.026326
 20
-358.513475
 30
0.0
 70
    40
  0
VERTEX
  5
408
  8
TEAM-DET1
 10
-7.734833
 20
-358.37988
 30
0.0
 70
    40
  0
VERTEX
  5
409
  8
TEAM-DET1
 10
-8.407783
 20
-358.226243
 30
0.0
 70
    40
  0
VERTEX
  5
40A
  8
TEAM-DET1
 10
-9.037163
 20
-358.054937
 30
0.0
 70
    40
  0
VERTEX
  5
40B
  8
TEAM-DET1
 10
-9.614963
 20
-357.868337
 30
0.0
 70
    40
  0
VERTEX
  5
40C
  8
TEAM-DET1
 10
-10.13317
 20
-357.66882
 30
0.0
 70
    40
  0
VERTEX
  5
40D
  8
TEAM-DET1
 10
-10.583773
 20
-357.45876
 30
0.0
 70
    40
  0
VERTEX
  5
40E
  8
TEAM-DET1
 10
-10.95876
 20
-357.240532
 30
0.0
 70
    40
  0
VERTEX
  5
40F
  8
TEAM-DET1
 10
-11.253197
 20
-357.016236
 30
0.0
 70
    40
  0
VERTEX
  5
410
  8
TEAM-DET1
 10
-11.474461
 20
-356.786871
 30
0.0
 70
    40
  0
VERTEX
  5
411
  8
TEAM-DET1
 10
-11.633004
 20
-356.55316
 30
0.0
 70
    40
  0
VERTEX
  5
412
  8
TEAM-DET1
 10
-11.739281
 20
-356.315827
 30
0.0
 70
    40
  0
VERTEX
  5
413
  8
TEAM-DET1
 10
-11.803743
 20
-356.075595
 30
0.0
 70
    40
  0
VERTEX
  5
414
  8
TEAM-DET1
 10
-11.836846
 20
-355.833187
 30
0.0
 70
    40
  0
VERTEX
  5
415
  8
TEAM-DET1
 10
-11.849041
 20
-355.589328
 30
0.0
 70
    40
  0
VERTEX
  5
416
  8
TEAM-DET1
 10
-11.850783
 20
-355.34474
 30
0.0
 70
    40
  0
VERTEX
  5
417
  8
TEAM-DET1
 10
-11.849041
 20
-355.100148
 30
0.0
 70
    40
  0
VERTEX
  5
418
  8
TEAM-DET1
 10
-11.836846
 20
-354.856276
 30
0.0
 70
    40
  0
VERTEX
  5
419
  8
TEAM-DET1
 10
-11.803743
 20
-354.613849
 30
0.0
 70
    40
  0
VERTEX
  5
41A
  8
TEAM-DET1
 10
-11.739281
 20
-354.373594
 30
0.0
 70
    40
  0
VERTEX
  5
41B
  8
TEAM-DET1
 10
-11.633004
 20
-354.136235
 30
0.0
 70
    40
  0
VERTEX
  5
41C
  8
TEAM-DET1
 10
-11.474461
 20
-353.902497
 30
0.0
 70
    40
  0
VERTEX
  5
41D
  8
TEAM-DET1
 10
-11.253197
 20
-353.673107
 30
0.0
 70
    40
  0
VERTEX
  5
41E
  8
TEAM-DET1
 10
-10.95876
 20
-353.448789
 30
0.0
 70
    40
  0
VERTEX
  5
41F
  8
TEAM-DET1
 10
-10.583773
 20
-353.230544
 30
0.0
 70
    40
  0
VERTEX
  5
420
  8
TEAM-DET1
 10
-10.13317
 20
-353.020471
 30
0.0
 70
    40
  0
VERTEX
  5
421
  8
TEAM-DET1
 10
-9.614963
 20
-352.820944
 30
0.0
 70
    40
  0
VERTEX
  5
422
  8
TEAM-DET1
 10
-9.037163
 20
-352.634339
 30
0.0
 70
    40
  0
VERTEX
  5
423
  8
TEAM-DET1
 10
-8.407783
 20
-352.463029
 30
0.0
 70
    40
  0
VERTEX
  5
424
  8
TEAM-DET1
 10
-7.734833
 20
-352.30939
 30
0.0
 70
    40
  0
VERTEX
  5
425
  8
TEAM-DET1
 10
-7.026326
 20
-352.175795
 30
0.0
 70
    40
  0
VERTEX
  5
426
  8
TEAM-DET1
 10
-6.290272
 20
-352.06462
 30
0.0
 70
    40
  0
VERTEX
  5
427
  8
TEAM-DET1
 10
-5.533756
 20
-351.977326
 30
0.0
 70
    40
  0
VERTEX
  5
428
  8
TEAM-DET1
 10
-4.760147
 20
-351.911726
 30
0.0
 70
    40
  0
VERTEX
  5
429
  8
TEAM-DET1
 10
-3.971888
 20
-351.864721
 30
0.0
 70
    40
  0
VERTEX
  5
42A
  8
TEAM-DET1
 10
-3.171421
 20
-351.833213
 30
0.0
 70
    40
  0
VERTEX
  5
42B
  8
TEAM-DET1
 10
-2.361188
 20
-351.814101
 30
0.0
 70
    40
  0
VERTEX
  5
42C
  8
TEAM-DET1
 10
-1.543632
 20
-351.804287
 30
0.0
 70
    40
  0
VERTEX
  5
42D
  8
TEAM-DET1
 10
-0.721193
 20
-351.800671
 30
0.0
 70
    40
  0
VERTEX
  5
42E
  8
TEAM-DET1
 10
0.103684
 20
-351.800155
 30
0.0
 70
    40
  0
VERTEX
  5
42F
  8
TEAM-DET1
 10
0.92943
 20
-351.800929
 30
0.0
 70
    40
  0
VERTEX
  5
430
  8
TEAM-DET1
 10
1.757959
 20
-351.806353
 30
0.0
 70
    40
  0
VERTEX
  5
431
  8
TEAM-DET1
 10
2.592058
 20
-351.821074
 30
0.0
 70
    40
  0
VERTEX
  5
432
  8
TEAM-DET1
 10
3.434511
 20
-351.849742
 30
0.0
 70
    40
  0
VERTEX
  5
433
  8
TEAM-DET1
 10
4.288106
 20
-351.897005
 30
0.0
 70
    40
  0
VERTEX
  5
434
  8
TEAM-DET1
 10
5.155628
 20
-351.967511
 30
0.0
 70
    40
  0
VERTEX
  5
435
  8
TEAM-DET1
 10
6.039864
 20
-352.065911
 30
0.0
 70
    40
  0
VERTEX
  5
436
  8
TEAM-DET1
 10
6.943599
 20
-352.196852
 30
0.0
 70
    40
  0
VERTEX
  5
437
  8
TEAM-DET1
 10
7.863464
 20
-352.365709
 30
0.0
 70
    40
  0
VERTEX
  5
438
  8
TEAM-DET1
 10
8.771468
 20
-352.580753
 30
0.0
 70
    40
  0
VERTEX
  5
439
  8
TEAM-DET1
 10
9.633464
 20
-352.850982
 30
0.0
 70
    40
  0
VERTEX
  5
43A
  8
TEAM-DET1
 10
10.415304
 20
-353.185392
 30
0.0
 70
    40
  0
VERTEX
  5
43B
  8
TEAM-DET1
 10
11.082843
 20
-353.592981
 30
0.0
 70
    40
  0
VERTEX
  5
43C
  8
TEAM-DET1
 10
11.601934
 20
-354.082747
 30
0.0
 70
    40
  0
VERTEX
  5
43D
  8
TEAM-DET1
 10
11.938429
 20
-354.663685
 30
0.0
 70
    40
  0
VERTEX
  5
43E
  8
TEAM-DET1
 10
12.058182
 20
-355.344793
 30
0.0
 70
    40
  0
VERTEX
  5
43F
  8
TEAM-DET1
 10
12.058182
 20
-357.30232
 30
0.0
 70
    48
  0
VERTEX
  5
440
  8
TEAM-DET1
 10
6.705888
 20
-358.889117
 30
0.0
 70
    48
  0
VERTEX
  5
441
  8
TEAM-DET1
 10
0.103715
 20
-358.889117
 30
0.0
 70
    48
  0
VERTEX
  5
442
  8
TEAM-DET1
 10
-6.498642
 20
-358.889117
 30
0.0
 70
    48
  0
VERTEX
  5
443
  8
TEAM-DET1
 10
-11.850784
 20
-357.30232
 30
0.0
 70
    48
  0
VERTEX
  5
444
  8
TEAM-DET1
 10
-11.850784
 20
-355.344794
 30
0.0
 70
    48
  0
VERTEX
  5
445
  8
TEAM-DET1
 10
-11.850784
 20
-353.386946
 30
0.0
 70
    48
  0
VERTEX
  5
446
  8
TEAM-DET1
 10
-6.498642
 20
-351.800155
 30
0.0
 70
    48
  0
VERTEX
  5
447
  8
TEAM-DET1
 10
0.103715
 20
-351.800155
 30
0.0
 70
    48
  0
VERTEX
  5
448
  8
TEAM-DET1
 10
6.705888
 20
-351.800155
 30
0.0
 70
    48
  0
VERTEX
  5
449
  8
TEAM-DET1
 10
12.058182
 20
-353.386946
 30
0.0
 70
    48
  0
VERTEX
  5
44A
  8
TEAM-DET1
 10
12.058182
 20
-355.344794
 30
0.0
 70
    48
  0
SEQEND
  5
44C
  8
TEAM-DET1
  0
DIMENSION
  5
44D
  8
TEAM-MAS
  2
*D1
 10
277.5
 20
-475.16836
 30
0.0
 11
0.0
 21
-475.16836
 31
0.0
 12
-4000.0
 22
-48000.0
 32
0.0
 13
-277.5
 23
-332.052089
 33
0.0
 14
277.5
 24
-332.052149
 34
0.0
1001
ACAD
1000
DSTYLE
1002
{
1070
    40
1040
1.0
1002
}
  0
DIMENSION
  5
45C
  8
TEAM-MAS
  2
*D0
 10
380.430714
 20
-380.002726
 30
0.0
 11
380.430714
 21
-190.001363
 31
0.0
 12
-4000.0
 22
-48000.0
 32
0.0
 13
0.0
 23
0.0
 33
0.0
 14
240.00354
 24
-380.002726
 34
0.0
 50
90.0
1001
ACAD
1000
DSTYLE
1002
{
1070
    40
1040
1.0
1002
}
  0
TEXT
  5
46A
  8
TEAM-TXT
 10
-219.892134
 20
-211.874611
 30
0.0
 40
24.999999
  1
team 231036
 41
0.8
 51
15.0
  7
TEAM
  0
LINE
  5
46D
  8
TEAM-AXE
 10
0.0
 20
-82.516669
 30
0.0
 11
0.0
 21
-165.85
 31
0.0
  0
LINE
  5
470
  8
TEAM-AXE
 10
-41.666666
 20
-124.183334
 30
0.0
 11
41.666666
 21
-124.183334
 31
0.0
  0
CIRCLE
  5
471
  8
TEAM-DET1
 10
0.0
 20
-124.183334
 30
0.0
 40
40.0
  0
CIRCLE
  5
472
  8
TEAM-KAN
 10
0.0
 20
-124.183334
 30
0.0
 40
30.0
  0
ENDSEC
  0
EOF
