  0
SECTION
  2
HEADER
  9
$ACADVER
  1
AC1009
  9
$INSBASE
 10
0.0
 20
0.0
 30
0.0
  9
$EXTMIN
 10
-277.49248
 20
-7.144869
 30
0.0
  9
$EXTMAX
 10
564.297568
 20
899.732311
 30
0.0
  9
$LIMMIN
 10
-277.49248
 20
-7.144869
  9
$LIMMAX
 10
564.297568
 20
899.732311
  9
$ORTHOMODE
 70
     1
  9
$REGENMODE
 70
     1
  9
$FILLMODE
 70
     1
  9
$QTEXTMODE
 70
     0
  9
$MIRRTEXT
 70
     0
  9
$DRAGMODE
 70
     2
  9
$LTSCALE
 40
25.0
  9
$OSMODE
 70
     0
  9
$ATTMODE
 70
     1
  9
$TEXTSIZE
 40
200.0
  9
$TRACEWID
 40
1.0
  9
$TEXTSTYLE
  7
STANDARD
  9
$CLAYER
  8
TEAM-MAS
  9
$CELTYPE
  6
BYLAYER
  9
$CECOLOR
 62
   256
  9
$DIMSCALE
 40
1.0
  9
$DIMASZ
 40
20.0
  9
$DIMEXO
 40
10.0
  9
$DIMDLI
 40
1.0
  9
$DIMRND
 40
0.0
  9
$DIMDLE
 40
0.0
  9
$DIMEXE
 40
1.0
  9
$DIMTP
 40
0.0
  9
$DIMTM
 40
0.0
  9
$DIMTXT
 40
35.0
  9
$DIMCEN
 40
1.0
  9
$DIMTSZ
 40
0.0
  9
$DIMTOL
 70
     0
  9
$DIMLIM
 70
     0
  9
$DIMTIH
 70
     0
  9
$DIMTOH
 70
     0
  9
$DIMSE1
 70
     0
  9
$DIMSE2
 70
     0
  9
$DIMTAD
 70
     0
  9
$DIMZIN
 70
     0
  9
$DIMBLK
  1

  9
$DIMASO
 70
     1
  9
$DIMSHO
 70
     0
  9
$DIMPOST
  1

  9
$DIMAPOST
  1

  9
$DIMALT
 70
     0
  9
$DIMALTD
 70
     2
  9
$DIMALTF
 40
25.4
  9
$DIMLFAC
 40
1.0
  9
$DIMTOFL
 70
     0
  9
$DIMTVP
 40
0.0
  9
$DIMTIX
 70
     0
  9
$DIMSOXD
 70
     0
  9
$DIMSAH
 70
     0
  9
$DIMBLK1
  1

  9
$DIMBLK2
  1

  9
$DIMSTYLE
  2
TEAM
  9
$DIMCLRD
 70
     9
  9
$DIMCLRE
 70
     9
  9
$DIMCLRT
 70
    11
  9
$DIMTFAC
 40
1.0
  9
$DIMGAP
 40
15.0
  9
$LUNITS
 70
     2
  9
$LUPREC
 70
     1
  9
$SKETCHINC
 40
1.0
  9
$FILLETRAD
 40
50.0
  9
$AUNITS
 70
     0
  9
$AUPREC
 70
     0
  9
$MENU
  1
ROPLANS
  9
$ELEVATION
 40
0.0
  9
$PELEVATION
 40
0.0
  9
$THICKNESS
 40
0.0
  9
$LIMCHECK
 70
     0
  9
$BLIPMODE
 70
     1
  9
$CHAMFERA
 40
0.0
  9
$CHAMFERB
 40
0.0
  9
$SKPOLY
 70
     0
  9
$TDCREATE
 40
2450392.957851
  9
$TDUPDATE
 40
2455505.473099
  9
$TDINDWG
 40
2.023557
  9
$TDUSRTIMER
 40
2.023557
  9
$USRTIMER
 70
     1
  9
$ANGBASE
 50
0.0
  9
$ANGDIR
 70
     0
  9
$PDMODE
 70
     0
  9
$PDSIZE
 40
0.0
  9
$PLINEWID
 40
0.0
  9
$COORDS
 70
     2
  9
$SPLFRAME
 70
     0
  9
$SPLINETYPE
 70
     6
  9
$SPLINESEGS
 70
     8
  9
$ATTDIA
 70
     0
  9
$ATTREQ
 70
     0
  9
$HANDLING
 70
     1
  9
$HANDSEED
  5
457
  9
$SURFTAB1
 70
    24
  9
$SURFTAB2
 70
    24
  9
$SURFTYPE
 70
     6
  9
$SURFU
 70
     6
  9
$SURFV
 70
     6
  9
$UCSNAME
  2

  9
$UCSORG
 10
0.0
 20
0.0
 30
0.0
  9
$UCSXDIR
 10
1.0
 20
0.0
 30
0.0
  9
$UCSYDIR
 10
0.0
 20
1.0
 30
0.0
  9
$PUCSNAME
  2

  9
$PUCSORG
 10
0.0
 20
0.0
 30
0.0
  9
$PUCSXDIR
 10
1.0
 20
0.0
 30
0.0
  9
$PUCSYDIR
 10
0.0
 20
1.0
 30
0.0
  9
$USERI1
 70
     0
  9
$USERI2
 70
     0
  9
$USERI3
 70
     0
  9
$USERI4
 70
     0
  9
$USERI5
 70
     0
  9
$USERR1
 40
0.0
  9
$USERR2
 40
0.0
  9
$USERR3
 40
0.0
  9
$USERR4
 40
0.0
  9
$USERR5
 40
0.0
  9
$WORLDVIEW
 70
     1
  9
$SHADEDGE
 70
     0
  9
$SHADEDIF
 70
    70
  9
$TILEMODE
 70
     1
  9
$MAXACTVP
 70
    16
  9
$PLIMCHECK
 70
     0
  9
$PEXTMIN
 10
-0.805942
 20
0.005011
 30
0.0
  9
$PEXTMAX
 10
20.250094
 20
11.356329
 30
0.0
  9
$PLIMMIN
 10
0.0
 20
0.0
  9
$PLIMMAX
 10
12.0
 20
9.0
  9
$UNITMODE
 70
     0
  9
$VISRETAIN
 70
     0
  9
$PLINEGEN
 70
     0
  9
$PSLTSCALE
 70
     0
  0
ENDSEC
  0
SECTION
  2
TABLES
  0
TABLE
  2
VPORT
 70
     2
  0
VPORT
  2
*ACTIVE
 70
     0
 10
0.0
 20
0.0
 11
1.0
 21
1.0
 12
143.402544
 22
446.293721
 13
0.0
 23
0.0
 14
1.0
 24
1.0
 15
50.0
 25
50.0
 16
0.0
 26
0.0
 36
1.0
 17
0.0
 27
0.0
 37
0.0
 40
912.446539
 41
1.865779
 42
50.0
 43
0.0
 44
0.0
 50
0.0
 51
0.0
 71
     0
 72
   100
 73
     1
 74
     1
 75
     0
 76
     0
 77
     0
 78
     0
  0
ENDTAB
  0
TABLE
  2
LTYPE
 70
     2
  0
LTYPE
  2
CONTINUOUS
 70
     0
  3
Solid Line
 72
    65
 73
     0
 40
0.0
  0
LTYPE
  2
31
 70
     0
  3

 72
    65
 73
     4
 40
2.1
 49
1.5
 49
-0.3
 49
0.0
 49
-0.3
  0
ENDTAB
  0
TABLE
  2
LAYER
 70
    10
  0
LAYER
  2
0
 70
     0
 62
     7
  6
CONTINUOUS
  0
LAYER
  2
DEFPOINTS
 70
     0
 62
     7
  6
CONTINUOUS
  0
LAYER
  2
TEAM-BODY
 70
     0
 62
     2
  6
CONTINUOUS
  0
LAYER
  2
TEAM-AXE
 70
     0
 62
    10
  6
31
  0
LAYER
  2
TEAM-MAS
 70
     0
 62
     9
  6
CONTINUOUS
  0
LAYER
  2
TEAM-TXT
 70
     0
 62
    11
  6
CONTINUOUS
  0
LAYER
  2
TEAM-COLD
 70
     0
 62
     3
  6
CONTINUOUS
  0
LAYER
  2
TEAM-KAN
 70
     0
 62
     6
  6
CONTINUOUS
  0
LAYER
  2
TEAM-WARM
 70
     0
 62
     1
  6
CONTINUOUS
  0
LAYER
  2
TEAM-INSP
 70
     0
 62
     5
  6
CONTINUOUS
  0
ENDTAB
  0
TABLE
  2
STYLE
 70
     2
  0
STYLE
  2
STANDARD
 70
     0
 40
0.0
 41
1.0
 50
0.0
 71
     0
 42
200.0
  3
txt
  4

  0
STYLE
  2
TEAM
 70
     0
 40
0.0
 41
0.8
 50
15.0
 71
     0
 42
7.0
  3
ROMANS.shx
  4

  0
ENDTAB
  0
TABLE
  2
VIEW
 70
     0
  0
ENDTAB
  0
TABLE
  2
UCS
 70
     0
  0
ENDTAB
  0
TABLE
  2
APPID
 70
     1
  0
APPID
  2
ACAD
 70
     0
  0
ENDTAB
  0
TABLE
  2
DIMSTYLE
 70
     1
  0
DIMSTYLE
  2
TEAM
 70
     0
  3

  4

  5

  6

  7

 40
1.0
 41
20.0
 42
10.0
 43
1.0
 44
1.0
 45
0.0
 46
0.0
 47
0.0
 48
0.0
140
35.0
141
1.0
142
0.0
143
25.4
144
1.0
145
0.0
146
1.0
147
15.0
 71
     0
 72
     0
 73
     0
 74
     0
 75
     0
 76
     0
 77
     0
 78
     0
170
     0
171
     2
172
     0
173
     0
174
     0
175
     0
176
     9
177
     9
178
    11
  0
ENDTAB
  0
ENDSEC
  0
SECTION
  2
BLOCKS
  0
BLOCK
  8
0
  2
$MODEL_SPACE
 70
     0
 10
0.0
 20
0.0
 30
0.0
  3
$MODEL_SPACE
  1

  0
ENDBLK
  5
450
  8
0
  0
BLOCK
 67
     1
  8
0
  2
$PAPER_SPACE
 70
     0
 10
0.0
 20
0.0
 30
0.0
  3
$PAPER_SPACE
  1

  0
ENDBLK
  5
44E
 67
     1
  8
0
  0
BLOCK
  8
0
  2
*D0
 70
     1
 10
0.0
 20
0.0
 30
0.0
  3
*D0
  1

  0
LINE
  5
1D2
  8
0
  6
BYBLOCK
 62
     9
 10
8265.623408
 20
48815.297309
 30
0.0
 11
8348.656823
 21
48815.297309
 31
0.0
  0
LINE
  5
1D3
  8
0
  6
BYBLOCK
 62
     9
 10
8010.0
 20
48850.000007
 30
0.0
 11
8348.656823
 21
48850.000007
 31
0.0
  0
LINE
  5
1D4
  8
0
  6
BYBLOCK
 62
     9
 10
8347.656823
 20
48795.297309
 30
0.0
 11
8347.656823
 21
48775.297309
 31
0.0
  0
LINE
  5
1D5
  8
0
  6
BYBLOCK
 62
     9
 10
8347.656823
 20
48870.000007
 30
0.0
 11
8347.656823
 21
48890.000007
 31
0.0
  0
TEXT
  5
1D6
  8
0
  6
BYBLOCK
 62
    11
 10
8365.407151
 20
48737.729091
 30
0.0
 40
35.0
  1
35
 50
90.0
  0
LINE
  5
1D7
  8
0
  6
BYBLOCK
 62
     9
 10
8347.656823
 20
48815.297309
 30
0.0
 11
8347.656823
 21
48850.000007
 31
0.0
  0
SOLID
  5
1D8
  8
0
  6
BYBLOCK
 62
     9
 10
8344.32349
 20
48795.297309
 30
0.0
 11
8350.990156
 21
48795.297309
 31
0.0
 12
8347.656823
 22
48815.297309
 32
0.0
 13
8347.656823
 23
48815.297309
 33
0.0
  0
SOLID
  5
1D9
  8
0
  6
BYBLOCK
 62
     9
 10
8344.32349
 20
48870.000007
 30
0.0
 11
8350.990156
 21
48870.000007
 31
0.0
 12
8347.656823
 22
48850.000007
 32
0.0
 13
8347.656823
 23
48850.000007
 33
0.0
  0
POINT
  5
1DA
  8
DEFPOINTS
  6
BYBLOCK
 62
     0
 10
8255.623408
 20
48815.297309
 30
0.0
  0
POINT
  5
1DB
  8
DEFPOINTS
  6
BYBLOCK
 62
     0
 10
8000.0
 20
48850.000007
 30
0.0
  0
POINT
  5
1DC
  8
DEFPOINTS
  6
BYBLOCK
 62
     0
 10
8347.656823
 20
48850.000007
 30
0.0
  0
ENDBLK
  5
1DE
  8
0
  0
BLOCK
  8
0
  2
*D1
 70
     1
 10
0.0
 20
0.0
 30
0.0
  3
*D1
  1

  0
LINE
  5
1BF
  8
0
  6
BYBLOCK
 62
     9
 10
7940.0
 20
48660.0
 30
0.0
 11
7940.0
 21
48536.726393
 31
0.0
  0
LINE
  5
1C0
  8
0
  6
BYBLOCK
 62
     9
 10
8060.0
 20
48660.0
 30
0.0
 11
8060.0
 21
48536.726393
 31
0.0
  0
LINE
  5
1C1
  8
0
  6
BYBLOCK
 62
     9
 10
7960.0
 20
48537.726393
 30
0.0
 11
7975.0
 21
48537.726393
 31
0.0
  0
LINE
  5
1C2
  8
0
  6
BYBLOCK
 62
     9
 10
8040.0
 20
48537.726393
 30
0.0
 11
8025.0
 21
48537.726393
 31
0.0
  0
TEXT
  5
1C3
  8
0
  6
BYBLOCK
 62
    11
 10
7966.038654
 20
48539.574786
 30
0.0
 40
35.0
  1
120
  0
SOLID
  5
1C4
  8
0
  6
BYBLOCK
 62
     9
 10
7960.0
 20
48541.059726
 30
0.0
 11
7960.0
 21
48534.393059
 31
0.0
 12
7940.0
 22
48537.726393
 32
0.0
 13
7940.0
 23
48537.726393
 33
0.0
  0
SOLID
  5
1C5
  8
0
  6
BYBLOCK
 62
     9
 10
8040.0
 20
48541.059726
 30
0.0
 11
8040.0
 21
48534.393059
 31
0.0
 12
8060.0
 22
48537.726393
 32
0.0
 13
8060.0
 23
48537.726393
 33
0.0
  0
POINT
  5
1C6
  8
DEFPOINTS
  6
BYBLOCK
 62
     0
 10
7940.0
 20
48670.0
 30
0.0
  0
POINT
  5
1C7
  8
DEFPOINTS
  6
BYBLOCK
 62
     0
 10
8060.0
 20
48670.0
 30
0.0
  0
POINT
  5
1C8
  8
DEFPOINTS
  6
BYBLOCK
 62
     0
 10
8060.0
 20
48537.726393
 30
0.0
  0
ENDBLK
  5
1CA
  8
0
  0
BLOCK
  8
0
  2
*D2
 70
     1
 10
0.0
 20
0.0
 30
0.0
  3
*D2
  1

  0
LINE
  5
1B1
  8
0
  6
BYBLOCK
 62
     9
 10
8010.0
 20
48850.000007
 30
0.0
 11
8448.373967
 21
48850.000007
 31
0.0
  0
LINE
  5
1B2
  8
0
  6
BYBLOCK
 62
     9
 10
8080.0
 20
48680.0
 30
0.0
 11
8448.373967
 21
48680.0
 31
0.0
  0
LINE
  5
1B3
  8
0
  6
BYBLOCK
 62
     9
 10
8447.373967
 20
48830.000007
 30
0.0
 11
8447.373967
 21
48808.013783
 31
0.0
  0
LINE
  5
1B4
  8
0
  6
BYBLOCK
 62
     9
 10
8447.373967
 20
48700.0
 30
0.0
 11
8447.373967
 21
48721.986224
 31
0.0
  0
SOLID
  5
1B5
  8
0
  6
BYBLOCK
 62
     9
 10
8444.040633
 20
48830.000007
 30
0.0
 11
8450.7073
 21
48830.000007
 31
0.0
 12
8447.373967
 22
48850.000007
 32
0.0
 13
8447.373967
 23
48850.000007
 33
0.0
  0
SOLID
  5
1B6
  8
0
  6
BYBLOCK
 62
     9
 10
8444.040633
 20
48700.0
 30
0.0
 11
8450.7073
 21
48700.0
 31
0.0
 12
8447.373967
 22
48680.0
 32
0.0
 13
8447.373967
 23
48680.0
 33
0.0
  0
TEXT
  5
1B7
  8
0
  6
BYBLOCK
 62
    11
 10
8464.873967
 20
48731.736224
 30
0.0
 40
35.0
  1
170
 50
90.0
  0
POINT
  5
1B8
  8
DEFPOINTS
  6
BYBLOCK
 62
     0
 10
8000.0
 20
48850.000007
 30
0.0
  0
POINT
  5
1B9
  8
DEFPOINTS
  6
BYBLOCK
 62
     0
 10
8070.0
 20
48680.0
 30
0.0
  0
POINT
  5
1BA
  8
DEFPOINTS
  6
BYBLOCK
 62
     0
 10
8447.373967
 20
48680.0
 30
0.0
  0
ENDBLK
  5
1BC
  8
0
  0
BLOCK
  8
0
  2
*D3
 70
     1
 10
0.0
 20
0.0
 30
0.0
  3
*D3
  1

  0
LINE
  5
1A3
  8
0
  6
BYBLOCK
 62
     9
 10
8010.0
 20
48850.000007
 30
0.0
 11
8398.101881
 21
48850.000007
 31
0.0
  0
LINE
  5
1A4
  8
0
  6
BYBLOCK
 62
     9
 10
8037.938347
 20
48735.529563
 30
0.0
 11
8398.101881
 21
48735.529563
 31
0.0
  0
LINE
  5
1A5
  8
0
  6
BYBLOCK
 62
     9
 10
8397.101881
 20
48870.000007
 30
0.0
 11
8397.101881
 21
48890.000007
 31
0.0
  0
LINE
  5
1A6
  8
0
  6
BYBLOCK
 62
     9
 10
8397.101881
 20
48715.529563
 30
0.0
 11
8397.101881
 21
48695.529563
 31
0.0
  0
SOLID
  5
1A7
  8
0
  6
BYBLOCK
 62
     9
 10
8393.768548
 20
48870.000007
 30
0.0
 11
8400.435214
 21
48870.000007
 31
0.0
 12
8397.101881
 22
48850.000007
 32
0.0
 13
8397.101881
 23
48850.000007
 33
0.0
  0
SOLID
  5
1A8
  8
0
  6
BYBLOCK
 62
     9
 10
8393.768548
 20
48715.529563
 30
0.0
 11
8400.435214
 21
48715.529563
 31
0.0
 12
8397.101881
 22
48735.529563
 32
0.0
 13
8397.101881
 23
48735.529563
 33
0.0
  0
TEXT
  5
1A9
  8
0
  6
BYBLOCK
 62
    11
 10
8414.601881
 20
48762.289911
 30
0.0
 40
35.0
  1
115
 50
90.0
  0
POINT
  5
1AA
  8
DEFPOINTS
  6
BYBLOCK
 62
     0
 10
8000.0
 20
48850.000007
 30
0.0
  0
POINT
  5
1AB
  8
DEFPOINTS
  6
BYBLOCK
 62
     0
 10
8027.938347
 20
48735.529563
 30
0.0
  0
POINT
  5
1AC
  8
DEFPOINTS
  6
BYBLOCK
 62
     0
 10
8397.101881
 20
48735.529563
 30
0.0
  0
ENDBLK
  5
1AE
  8
0
  0
BLOCK
  8
0
  2
*D4
 70
     1
 10
0.0
 20
0.0
 30
0.0
  3
*D4
  1

  0
LINE
  5
195
  8
0
  6
BYBLOCK
 62
     9
 10
8010.0
 20
48850.000007
 30
0.0
 11
8498.819267
 21
48850.000007
 31
0.0
  0
LINE
  5
196
  8
0
  6
BYBLOCK
 62
     9
 10
8030.0
 20
48630.0
 30
0.0
 11
8498.819267
 21
48630.0
 31
0.0
  0
LINE
  5
197
  8
0
  6
BYBLOCK
 62
     9
 10
8497.819267
 20
48830.000007
 30
0.0
 11
8497.819267
 21
48786.958173
 31
0.0
  0
LINE
  5
198
  8
0
  6
BYBLOCK
 62
     9
 10
8497.819267
 20
48650.0
 30
0.0
 11
8497.819267
 21
48693.041834
 31
0.0
  0
SOLID
  5
199
  8
0
  6
BYBLOCK
 62
     9
 10
8494.485933
 20
48830.000007
 30
0.0
 11
8501.1526
 21
48830.000007
 31
0.0
 12
8497.819267
 22
48850.000007
 32
0.0
 13
8497.819267
 23
48850.000007
 33
0.0
  0
SOLID
  5
19A
  8
0
  6
BYBLOCK
 62
     9
 10
8494.485933
 20
48650.0
 30
0.0
 11
8501.1526
 21
48650.0
 31
0.0
 12
8497.819267
 22
48630.0
 32
0.0
 13
8497.819267
 23
48630.0
 33
0.0
  0
TEXT
  5
19B
  8
0
  6
BYBLOCK
 62
    11
 10
8515.319267
 20
48703.680614
 30
0.0
 40
35.0
  1
220
 50
90.0
  0
POINT
  5
19C
  8
DEFPOINTS
  6
BYBLOCK
 62
     0
 10
8000.0
 20
48850.000007
 30
0.0
  0
POINT
  5
19D
  8
DEFPOINTS
  6
BYBLOCK
 62
     0
 10
8020.0
 20
48630.0
 30
0.0
  0
POINT
  5
19E
  8
DEFPOINTS
  6
BYBLOCK
 62
     0
 10
8497.819267
 20
48630.0
 30
0.0
  0
ENDBLK
  5
1A0
  8
0
  0
BLOCK
  8
0
  2
*D5
 70
     1
 10
0.0
 20
0.0
 30
0.0
  3
*D5
  1

  0
LINE
  5
187
  8
0
  6
BYBLOCK
 62
     9
 10
8010.0
 20
48850.000007
 30
0.0
 11
8548.09111
 21
48850.000007
 31
0.0
  0
LINE
  5
188
  8
0
  6
BYBLOCK
 62
     9
 10
8010.0
 20
48000.0
 30
0.0
 11
8548.09111
 21
48000.0
 31
0.0
  0
LINE
  5
189
  8
0
  6
BYBLOCK
 62
     9
 10
8547.09111
 20
48830.000007
 30
0.0
 11
8547.09111
 21
48471.513783
 31
0.0
  0
LINE
  5
18A
  8
0
  6
BYBLOCK
 62
     9
 10
8547.09111
 20
48020.0
 30
0.0
 11
8547.09111
 21
48378.486224
 31
0.0
  0
SOLID
  5
18B
  8
0
  6
BYBLOCK
 62
     9
 10
8543.757777
 20
48830.000007
 30
0.0
 11
8550.424444
 21
48830.000007
 31
0.0
 12
8547.09111
 22
48850.000007
 32
0.0
 13
8547.09111
 23
48850.000007
 33
0.0
  0
SOLID
  5
18C
  8
0
  6
BYBLOCK
 62
     9
 10
8543.757777
 20
48020.0
 30
0.0
 11
8550.424444
 21
48020.0
 31
0.0
 12
8547.09111
 22
48000.0
 32
0.0
 13
8547.09111
 23
48000.0
 33
0.0
  0
TEXT
  5
18D
  8
0
  6
BYBLOCK
 62
    11
 10
8564.59111
 20
48388.236224
 30
0.0
 40
35.0
  1
850
 50
90.0
  0
POINT
  5
18E
  8
DEFPOINTS
  6
BYBLOCK
 62
     0
 10
8000.0
 20
48850.000007
 30
0.0
  0
POINT
  5
18F
  8
DEFPOINTS
  6
BYBLOCK
 62
     0
 10
8000.0
 20
48000.0
 30
0.0
  0
POINT
  5
190
  8
DEFPOINTS
  6
BYBLOCK
 62
     0
 10
8547.09111
 20
48000.0
 30
0.0
  0
ENDBLK
  5
192
  8
0
  0
BLOCK
  8
0
  2
*D6
 70
     1
 10
0.0
 20
0.0
 30
0.0
  3
*D6
  1

  0
LINE
  5
179
  8
0
  6
BYBLOCK
 62
     9
 10
8080.0
 20
48680.0
 30
0.0
 11
8448.373967
 21
48680.0
 31
0.0
  0
LINE
  5
17A
  8
0
  6
BYBLOCK
 62
     9
 10
8010.0
 20
48000.0
 30
0.0
 11
8448.373967
 21
48000.0
 31
0.0
  0
LINE
  5
17B
  8
0
  6
BYBLOCK
 62
     9
 10
8447.373967
 20
48660.0
 30
0.0
 11
8447.373967
 21
48387.561024
 31
0.0
  0
LINE
  5
17C
  8
0
  6
BYBLOCK
 62
     9
 10
8447.373967
 20
48020.0
 30
0.0
 11
8447.373967
 21
48292.438976
 31
0.0
  0
SOLID
  5
17D
  8
0
  6
BYBLOCK
 62
     9
 10
8444.040633
 20
48660.0
 30
0.0
 11
8450.7073
 21
48660.0
 31
0.0
 12
8447.373967
 22
48680.0
 32
0.0
 13
8447.373967
 23
48680.0
 33
0.0
  0
SOLID
  5
17E
  8
0
  6
BYBLOCK
 62
     9
 10
8444.040633
 20
48020.0
 30
0.0
 11
8450.7073
 21
48020.0
 31
0.0
 12
8447.373967
 22
48000.0
 32
0.0
 13
8447.373967
 23
48000.0
 33
0.0
  0
TEXT
  5
17F
  8
0
  6
BYBLOCK
 62
    11
 10
8464.873967
 20
48304.283465
 30
0.0
 40
35.0
  1
680
 50
90.0
  0
POINT
  5
180
  8
DEFPOINTS
  6
BYBLOCK
 62
     0
 10
8070.0
 20
48680.0
 30
0.0
  0
POINT
  5
181
  8
DEFPOINTS
  6
BYBLOCK
 62
     0
 10
8000.0
 20
48000.0
 30
0.0
  0
POINT
  5
182
  8
DEFPOINTS
  6
BYBLOCK
 62
     0
 10
8447.373967
 20
48000.0
 30
0.0
  0
ENDBLK
  5
184
  8
0
  0
BLOCK
  8
0
  2
*D7
 70
     1
 10
0.0
 20
0.0
 30
0.0
  3
*D7
  1

  0
LINE
  5
16A
  8
0
  6
BYBLOCK
 62
     9
 10
8030.0
 20
48630.0
 30
0.0
 11
8498.819267
 21
48630.0
 31
0.0
  0
LINE
  5
16B
  8
0
  6
BYBLOCK
 62
     9
 10
8010.0
 20
48000.0
 30
0.0
 11
8498.819267
 21
48000.0
 31
0.0
  0
LINE
  5
16C
  8
0
  6
BYBLOCK
 62
     9
 10
8497.819267
 20
48610.0
 30
0.0
 11
8497.819267
 21
48362.561024
 31
0.0
  0
LINE
  5
16D
  8
0
  6
BYBLOCK
 62
     9
 10
8497.819267
 20
48020.0
 30
0.0
 11
8497.819267
 21
48267.438976
 31
0.0
  0
SOLID
  5
16E
  8
0
  6
BYBLOCK
 62
     9
 10
8494.485933
 20
48610.0
 30
0.0
 11
8501.1526
 21
48610.0
 31
0.0
 12
8497.819267
 22
48630.0
 32
0.0
 13
8497.819267
 23
48630.0
 33
0.0
  0
SOLID
  5
16F
  8
0
  6
BYBLOCK
 62
     9
 10
8494.485933
 20
48020.0
 30
0.0
 11
8501.1526
 21
48020.0
 31
0.0
 12
8497.819267
 22
48000.0
 32
0.0
 13
8497.819267
 23
48000.0
 33
0.0
  0
TEXT
  5
170
  8
0
  6
BYBLOCK
 62
    11
 10
8515.319267
 20
48279.283465
 30
0.0
 40
35.0
  1
630
 50
90.0
  0
POINT
  5
171
  8
DEFPOINTS
  6
BYBLOCK
 62
     0
 10
8020.0
 20
48630.0
 30
0.0
  0
POINT
  5
173
  8
DEFPOINTS
  6
BYBLOCK
 62
     0
 10
8000.0
 20
48000.0
 30
0.0
  0
POINT
  5
174
  8
DEFPOINTS
  6
BYBLOCK
 62
     0
 10
8497.819267
 20
48000.0
 30
0.0
  0
ENDBLK
  5
176
  8
0
  0
ENDSEC
  0
SECTION
  2
ENTITIES
  0
POLYLINE
  5
20
  8
TEAM-BODY
 66
     1
 10
0.0
 20
0.0
 30
0.0
 70
    12
 75
     6
  0
VERTEX
  5
21
  8
TEAM-BODY
 10
-1.110687
 20
850.000007
 30
0.0
 70
    48
  0
VERTEX
  5
22
  8
TEAM-BODY
 10
-1.110687
 20
850.000007
 30
0.0
 70
    40
  0
VERTEX
  5
23
  8
TEAM-BODY
 10
4.970822
 20
850.000007
 30
0.0
 70
    40
  0
VERTEX
  5
24
  8
TEAM-BODY
 10
21.593612
 20
850.000007
 30
0.0
 70
    40
  0
VERTEX
  5
25
  8
TEAM-BODY
 10
46.32508
 20
850.000007
 30
0.0
 70
    40
  0
VERTEX
  5
26
  8
TEAM-BODY
 10
76.732623
 20
850.000007
 30
0.0
 70
    40
  0
VERTEX
  5
27
  8
TEAM-BODY
 10
110.383637
 20
850.000007
 30
0.0
 70
    40
  0
VERTEX
  5
28
  8
TEAM-BODY
 10
144.84552
 20
850.000007
 30
0.0
 70
    40
  0
VERTEX
  5
29
  8
TEAM-BODY
 10
177.685666
 20
850.000007
 30
0.0
 70
    40
  0
VERTEX
  5
2A
  8
TEAM-BODY
 10
206.471473
 20
850.000007
 30
0.0
 70
    40
  0
VERTEX
  5
2B
  8
TEAM-BODY
 10
229.311114
 20
849.999897
 30
0.0
 70
    40
  0
VERTEX
  5
2C
  8
TEAM-BODY
 10
246.475865
 20
849.999124
 30
0.0
 70
    40
  0
VERTEX
  5
2D
  8
TEAM-BODY
 10
258.777777
 20
849.997027
 30
0.0
 70
    40
  0
VERTEX
  5
2E
  8
TEAM-BODY
 10
267.028902
 20
849.992944
 30
0.0
 70
    40
  0
VERTEX
  5
2F
  8
TEAM-BODY
 10
272.041293
 20
849.986212
 30
0.0
 70
    40
  0
VERTEX
  5
30
  8
TEAM-BODY
 10
274.627002
 20
849.97617
 30
0.0
 70
    40
  0
VERTEX
  5
31
  8
TEAM-BODY
 10
275.598081
 20
849.962154
 30
0.0
 70
    40
  0
VERTEX
  5
32
  8
TEAM-BODY
 10
275.766581
 20
849.943504
 30
0.0
 70
    40
  0
VERTEX
  5
33
  8
TEAM-BODY
 10
275.808886
 20
849.919681
 30
0.0
 70
    40
  0
VERTEX
  5
34
  8
TEAM-BODY
 10
275.858706
 20
849.890647
 30
0.0
 70
    40
  0
VERTEX
  5
35
  8
TEAM-BODY
 10
275.914082
 20
849.856488
 30
0.0
 70
    40
  0
VERTEX
  5
36
  8
TEAM-BODY
 10
275.973053
 20
849.817291
 30
0.0
 70
    40
  0
VERTEX
  5
37
  8
TEAM-BODY
 10
276.03366
 20
849.773142
 30
0.0
 70
    40
  0
VERTEX
  5
38
  8
TEAM-BODY
 10
276.093945
 20
849.724127
 30
0.0
 70
    40
  0
VERTEX
  5
39
  8
TEAM-BODY
 10
276.151947
 20
849.670332
 30
0.0
 70
    40
  0
VERTEX
  5
3A
  8
TEAM-BODY
 10
276.205708
 20
849.611844
 30
0.0
 70
    40
  0
VERTEX
  5
3B
  8
TEAM-BODY
 10
276.253656
 20
849.549036
 30
0.0
 70
    40
  0
VERTEX
  5
3C
  8
TEAM-BODY
 10
276.295769
 20
849.483435
 30
0.0
 70
    40
  0
VERTEX
  5
3D
  8
TEAM-BODY
 10
276.332413
 20
849.416855
 30
0.0
 70
    40
  0
VERTEX
  5
3E
  8
TEAM-BODY
 10
276.363955
 20
849.35111
 30
0.0
 70
    40
  0
VERTEX
  5
3F
  8
TEAM-BODY
 10
276.390759
 20
849.288013
 30
0.0
 70
    40
  0
VERTEX
  5
40
  8
TEAM-BODY
 10
276.413193
 20
849.229378
 30
0.0
 70
    40
  0
VERTEX
  5
41
  8
TEAM-BODY
 10
276.431621
 20
849.17702
 30
0.0
 70
    40
  0
VERTEX
  5
42
  8
TEAM-BODY
 10
276.446411
 20
849.132753
 30
0.0
 70
    40
  0
VERTEX
  5
43
  8
TEAM-BODY
 10
276.457935
 20
849.097881
 30
0.0
 70
    40
  0
VERTEX
  5
44
  8
TEAM-BODY
 10
276.466594
 20
849.071676
 30
0.0
 70
    40
  0
VERTEX
  5
45
  8
TEAM-BODY
 10
276.4728
 20
849.052899
 30
0.0
 70
    40
  0
VERTEX
  5
46
  8
TEAM-BODY
 10
276.476959
 20
849.040312
 30
0.0
 70
    40
  0
VERTEX
  5
47
  8
TEAM-BODY
 10
276.479482
 20
849.032677
 30
0.0
 70
    40
  0
VERTEX
  5
48
  8
TEAM-BODY
 10
276.480777
 20
849.028757
 30
0.0
 70
    40
  0
VERTEX
  5
49
  8
TEAM-BODY
 10
276.481255
 20
849.027313
 30
0.0
 70
    40
  0
VERTEX
  5
4A
  8
TEAM-BODY
 10
276.481323
 20
849.027106
 30
0.0
 70
    40
  0
VERTEX
  5
4B
  8
TEAM-BODY
 10
276.481323
 20
849.016967
 30
0.0
 70
    40
  0
VERTEX
  5
4C
  8
TEAM-BODY
 10
276.481323
 20
848.945993
 30
0.0
 70
    40
  0
VERTEX
  5
4D
  8
TEAM-BODY
 10
276.481323
 20
848.75335
 30
0.0
 70
    40
  0
VERTEX
  5
4E
  8
TEAM-BODY
 10
276.481323
 20
848.378203
 30
0.0
 70
    40
  0
VERTEX
  5
4F
  8
TEAM-BODY
 10
276.481323
 20
847.759716
 30
0.0
 70
    40
  0
VERTEX
  5
50
  8
TEAM-BODY
 10
276.481323
 20
846.837057
 30
0.0
 70
    40
  0
VERTEX
  5
51
  8
TEAM-BODY
 10
276.481323
 20
845.549389
 30
0.0
 70
    40
  0
VERTEX
  5
52
  8
TEAM-BODY
 10
276.481323
 20
843.835878
 30
0.0
 70
    40
  0
VERTEX
  5
53
  8
TEAM-BODY
 10
276.481323
 20
841.666107
 30
0.0
 70
    40
  0
VERTEX
  5
54
  8
TEAM-BODY
 10
276.481323
 20
839.131327
 30
0.0
 70
    40
  0
VERTEX
  5
55
  8
TEAM-BODY
 10
276.481323
 20
836.353209
 30
0.0
 70
    40
  0
VERTEX
  5
56
  8
TEAM-BODY
 10
276.481323
 20
833.453422
 30
0.0
 70
    40
  0
VERTEX
  5
57
  8
TEAM-BODY
 10
276.481323
 20
830.553634
 30
0.0
 70
    40
  0
VERTEX
  5
58
  8
TEAM-BODY
 10
276.481323
 20
827.775516
 30
0.0
 70
    40
  0
VERTEX
  5
59
  8
TEAM-BODY
 10
276.481323
 20
825.240736
 30
0.0
 70
    40
  0
VERTEX
  5
5A
  8
TEAM-BODY
 10
276.481323
 20
823.070965
 30
0.0
 70
    40
  0
VERTEX
  5
5B
  8
TEAM-BODY
 10
276.481307
 20
821.357112
 30
0.0
 70
    40
  0
VERTEX
  5
5C
  8
TEAM-BODY
 10
276.481194
 20
820.067045
 30
0.0
 70
    40
  0
VERTEX
  5
5D
  8
TEAM-BODY
 10
276.480887
 20
819.137874
 30
0.0
 70
    40
  0
VERTEX
  5
5E
  8
TEAM-BODY
 10
276.480289
 20
818.506707
 30
0.0
 70
    40
  0
VERTEX
  5
5F
  8
TEAM-BODY
 10
276.479304
 20
818.110655
 30
0.0
 70
    40
  0
VERTEX
  5
60
  8
TEAM-BODY
 10
276.477834
 20
817.886825
 30
0.0
 70
    40
  0
VERTEX
  5
61
  8
TEAM-BODY
 10
276.475783
 20
817.772328
 30
0.0
 70
    40
  0
VERTEX
  5
62
  8
TEAM-BODY
 10
276.473053
 20
817.704271
 30
0.0
 70
    40
  0
VERTEX
  5
63
  8
TEAM-BODY
 10
276.469708
 20
817.630428
 30
0.0
 70
    40
  0
VERTEX
  5
64
  8
TEAM-BODY
 10
276.466455
 20
817.541221
 30
0.0
 70
    40
  0
VERTEX
  5
65
  8
TEAM-BODY
 10
276.464159
 20
817.43774
 30
0.0
 70
    40
  0
VERTEX
  5
66
  8
TEAM-BODY
 10
276.463689
 20
817.32107
 30
0.0
 70
    40
  0
VERTEX
  5
67
  8
TEAM-BODY
 10
276.465909
 20
817.192299
 30
0.0
 70
    40
  0
VERTEX
  5
68
  8
TEAM-BODY
 10
276.471688
 20
817.052515
 30
0.0
 70
    40
  0
VERTEX
  5
69
  8
TEAM-BODY
 10
276.481891
 20
816.902804
 30
0.0
 70
    40
  0
VERTEX
  5
6A
  8
TEAM-BODY
 10
276.497385
 20
816.744254
 30
0.0
 70
    40
  0
VERTEX
  5
6B
  8
TEAM-BODY
 10
276.518307
 20
816.578437
 30
0.0
 70
    40
  0
VERTEX
  5
6C
  8
TEAM-BODY
 10
276.541872
 20
816.408861
 30
0.0
 70
    40
  0
VERTEX
  5
6D
  8
TEAM-BODY
 10
276.564565
 20
816.239523
 30
0.0
 70
    40
  0
VERTEX
  5
6E
  8
TEAM-BODY
 10
276.582871
 20
816.074415
 30
0.0
 70
    40
  0
VERTEX
  5
6F
  8
TEAM-BODY
 10
276.593276
 20
815.917532
 30
0.0
 70
    40
  0
VERTEX
  5
70
  8
TEAM-BODY
 10
276.592264
 20
815.772868
 30
0.0
 70
    40
  0
VERTEX
  5
71
  8
TEAM-BODY
 10
276.576321
 20
815.644418
 30
0.0
 70
    40
  0
VERTEX
  5
72
  8
TEAM-BODY
 10
276.541931
 20
815.536175
 30
0.0
 70
    40
  0
VERTEX
  5
73
  8
TEAM-BODY
 10
276.485948
 20
815.450965
 30
0.0
 70
    40
  0
VERTEX
  5
74
  8
TEAM-BODY
 10
276.406695
 20
815.386931
 30
0.0
 70
    40
  0
VERTEX
  5
75
  8
TEAM-BODY
 10
276.302865
 20
815.341048
 30
0.0
 70
    40
  0
VERTEX
  5
76
  8
TEAM-BODY
 10
276.173148
 20
815.310291
 30
0.0
 70
    40
  0
VERTEX
  5
77
  8
TEAM-BODY
 10
276.016237
 20
815.291636
 30
0.0
 70
    40
  0
VERTEX
  5
78
  8
TEAM-BODY
 10
275.830822
 20
815.282056
 30
0.0
 70
    40
  0
VERTEX
  5
79
  8
TEAM-BODY
 10
275.615597
 20
815.278526
 30
0.0
 70
    40
  0
VERTEX
  5
7A
  8
TEAM-BODY
 10
275.369253
 20
815.278022
 30
0.0
 70
    40
  0
VERTEX
  5
7B
  8
TEAM-BODY
 10
275.091282
 20
815.278028
 30
0.0
 70
    40
  0
VERTEX
  5
7C
  8
TEAM-BODY
 10
274.784388
 20
815.278072
 30
0.0
 70
    40
  0
VERTEX
  5
7D
  8
TEAM-BODY
 10
274.452076
 20
815.278192
 30
0.0
 70
    40
  0
VERTEX
  5
7E
  8
TEAM-BODY
 10
274.097848
 20
815.278424
 30
0.0
 70
    40
  0
VERTEX
  5
7F
  8
TEAM-BODY
 10
273.725211
 20
815.278807
 30
0.0
 70
    40
  0
VERTEX
  5
80
  8
TEAM-BODY
 10
273.337667
 20
815.279378
 30
0.0
 70
    40
  0
VERTEX
  5
81
  8
TEAM-BODY
 10
272.938722
 20
815.280176
 30
0.0
 70
    40
  0
VERTEX
  5
82
  8
TEAM-BODY
 10
272.53188
 20
815.281237
 30
0.0
 70
    40
  0
VERTEX
  5
83
  8
TEAM-BODY
 10
272.120147
 20
815.28258
 30
0.0
 70
    40
  0
VERTEX
  5
84
  8
TEAM-BODY
 10
271.704533
 20
815.28415
 30
0.0
 70
    40
  0
VERTEX
  5
85
  8
TEAM-BODY
 10
271.285549
 20
815.28587
 30
0.0
 70
    40
  0
VERTEX
  5
86
  8
TEAM-BODY
 10
270.863706
 20
815.287666
 30
0.0
 70
    40
  0
VERTEX
  5
87
  8
TEAM-BODY
 10
270.439516
 20
815.289461
 30
0.0
 70
    40
  0
VERTEX
  5
88
  8
TEAM-BODY
 10
270.013491
 20
815.291182
 30
0.0
 70
    40
  0
VERTEX
  5
89
  8
TEAM-BODY
 10
269.586142
 20
815.292751
 30
0.0
 70
    40
  0
VERTEX
  5
8A
  8
TEAM-BODY
 10
269.157979
 20
815.294095
 30
0.0
 70
    40
  0
VERTEX
  5
8B
  8
TEAM-BODY
 10
268.730556
 20
815.295156
 30
0.0
 70
    40
  0
VERTEX
  5
8C
  8
TEAM-BODY
 10
268.309581
 20
815.295953
 30
0.0
 70
    40
  0
VERTEX
  5
8D
  8
TEAM-BODY
 10
267.901805
 20
815.296524
 30
0.0
 70
    40
  0
VERTEX
  5
8E
  8
TEAM-BODY
 10
267.513978
 20
815.296907
 30
0.0
 70
    40
  0
VERTEX
  5
8F
  8
TEAM-BODY
 10
267.152851
 20
815.29714
 30
0.0
 70
    40
  0
VERTEX
  5
90
  8
TEAM-BODY
 10
266.825174
 20
815.297259
 30
0.0
 70
    40
  0
VERTEX
  5
91
  8
TEAM-BODY
 10
266.537697
 20
815.297303
 30
0.0
 70
    40
  0
VERTEX
  5
92
  8
TEAM-BODY
 10
266.29717
 20
815.297309
 30
0.0
 70
    40
  0
VERTEX
  5
93
  8
TEAM-BODY
 10
266.098791
 20
815.287493
 30
0.0
 70
    40
  0
VERTEX
  5
94
  8
TEAM-BODY
 10
265.891553
 20
815.218778
 30
0.0
 70
    40
  0
VERTEX
  5
95
  8
TEAM-BODY
 10
265.612893
 20
815.032266
 30
0.0
 70
    40
  0
VERTEX
  5
96
  8
TEAM-BODY
 10
265.200251
 20
814.669058
 30
0.0
 70
    40
  0
VERTEX
  5
97
  8
TEAM-BODY
 10
264.591066
 20
814.070256
 30
0.0
 70
    40
  0
VERTEX
  5
98
  8
TEAM-BODY
 10
263.722778
 20
813.176961
 30
0.0
 70
    40
  0
VERTEX
  5
99
  8
TEAM-BODY
 10
262.532826
 20
811.930274
 30
0.0
 70
    40
  0
VERTEX
  5
9A
  8
TEAM-BODY
 10
260.958649
 20
810.271298
 30
0.0
 70
    40
  0
VERTEX
  5
9B
  8
TEAM-BODY
 10
258.966728
 20
808.170582
 30
0.0
 70
    40
  0
VERTEX
  5
9C
  8
TEAM-BODY
 10
256.639718
 20
805.716475
 30
0.0
 70
    40
  0
VERTEX
  5
9D
  8
TEAM-BODY
 10
254.089315
 20
803.026774
 30
0.0
 70
    40
  0
VERTEX
  5
9E
  8
TEAM-BODY
 10
251.427215
 20
800.219276
 30
0.0
 70
    40
  0
VERTEX
  5
9F
  8
TEAM-BODY
 10
248.765116
 20
797.411777
 30
0.0
 70
    40
  0
VERTEX
  5
A0
  8
TEAM-BODY
 10
246.214713
 20
794.722076
 30
0.0
 70
    40
  0
VERTEX
  5
A1
  8
TEAM-BODY
 10
243.887703
 20
792.267969
 30
0.0
 70
    40
  0
VERTEX
  5
A2
  8
TEAM-BODY
 10
241.895782
 20
790.167253
 30
0.0
 70
    40
  0
VERTEX
  5
A3
  8
TEAM-BODY
 10
240.320806
 20
788.506312
 30
0.0
 70
    40
  0
VERTEX
  5
A4
  8
TEAM-BODY
 10
239.125258
 20
787.245872
 30
0.0
 70
    40
  0
VERTEX
  5
A5
  8
TEAM-BODY
 10
238.241781
 20
786.315247
 30
0.0
 70
    40
  0
VERTEX
  5
A6
  8
TEAM-BODY
 10
237.60302
 20
785.643748
 30
0.0
 70
    40
  0
VERTEX
  5
A7
  8
TEAM-BODY
 10
237.141616
 20
785.160689
 30
0.0
 70
    40
  0
VERTEX
  5
A8
  8
TEAM-BODY
 10
236.790213
 20
784.795382
 30
0.0
 70
    40
  0
VERTEX
  5
A9
  8
TEAM-BODY
 10
236.481453
 20
784.47714
 30
0.0
 70
    40
  0
VERTEX
  5
AA
  8
TEAM-BODY
 10
236.14798
 20
784.135276
 30
0.0
 70
    40
  0
VERTEX
  5
AB
  8
TEAM-BODY
 10
235.736135
 20
783.714659
 30
0.0
 70
    40
  0
VERTEX
  5
AC
  8
TEAM-BODY
 10
235.247055
 20
783.222385
 30
0.0
 70
    40
  0
VERTEX
  5
AD
  8
TEAM-BODY
 10
234.695575
 20
782.681104
 30
0.0
 70
    40
  0
VERTEX
  5
AE
  8
TEAM-BODY
 10
234.096532
 20
782.113467
 30
0.0
 70
    40
  0
VERTEX
  5
AF
  8
TEAM-BODY
 10
233.464761
 20
781.542128
 30
0.0
 70
    40
  0
VERTEX
  5
B0
  8
TEAM-BODY
 10
232.815097
 20
780.989736
 30
0.0
 70
    40
  0
VERTEX
  5
B1
  8
TEAM-BODY
 10
232.162376
 20
780.478943
 30
0.0
 70
    40
  0
VERTEX
  5
B2
  8
TEAM-BODY
 10
231.521434
 20
780.032401
 30
0.0
 70
    40
  0
VERTEX
  5
B3
  8
TEAM-BODY
 10
230.903074
 20
779.667197
 30
0.0
 70
    40
  0
VERTEX
  5
B4
  8
TEAM-BODY
 10
230.301972
 20
779.378162
 30
0.0
 70
    40
  0
VERTEX
  5
B5
  8
TEAM-BODY
 10
229.708773
 20
779.154562
 30
0.0
 70
    40
  0
VERTEX
  5
B6
  8
TEAM-BODY
 10
229.114121
 20
778.985663
 30
0.0
 70
    40
  0
VERTEX
  5
B7
  8
TEAM-BODY
 10
228.508659
 20
778.860732
 30
0.0
 70
    40
  0
VERTEX
  5
B8
  8
TEAM-BODY
 10
227.883034
 20
778.769036
 30
0.0
 70
    40
  0
VERTEX
  5
B9
  8
TEAM-BODY
 10
227.227887
 20
778.69984
 30
0.0
 70
    40
  0
VERTEX
  5
BA
  8
TEAM-BODY
 10
226.533864
 20
778.642412
 30
0.0
 70
    40
  0
VERTEX
  5
BB
  8
TEAM-BODY
 10
225.771707
 20
778.586535
 30
0.0
 70
    40
  0
VERTEX
  5
BC
  8
TEAM-BODY
 10
224.832547
 20
778.524058
 30
0.0
 70
    40
  0
VERTEX
  5
BD
  8
TEAM-BODY
 10
223.587612
 20
778.447348
 30
0.0
 70
    40
  0
VERTEX
  5
BE
  8
TEAM-BODY
 10
221.908133
 20
778.348774
 30
0.0
 70
    40
  0
VERTEX
  5
BF
  8
TEAM-BODY
 10
219.665337
 20
778.220701
 30
0.0
 70
    40
  0
VERTEX
  5
C0
  8
TEAM-BODY
 10
216.730454
 20
778.055497
 30
0.0
 70
    40
  0
VERTEX
  5
C1
  8
TEAM-BODY
 10
212.974713
 20
777.845528
 30
0.0
 70
    40
  0
VERTEX
  5
C2
  8
TEAM-BODY
 10
208.269343
 20
777.583162
 30
0.0
 70
    40
  0
VERTEX
  5
C3
  8
TEAM-BODY
 10
202.545532
 20
777.264243
 30
0.0
 70
    40
  0
VERTEX
  5
C4
  8
TEAM-BODY
 10
195.974303
 20
776.898525
 30
0.0
 70
    40
  0
VERTEX
  5
C5
  8
TEAM-BODY
 10
188.78664
 20
776.499238
 30
0.0
 70
    40
  0
VERTEX
  5
C6
  8
TEAM-BODY
 10
181.213524
 20
776.079615
 30
0.0
 70
    40
  0
VERTEX
  5
C7
  8
TEAM-BODY
 10
173.485939
 20
775.652886
 30
0.0
 70
    40
  0
VERTEX
  5
C8
  8
TEAM-BODY
 10
165.834867
 20
775.232283
 30
0.0
 70
    40
  0
VERTEX
  5
C9
  8
TEAM-BODY
 10
158.49129
 20
774.831037
 30
0.0
 70
    40
  0
VERTEX
  5
CA
  8
TEAM-BODY
 10
151.686193
 20
774.462378
 30
0.0
 70
    40
  0
VERTEX
  5
CB
  8
TEAM-BODY
 10
145.583429
 20
774.135645
 30
0.0
 70
    40
  0
VERTEX
  5
CC
  8
TEAM-BODY
 10
140.078345
 20
773.844595
 30
0.0
 70
    40
  0
VERTEX
  5
CD
  8
TEAM-BODY
 10
134.999161
 20
773.579092
 30
0.0
 70
    40
  0
VERTEX
  5
CE
  8
TEAM-BODY
 10
130.174095
 20
773.329
 30
0.0
 70
    40
  0
VERTEX
  5
CF
  8
TEAM-BODY
 10
125.431367
 20
773.084184
 30
0.0
 70
    40
  0
VERTEX
  5
D0
  8
TEAM-BODY
 10
120.599196
 20
772.834506
 30
0.0
 70
    40
  0
VERTEX
  5
D1
  8
TEAM-BODY
 10
115.505801
 20
772.569833
 30
0.0
 70
    40
  0
VERTEX
  5
D2
  8
TEAM-BODY
 10
109.9794
 20
772.280026
 30
0.0
 70
    40
  0
VERTEX
  5
D3
  8
TEAM-BODY
 10
103.908919
 20
771.958284
 30
0.0
 70
    40
  0
VERTEX
  5
D4
  8
TEAM-BODY
 10
97.426104
 20
771.611141
 30
0.0
 70
    40
  0
VERTEX
  5
D5
  8
TEAM-BODY
 10
90.723406
 20
771.248462
 30
0.0
 70
    40
  0
VERTEX
  5
D6
  8
TEAM-BODY
 10
83.993276
 20
770.880115
 30
0.0
 70
    40
  0
VERTEX
  5
D7
  8
TEAM-BODY
 10
77.428167
 20
770.515966
 30
0.0
 70
    40
  0
VERTEX
  5
D8
  8
TEAM-BODY
 10
71.22053
 20
770.165883
 30
0.0
 70
    40
  0
VERTEX
  5
D9
  8
TEAM-BODY
 10
65.562816
 20
769.839732
 30
0.0
 70
    40
  0
VERTEX
  5
DA
  8
TEAM-BODY
 10
60.647476
 20
769.54738
 30
0.0
 70
    40
  0
VERTEX
  5
DB
  8
TEAM-BODY
 10
56.616193
 20
769.295102
 30
0.0
 70
    40
  0
VERTEX
  5
DC
  8
TEAM-BODY
 10
53.407566
 20
769.074804
 30
0.0
 70
    40
  0
VERTEX
  5
DD
  8
TEAM-BODY
 10
50.909425
 20
768.874799
 30
0.0
 70
    40
  0
VERTEX
  5
DE
  8
TEAM-BODY
 10
49.0096
 20
768.683401
 30
0.0
 70
    40
  0
VERTEX
  5
DF
  8
TEAM-BODY
 10
47.595921
 20
768.488923
 30
0.0
 70
    40
  0
VERTEX
  5
E0
  8
TEAM-BODY
 10
46.556218
 20
768.279681
 30
0.0
 70
    40
  0
VERTEX
  5
E1
  8
TEAM-BODY
 10
45.778321
 20
768.043986
 30
0.0
 70
    40
  0
VERTEX
  5
E2
  8
TEAM-BODY
 10
45.15006
 20
767.770154
 30
0.0
 70
    40
  0
VERTEX
  5
E3
  8
TEAM-BODY
 10
44.578117
 20
767.449339
 30
0.0
 70
    40
  0
VERTEX
  5
E4
  8
TEAM-BODY
 10
44.044587
 20
767.084067
 30
0.0
 70
    40
  0
VERTEX
  5
E5
  8
TEAM-BODY
 10
43.550417
 20
766.679705
 30
0.0
 70
    40
  0
VERTEX
  5
E6
  8
TEAM-BODY
 10
43.096555
 20
766.241618
 30
0.0
 70
    40
  0
VERTEX
  5
E7
  8
TEAM-BODY
 10
42.683948
 20
765.775174
 30
0.0
 70
    40
  0
VERTEX
  5
E8
  8
TEAM-BODY
 10
42.313543
 20
765.285739
 30
0.0
 70
    40
  0
VERTEX
  5
E9
  8
TEAM-BODY
 10
41.986288
 20
764.778681
 30
0.0
 70
    40
  0
VERTEX
  5
EA
  8
TEAM-BODY
 10
41.70313
 20
764.259366
 30
0.0
 70
    40
  0
VERTEX
  5
EB
  8
TEAM-BODY
 10
41.463879
 20
763.732134
 30
0.0
 70
    40
  0
VERTEX
  5
EC
  8
TEAM-BODY
 10
41.263794
 20
763.19722
 30
0.0
 70
    40
  0
VERTEX
  5
ED
  8
TEAM-BODY
 10
41.096997
 20
762.653834
 30
0.0
 70
    40
  0
VERTEX
  5
EE
  8
TEAM-BODY
 10
40.95761
 20
762.101184
 30
0.0
 70
    40
  0
VERTEX
  5
EF
  8
TEAM-BODY
 10
40.839755
 20
761.538478
 30
0.0
 70
    40
  0
VERTEX
  5
F0
  8
TEAM-BODY
 10
40.737554
 20
760.964926
 30
0.0
 70
    40
  0
VERTEX
  5
F1
  8
TEAM-BODY
 10
40.645128
 20
760.379736
 30
0.0
 70
    40
  0
VERTEX
  5
F2
  8
TEAM-BODY
 10
40.5566
 20
759.782116
 30
0.0
 70
    40
  0
VERTEX
  5
F3
  8
TEAM-BODY
 10
40.467315
 20
759.17211
 30
0.0
 70
    40
  0
VERTEX
  5
F4
  8
TEAM-BODY
 10
40.377519
 20
758.553087
 30
0.0
 70
    40
  0
VERTEX
  5
F5
  8
TEAM-BODY
 10
40.288681
 20
757.929251
 30
0.0
 70
    40
  0
VERTEX
  5
F6
  8
TEAM-BODY
 10
40.202271
 20
757.304808
 30
0.0
 70
    40
  0
VERTEX
  5
F7
  8
TEAM-BODY
 10
40.119759
 20
756.683961
 30
0.0
 70
    40
  0
VERTEX
  5
F8
  8
TEAM-BODY
 10
40.042613
 20
756.070914
 30
0.0
 70
    40
  0
VERTEX
  5
F9
  8
TEAM-BODY
 10
39.972303
 20
755.469871
 30
0.0
 70
    40
  0
VERTEX
  5
FA
  8
TEAM-BODY
 10
39.910298
 20
754.885037
 30
0.0
 70
    40
  0
VERTEX
  5
FB
  8
TEAM-BODY
 10
39.85733
 20
754.316513
 30
0.0
 70
    40
  0
VERTEX
  5
FC
  8
TEAM-BODY
 10
39.811171
 20
753.747989
 30
0.0
 70
    40
  0
VERTEX
  5
FD
  8
TEAM-BODY
 10
39.768855
 20
753.159055
 30
0.0
 70
    40
  0
VERTEX
  5
FE
  8
TEAM-BODY
 10
39.727417
 20
752.529299
 30
0.0
 70
    40
  0
VERTEX
  5
FF
  8
TEAM-BODY
 10
39.68389
 20
751.83831
 30
0.0
 70
    40
  0
VERTEX
  5
100
  8
TEAM-BODY
 10
39.635308
 20
751.065677
 30
0.0
 70
    40
  0
VERTEX
  5
101
  8
TEAM-BODY
 10
39.578706
 20
750.190987
 30
0.0
 70
    40
  0
VERTEX
  5
102
  8
TEAM-BODY
 10
39.511118
 20
749.193829
 30
0.0
 70
    40
  0
VERTEX
  5
103
  8
TEAM-BODY
 10
39.430701
 20
748.064434
 30
0.0
 70
    40
  0
VERTEX
  5
104
  8
TEAM-BODY
 10
39.340105
 20
746.835592
 30
0.0
 70
    40
  0
VERTEX
  5
105
  8
TEAM-BODY
 10
39.243103
 20
745.550739
 30
0.0
 70
    40
  0
VERTEX
  5
106
  8
TEAM-BODY
 10
39.143469
 20
744.253307
 30
0.0
 70
    40
  0
VERTEX
  5
107
  8
TEAM-BODY
 10
39.044977
 20
742.986731
 30
0.0
 70
    40
  0
VERTEX
  5
108
  8
TEAM-BODY
 10
38.9514
 20
741.794442
 30
0.0
 70
    40
  0
VERTEX
  5
109
  8
TEAM-BODY
 10
38.86651
 20
740.719876
 30
0.0
 70
    40
  0
VERTEX
  5
10A
  8
TEAM-BODY
 10
38.794082
 20
739.806465
 30
0.0
 70
    40
  0
VERTEX
  5
10B
  8
TEAM-BODY
 10
38.73662
 20
739.085459
 30
0.0
 70
    40
  0
VERTEX
  5
10C
  8
TEAM-BODY
 10
38.691555
 20
738.539378
 30
0.0
 70
    40
  0
VERTEX
  5
10D
  8
TEAM-BODY
 10
38.655049
 20
738.138557
 30
0.0
 70
    40
  0
VERTEX
  5
10E
  8
TEAM-BODY
 10
38.623264
 20
737.85333
 30
0.0
 70
    40
  0
VERTEX
  5
10F
  8
TEAM-BODY
 10
38.592361
 20
737.654034
 30
0.0
 70
    40
  0
VERTEX
  5
110
  8
TEAM-BODY
 10
38.558503
 20
737.511003
 30
0.0
 70
    40
  0
VERTEX
  5
111
  8
TEAM-BODY
 10
38.517851
 20
737.394573
 30
0.0
 70
    40
  0
VERTEX
  5
112
  8
TEAM-BODY
 10
38.466567
 20
737.27508
 30
0.0
 70
    40
  0
VERTEX
  5
113
  8
TEAM-BODY
 10
38.402057
 20
737.129166
 30
0.0
 70
    40
  0
VERTEX
  5
114
  8
TEAM-BODY
 10
38.326695
 20
736.958705
 30
0.0
 70
    40
  0
VERTEX
  5
115
  8
TEAM-BODY
 10
38.244097
 20
736.77188
 30
0.0
 70
    40
  0
VERTEX
  5
116
  8
TEAM-BODY
 10
38.157882
 20
736.576873
 30
0.0
 70
    40
  0
VERTEX
  5
117
  8
TEAM-BODY
 10
38.071668
 20
736.381866
 30
0.0
 70
    40
  0
VERTEX
  5
118
  8
TEAM-BODY
 10
37.98907
 20
736.195041
 30
0.0
 70
    40
  0
VERTEX
  5
119
  8
TEAM-BODY
 10
37.913708
 20
736.024581
 30
0.0
 70
    40
  0
VERTEX
  5
11A
  8
TEAM-BODY
 10
37.849197
 20
735.878666
 30
0.0
 70
    40
  0
VERTEX
  5
11B
  8
TEAM-BODY
 10
37.798252
 20
735.763435
 30
0.0
 70
    40
  0
VERTEX
  5
11C
  8
TEAM-BODY
 10
37.759968
 20
735.676841
 30
0.0
 70
    40
  0
VERTEX
  5
11D
  8
TEAM-BODY
 10
37.732536
 20
735.614793
 30
0.0
 70
    40
  0
VERTEX
  5
11E
  8
TEAM-BODY
 10
37.714148
 20
735.573201
 30
0.0
 70
    40
  0
VERTEX
  5
11F
  8
TEAM-BODY
 10
37.702994
 20
735.547973
 30
0.0
 70
    40
  0
VERTEX
  5
120
  8
TEAM-BODY
 10
37.697267
 20
735.535018
 30
0.0
 70
    40
  0
VERTEX
  5
121
  8
TEAM-BODY
 10
37.695156
 20
735.530245
 30
0.0
 70
    40
  0
VERTEX
  5
122
  8
TEAM-BODY
 10
37.694855
 20
735.529563
 30
0.0
 70
    40
  0
VERTEX
  5
123
  8
TEAM-BODY
 10
37.675799
 20
735.529563
 30
0.0
 70
    40
  0
VERTEX
  5
124
  8
TEAM-BODY
 10
37.54241
 20
735.529563
 30
0.0
 70
    40
  0
VERTEX
  5
125
  8
TEAM-BODY
 10
37.180352
 20
735.529563
 30
0.0
 70
    40
  0
VERTEX
  5
126
  8
TEAM-BODY
 10
36.475291
 20
735.529563
 30
0.0
 70
    40
  0
VERTEX
  5
127
  8
TEAM-BODY
 10
35.312895
 20
735.529563
 30
0.0
 70
    40
  0
VERTEX
  5
128
  8
TEAM-BODY
 10
33.578828
 20
735.529563
 30
0.0
 70
    40
  0
VERTEX
  5
129
  8
TEAM-BODY
 10
31.158757
 20
735.529563
 30
0.0
 70
    40
  0
VERTEX
  5
12A
  8
TEAM-BODY
 10
27.938347
 20
735.529563
 30
0.0
 70
    40
  0
VERTEX
  5
12B
  8
TEAM-BODY
 10
23.879487
 20
735.529563
 30
0.0
 70
    40
  0
VERTEX
  5
12C
  8
TEAM-BODY
 10
19.248957
 20
735.529563
 30
0.0
 70
    40
  0
VERTEX
  5
12D
  8
TEAM-BODY
 10
14.389759
 20
735.529563
 30
0.0
 70
    40
  0
VERTEX
  5
12E
  8
TEAM-BODY
 10
9.644895
 20
735.529563
 30
0.0
 70
    40
  0
VERTEX
  5
12F
  8
TEAM-BODY
 10
5.357367
 20
735.529563
 30
0.0
 70
    40
  0
VERTEX
  5
130
  8
TEAM-BODY
 10
1.870177
 20
735.529563
 30
0.0
 70
    40
  0
VERTEX
  5
131
  8
TEAM-BODY
 10
-0.473671
 20
735.529563
 30
0.0
 70
    40
  0
VERTEX
  5
132
  8
TEAM-BODY
 10
-1.331177
 20
735.529563
 30
0.0
 70
    40
  0
VERTEX
  5
133
  8
TEAM-BODY
 10
-1.110687
 20
850.000007
 30
0.0
 70
    48
  0
VERTEX
  5
134
  8
TEAM-BODY
 10
275.665527
 20
850.000007
 30
0.0
 70
    48
  0
VERTEX
  5
135
  8
TEAM-BODY
 10
275.665527
 20
850.000007
 30
0.0
 70
    48
  0
VERTEX
  5
136
  8
TEAM-BODY
 10
276.27185
 20
849.660987
 30
0.0
 70
    48
  0
VERTEX
  5
137
  8
TEAM-BODY
 10
276.481323
 20
849.027106
 30
0.0
 70
    48
  0
VERTEX
  5
138
  8
TEAM-BODY
 10
276.481323
 20
849.027106
 30
0.0
 70
    48
  0
VERTEX
  5
139
  8
TEAM-BODY
 10
276.481323
 20
849.027106
 30
0.0
 70
    48
  0
VERTEX
  5
13A
  8
TEAM-BODY
 10
276.481323
 20
817.879737
 30
0.0
 70
    48
  0
VERTEX
  5
13B
  8
TEAM-BODY
 10
276.481323
 20
817.879737
 30
0.0
 70
    48
  0
VERTEX
  5
13C
  8
TEAM-BODY
 10
276.431701
 20
816.826941
 30
0.0
 70
    48
  0
VERTEX
  5
13D
  8
TEAM-BODY
 10
276.776184
 20
815.278022
 30
0.0
 70
    48
  0
VERTEX
  5
13E
  8
TEAM-BODY
 10
275.715149
 20
815.278022
 30
0.0
 70
    48
  0
VERTEX
  5
13F
  8
TEAM-BODY
 10
272.578735
 20
815.278022
 30
0.0
 70
    48
  0
VERTEX
  5
140
  8
TEAM-BODY
 10
269.161194
 20
815.297309
 30
0.0
 70
    48
  0
VERTEX
  5
141
  8
TEAM-BODY
 10
265.724365
 20
815.297309
 30
0.0
 70
    48
  0
VERTEX
  5
142
  8
TEAM-BODY
 10
265.724365
 20
815.297309
 30
0.0
 70
    48
  0
VERTEX
  5
143
  8
TEAM-BODY
 10
237.130066
 20
785.141242
 30
0.0
 70
    48
  0
VERTEX
  5
144
  8
TEAM-BODY
 10
237.130066
 20
785.141242
 30
0.0
 70
    48
  0
VERTEX
  5
145
  8
TEAM-BODY
 10
231.237549
 20
779.105445
 30
0.0
 70
    48
  0
VERTEX
  5
146
  8
TEAM-BODY
 10
227.04834
 20
778.631385
 30
0.0
 70
    48
  0
VERTEX
  5
147
  8
TEAM-BODY
 10
219.772278
 20
778.223487
 30
0.0
 70
    48
  0
VERTEX
  5
148
  8
TEAM-BODY
 10
143.478607
 20
773.973639
 30
0.0
 70
    48
  0
VERTEX
  5
149
  8
TEAM-BODY
 10
116.43045
 20
772.656226
 30
0.0
 70
    48
  0
VERTEX
  5
14A
  8
TEAM-BODY
 10
50.675995
 20
769.081611
 30
0.0
 70
    48
  0
VERTEX
  5
14B
  8
TEAM-BODY
 10
44.750427
 20
768.301612
 30
0.0
 70
    48
  0
VERTEX
  5
14C
  8
TEAM-BODY
 10
41.222656
 20
764.332862
 30
0.0
 70
    48
  0
VERTEX
  5
14D
  8
TEAM-BODY
 10
40.577728
 20
759.923133
 30
0.0
 70
    48
  0
VERTEX
  5
14E
  8
TEAM-BODY
 10
39.80603
 20
754.667304
 30
0.0
 70
    48
  0
VERTEX
  5
14F
  8
TEAM-BODY
 10
39.659942
 20
750.717872
 30
0.0
 70
    48
  0
VERTEX
  5
150
  8
TEAM-BODY
 10
38.62091
 20
737.624183
 30
0.0
 70
    48
  0
VERTEX
  5
151
  8
TEAM-BODY
 10
38.62091
 20
737.624183
 30
0.0
 70
    48
  0
VERTEX
  5
152
  8
TEAM-BODY
 10
37.694855
 20
735.529563
 30
0.0
 70
    48
  0
VERTEX
  5
153
  8
TEAM-BODY
 10
37.694855
 20
735.529563
 30
0.0
 70
    48
  0
VERTEX
  5
154
  8
TEAM-BODY
 10
37.694855
 20
735.529563
 30
0.0
 70
    48
  0
VERTEX
  5
155
  8
TEAM-BODY
 10
-1.331177
 20
735.529563
 30
0.0
 70
    48
  0
VERTEX
  5
156
  8
TEAM-BODY
 10
-1.331177
 20
735.529563
 30
0.0
 70
    48
  0
SEQEND
  5
158
  8
TEAM-BODY
  0
POLYLINE
  5
159
  8
TEAM-BODY
 66
     1
 10
0.0
 20
0.0
 30
0.0
 70
    12
 75
     6
  0
VERTEX
  5
15A
  8
TEAM-BODY
 10
265.724365
 20
815.297309
 30
0.0
 70
    48
  0
VERTEX
  5
15B
  8
TEAM-BODY
 10
265.724365
 20
815.297309
 30
0.0
 70
    40
  0
VERTEX
  5
15C
  8
TEAM-BODY
 10
255.623408
 20
815.297309
 30
0.0
 70
    40
  0
VERTEX
  5
15D
  8
TEAM-BODY
 10
228.993613
 20
815.297309
 30
0.0
 70
    40
  0
VERTEX
  5
15E
  8
TEAM-BODY
 10
191.344592
 20
815.297309
 30
0.0
 70
    40
  0
VERTEX
  5
15F
  8
TEAM-BODY
 10
148.185958
 20
815.297309
 30
0.0
 70
    40
  0
VERTEX
  5
160
  8
TEAM-BODY
 10
105.027325
 20
815.297309
 30
0.0
 70
    40
  0
VERTEX
  5
161
  8
TEAM-BODY
 10
67.378304
 20
815.297309
 30
0.0
 70
    40
  0
VERTEX
  5
162
  8
TEAM-BODY
 10
40.748509
 20
815.297309
 30
0.0
 70
    40
  0
VERTEX
  5
163
  8
TEAM-BODY
 10
30.647552
 20
815.297309
 30
0.0
 70
    40
  0
VERTEX
  5
164
  8
TEAM-BODY
 10
265.724365
 20
815.297309
 30
0.0
 70
    48
  0
VERTEX
  5
165
  8
TEAM-BODY
 10
30.647552
 20
815.297309
 30
0.0
 70
    48
  0
VERTEX
  5
166
  8
TEAM-BODY
 10
30.647552
 20
815.297309
 30
0.0
 70
    48
  0
SEQEND
  5
167
  8
TEAM-BODY
  0
DIMENSION
  5
168
  8
TEAM-MAS
  2
*D7
 10
497.819267
 20
0.0
 30
0.0
 11
497.819267
 21
315.0
 31
0.0
 12
-8000.0
 22
-48000.0
 32
0.0
 13
20.0
 23
630.0
 33
0.0
 14
0.0
 24
0.0
 34
0.0
 50
90.0
1001
ACAD
1000
DSTYLE
1002
{
1070
    40
1040
1.0
1002
}
  0
DIMENSION
  5
177
  8
TEAM-MAS
  2
*D6
 10
447.373967
 20
0.0
 30
0.0
 11
447.373967
 21
340.0
 31
0.0
 12
-8000.0
 22
-48000.0
 32
0.0
 13
70.0
 23
680.0
 33
0.0
 14
0.0
 24
0.0
 34
0.0
 50
90.0
1001
ACAD
1000
DSTYLE
1002
{
1070
    40
1040
1.0
1002
}
  0
DIMENSION
  5
185
  8
TEAM-MAS
  2
*D5
 10
547.09111
 20
0.0
 30
0.0
 11
547.09111
 21
425.000004
 31
0.0
 12
-8000.0
 22
-48000.0
 32
0.0
 13
0.0
 23
850.000007
 33
0.0
 14
0.0
 24
0.0
 34
0.0
 50
90.0
1001
ACAD
1000
DSTYLE
1002
{
1070
    40
1040
1.0
1002
}
  0
DIMENSION
  5
193
  8
TEAM-MAS
  2
*D4
 10
497.819267
 20
630.0
 30
0.0
 11
497.819267
 21
740.000004
 31
0.0
 12
-8000.0
 22
-48000.0
 32
0.0
 13
0.0
 23
850.000007
 33
0.0
 14
20.0
 24
630.0
 34
0.0
 50
90.0
1001
ACAD
1000
DSTYLE
1002
{
1070
    40
1040
1.0
1002
}
  0
DIMENSION
  5
1A1
  8
TEAM-MAS
  2
*D3
 10
397.101881
 20
735.529563
 30
0.0
 11
397.101881
 21
792.764785
 31
0.0
 12
-8000.0
 22
-48000.0
 32
0.0
 13
0.0
 23
850.000007
 33
0.0
 14
27.938347
 24
735.529563
 34
0.0
 50
90.0
1001
ACAD
1000
DSTYLE
1002
{
1070
    40
1040
1.0
1002
}
  0
DIMENSION
  5
1AF
  8
TEAM-MAS
  2
*D2
 10
447.373967
 20
680.0
 30
0.0
 11
447.373967
 21
765.000004
 31
0.0
 12
-8000.0
 22
-48000.0
 32
0.0
 13
0.0
 23
850.000007
 33
0.0
 14
70.0
 24
680.0
 34
0.0
 50
90.0
1001
ACAD
1000
DSTYLE
1002
{
1070
    40
1040
1.0
1002
}
  0
DIMENSION
  5
1BD
  8
TEAM-MAS
  2
*D1
 10
60.0
 20
537.726393
 30
0.0
 11
-0.697566
 21
557.074786
 31
0.0
 12
-8000.0
 22
-48000.0
 32
0.0
 70
   128
 13
-60.0
 23
670.0
 33
0.0
 14
60.0
 24
670.0
 34
0.0
1001
ACAD
1000
DSTYLE
1002
{
1070
    40
1040
1.0
1002
}
  0
LINE
  5
1CB
  8
TEAM-AXE
 10
50.0
 20
680.0
 30
0.0
 11
70.0
 21
680.0
 31
0.0
  0
CIRCLE
  5
1CE
  8
TEAM-COLD
 10
60.0
 20
680.0
 30
0.0
 40
10.0
  0
DIMENSION
  5
1D0
  8
TEAM-MAS
  2
*D0
 10
347.656823
 20
850.000007
 30
0.0
 11
347.907151
 21
762.953964
 31
0.0
 12
-8000.0
 22
-48000.0
 32
0.0
 70
   128
 13
255.623408
 23
815.297309
 33
0.0
 14
0.0
 24
850.000007
 34
0.0
 50
90.0
1001
ACAD
1000
DSTYLE
1002
{
1070
    40
1040
1.0
1002
}
  0
CIRCLE
  5
1DF
  8
TEAM-INSP
 10
0.0
 20
0.0
 30
0.0
 40
7.1
  0
POLYLINE
  5
1E1
  8
TEAM-BODY
 66
     1
 10
0.0
 20
0.0
 30
0.0
 70
    12
 75
     6
  0
VERTEX
  5
1E2
  8
TEAM-BODY
 10
0.239776
 20
850.000007
 30
0.0
 70
    48
  0
VERTEX
  5
1E3
  8
TEAM-BODY
 10
0.239776
 20
850.000007
 30
0.0
 70
    40
  0
VERTEX
  5
1E4
  8
TEAM-BODY
 10
-5.841733
 20
850.000007
 30
0.0
 70
    40
  0
VERTEX
  5
1E5
  8
TEAM-BODY
 10
-22.464523
 20
850.000007
 30
0.0
 70
    40
  0
VERTEX
  5
1E6
  8
TEAM-BODY
 10
-47.195992
 20
850.000007
 30
0.0
 70
    40
  0
VERTEX
  5
1E7
  8
TEAM-BODY
 10
-77.603535
 20
850.000007
 30
0.0
 70
    40
  0
VERTEX
  5
1E8
  8
TEAM-BODY
 10
-111.25455
 20
850.000007
 30
0.0
 70
    40
  0
VERTEX
  5
1E9
  8
TEAM-BODY
 10
-145.716433
 20
850.000007
 30
0.0
 70
    40
  0
VERTEX
  5
1EA
  8
TEAM-BODY
 10
-178.55658
 20
850.000007
 30
0.0
 70
    40
  0
VERTEX
  5
1EB
  8
TEAM-BODY
 10
-207.342388
 20
850.000007
 30
0.0
 70
    40
  0
VERTEX
  5
1EC
  8
TEAM-BODY
 10
-230.182029
 20
849.999897
 30
0.0
 70
    40
  0
VERTEX
  5
1ED
  8
TEAM-BODY
 10
-247.346779
 20
849.999124
 30
0.0
 70
    40
  0
VERTEX
  5
1EE
  8
TEAM-BODY
 10
-259.648692
 20
849.997027
 30
0.0
 70
    40
  0
VERTEX
  5
1EF
  8
TEAM-BODY
 10
-267.899818
 20
849.992944
 30
0.0
 70
    40
  0
VERTEX
  5
1F0
  8
TEAM-BODY
 10
-272.91221
 20
849.986212
 30
0.0
 70
    40
  0
VERTEX
  5
1F1
  8
TEAM-BODY
 10
-275.497919
 20
849.97617
 30
0.0
 70
    40
  0
VERTEX
  5
1F2
  8
TEAM-BODY
 10
-276.468999
 20
849.962154
 30
0.0
 70
    40
  0
VERTEX
  5
1F3
  8
TEAM-BODY
 10
-276.637502
 20
849.943504
 30
0.0
 70
    40
  0
VERTEX
  5
1F4
  8
TEAM-BODY
 10
-276.679807
 20
849.919681
 30
0.0
 70
    40
  0
VERTEX
  5
1F5
  8
TEAM-BODY
 10
-276.729611
 20
849.890647
 30
0.0
 70
    40
  0
VERTEX
  5
1F6
  8
TEAM-BODY
 10
-276.784938
 20
849.856488
 30
0.0
 70
    40
  0
VERTEX
  5
1F7
  8
TEAM-BODY
 10
-276.843812
 20
849.817291
 30
0.0
 70
    40
  0
VERTEX
  5
1F8
  8
TEAM-BODY
 10
-276.904258
 20
849.773142
 30
0.0
 70
    40
  0
VERTEX
  5
1F9
  8
TEAM-BODY
 10
-276.964301
 20
849.724127
 30
0.0
 70
    40
  0
VERTEX
  5
1FA
  8
TEAM-BODY
 10
-277.021963
 20
849.670332
 30
0.0
 70
    40
  0
VERTEX
  5
1FB
  8
TEAM-BODY
 10
-277.075271
 20
849.611844
 30
0.0
 70
    40
  0
VERTEX
  5
1FC
  8
TEAM-BODY
 10
-277.122643
 20
849.549036
 30
0.0
 70
    40
  0
VERTEX
  5
1FD
  8
TEAM-BODY
 10
-277.164083
 20
849.483435
 30
0.0
 70
    40
  0
VERTEX
  5
1FE
  8
TEAM-BODY
 10
-277.199989
 20
849.416855
 30
0.0
 70
    40
  0
VERTEX
  5
1FF
  8
TEAM-BODY
 10
-277.230759
 20
849.35111
 30
0.0
 70
    40
  0
VERTEX
  5
200
  8
TEAM-BODY
 10
-277.256792
 20
849.288013
 30
0.0
 70
    40
  0
VERTEX
  5
201
  8
TEAM-BODY
 10
-277.278486
 20
849.229378
 30
0.0
 70
    40
  0
VERTEX
  5
202
  8
TEAM-BODY
 10
-277.29624
 20
849.17702
 30
0.0
 70
    40
  0
VERTEX
  5
203
  8
TEAM-BODY
 10
-277.310453
 20
849.132753
 30
0.0
 70
    40
  0
VERTEX
  5
204
  8
TEAM-BODY
 10
-277.32152
 20
849.097881
 30
0.0
 70
    40
  0
VERTEX
  5
205
  8
TEAM-BODY
 10
-277.329837
 20
849.071676
 30
0.0
 70
    40
  0
VERTEX
  5
206
  8
TEAM-BODY
 10
-277.335797
 20
849.052899
 30
0.0
 70
    40
  0
VERTEX
  5
207
  8
TEAM-BODY
 10
-277.339792
 20
849.040312
 30
0.0
 70
    40
  0
VERTEX
  5
208
  8
TEAM-BODY
 10
-277.342215
 20
849.032677
 30
0.0
 70
    40
  0
VERTEX
  5
209
  8
TEAM-BODY
 10
-277.343459
 20
849.028757
 30
0.0
 70
    40
  0
VERTEX
  5
20A
  8
TEAM-BODY
 10
-277.343918
 20
849.027313
 30
0.0
 70
    40
  0
VERTEX
  5
20B
  8
TEAM-BODY
 10
-277.343983
 20
849.027106
 30
0.0
 70
    40
  0
VERTEX
  5
20C
  8
TEAM-BODY
 10
-277.343984
 20
849.016967
 30
0.0
 70
    40
  0
VERTEX
  5
20D
  8
TEAM-BODY
 10
-277.34399
 20
848.945993
 30
0.0
 70
    40
  0
VERTEX
  5
20E
  8
TEAM-BODY
 10
-277.344007
 20
848.75335
 30
0.0
 70
    40
  0
VERTEX
  5
20F
  8
TEAM-BODY
 10
-277.34404
 20
848.378203
 30
0.0
 70
    40
  0
VERTEX
  5
210
  8
TEAM-BODY
 10
-277.344095
 20
847.759716
 30
0.0
 70
    40
  0
VERTEX
  5
211
  8
TEAM-BODY
 10
-277.344177
 20
846.837057
 30
0.0
 70
    40
  0
VERTEX
  5
212
  8
TEAM-BODY
 10
-277.344291
 20
845.549389
 30
0.0
 70
    40
  0
VERTEX
  5
213
  8
TEAM-BODY
 10
-277.344442
 20
843.835878
 30
0.0
 70
    40
  0
VERTEX
  5
214
  8
TEAM-BODY
 10
-277.344634
 20
841.666107
 30
0.0
 70
    40
  0
VERTEX
  5
215
  8
TEAM-BODY
 10
-277.344859
 20
839.131327
 30
0.0
 70
    40
  0
VERTEX
  5
216
  8
TEAM-BODY
 10
-277.345104
 20
836.353209
 30
0.0
 70
    40
  0
VERTEX
  5
217
  8
TEAM-BODY
 10
-277.345361
 20
833.453422
 30
0.0
 70
    40
  0
VERTEX
  5
218
  8
TEAM-BODY
 10
-277.345618
 20
830.553634
 30
0.0
 70
    40
  0
VERTEX
  5
219
  8
TEAM-BODY
 10
-277.345863
 20
827.775516
 30
0.0
 70
    40
  0
VERTEX
  5
21A
  8
TEAM-BODY
 10
-277.346088
 20
825.240736
 30
0.0
 70
    40
  0
VERTEX
  5
21B
  8
TEAM-BODY
 10
-277.34628
 20
823.070965
 30
0.0
 70
    40
  0
VERTEX
  5
21C
  8
TEAM-BODY
 10
-277.346415
 20
821.357112
 30
0.0
 70
    40
  0
VERTEX
  5
21D
  8
TEAM-BODY
 10
-277.346416
 20
820.067045
 30
0.0
 70
    40
  0
VERTEX
  5
21E
  8
TEAM-BODY
 10
-277.346191
 20
819.137874
 30
0.0
 70
    40
  0
VERTEX
  5
21F
  8
TEAM-BODY
 10
-277.345648
 20
818.506707
 30
0.0
 70
    40
  0
VERTEX
  5
220
  8
TEAM-BODY
 10
-277.344697
 20
818.110655
 30
0.0
 70
    40
  0
VERTEX
  5
221
  8
TEAM-BODY
 10
-277.343244
 20
817.886825
 30
0.0
 70
    40
  0
VERTEX
  5
222
  8
TEAM-BODY
 10
-277.3412
 20
817.772328
 30
0.0
 70
    40
  0
VERTEX
  5
223
  8
TEAM-BODY
 10
-277.338473
 20
817.704271
 30
0.0
 70
    40
  0
VERTEX
  5
224
  8
TEAM-BODY
 10
-277.335129
 20
817.630428
 30
0.0
 70
    40
  0
VERTEX
  5
225
  8
TEAM-BODY
 10
-277.331878
 20
817.541221
 30
0.0
 70
    40
  0
VERTEX
  5
226
  8
TEAM-BODY
 10
-277.329585
 20
817.43774
 30
0.0
 70
    40
  0
VERTEX
  5
227
  8
TEAM-BODY
 10
-277.329116
 20
817.32107
 30
0.0
 70
    40
  0
VERTEX
  5
228
  8
TEAM-BODY
 10
-277.331339
 20
817.192299
 30
0.0
 70
    40
  0
VERTEX
  5
229
  8
TEAM-BODY
 10
-277.33712
 20
817.052515
 30
0.0
 70
    40
  0
VERTEX
  5
22A
  8
TEAM-BODY
 10
-277.347325
 20
816.902804
 30
0.0
 70
    40
  0
VERTEX
  5
22B
  8
TEAM-BODY
 10
-277.362821
 20
816.744254
 30
0.0
 70
    40
  0
VERTEX
  5
22C
  8
TEAM-BODY
 10
-277.383746
 20
816.578437
 30
0.0
 70
    40
  0
VERTEX
  5
22D
  8
TEAM-BODY
 10
-277.407318
 20
816.408861
 30
0.0
 70
    40
  0
VERTEX
  5
22E
  8
TEAM-BODY
 10
-277.430029
 20
816.239523
 30
0.0
 70
    40
  0
VERTEX
  5
22F
  8
TEAM-BODY
 10
-277.448369
 20
816.074415
 30
0.0
 70
    40
  0
VERTEX
  5
230
  8
TEAM-BODY
 10
-277.458828
 20
815.917532
 30
0.0
 70
    40
  0
VERTEX
  5
231
  8
TEAM-BODY
 10
-277.457896
 20
815.772868
 30
0.0
 70
    40
  0
VERTEX
  5
232
  8
TEAM-BODY
 10
-277.442065
 20
815.644418
 30
0.0
 70
    40
  0
VERTEX
  5
233
  8
TEAM-BODY
 10
-277.407824
 20
815.536175
 30
0.0
 70
    40
  0
VERTEX
  5
234
  8
TEAM-BODY
 10
-277.35203
 20
815.450965
 30
0.0
 70
    40
  0
VERTEX
  5
235
  8
TEAM-BODY
 10
-277.273004
 20
815.386931
 30
0.0
 70
    40
  0
VERTEX
  5
236
  8
TEAM-BODY
 10
-277.169432
 20
815.341048
 30
0.0
 70
    40
  0
VERTEX
  5
237
  8
TEAM-BODY
 10
-277.04
 20
815.310291
 30
0.0
 70
    40
  0
VERTEX
  5
238
  8
TEAM-BODY
 10
-276.883395
 20
815.291636
 30
0.0
 70
    40
  0
VERTEX
  5
239
  8
TEAM-BODY
 10
-276.698303
 20
815.282056
 30
0.0
 70
    40
  0
VERTEX
  5
23A
  8
TEAM-BODY
 10
-276.483412
 20
815.278526
 30
0.0
 70
    40
  0
VERTEX
  5
23B
  8
TEAM-BODY
 10
-276.237407
 20
815.278022
 30
0.0
 70
    40
  0
VERTEX
  5
23C
  8
TEAM-BODY
 10
-275.959777
 20
815.278028
 30
0.0
 70
    40
  0
VERTEX
  5
23D
  8
TEAM-BODY
 10
-275.653219
 20
815.278072
 30
0.0
 70
    40
  0
VERTEX
  5
23E
  8
TEAM-BODY
 10
-275.321232
 20
815.278192
 30
0.0
 70
    40
  0
VERTEX
  5
23F
  8
TEAM-BODY
 10
-274.967315
 20
815.278424
 30
0.0
 70
    40
  0
VERTEX
  5
240
  8
TEAM-BODY
 10
-274.594967
 20
815.278807
 30
0.0
 70
    40
  0
VERTEX
  5
241
  8
TEAM-BODY
 10
-274.207687
 20
815.279378
 30
0.0
 70
    40
  0
VERTEX
  5
242
  8
TEAM-BODY
 10
-273.808972
 20
815.280176
 30
0.0
 70
    40
  0
VERTEX
  5
243
  8
TEAM-BODY
 10
-273.402324
 20
815.281237
 30
0.0
 70
    40
  0
VERTEX
  5
244
  8
TEAM-BODY
 10
-272.99074
 20
815.28258
 30
0.0
 70
    40
  0
VERTEX
  5
245
  8
TEAM-BODY
 10
-272.575221
 20
815.28415
 30
0.0
 70
    40
  0
VERTEX
  5
246
  8
TEAM-BODY
 10
-272.156268
 20
815.28587
 30
0.0
 70
    40
  0
VERTEX
  5
247
  8
TEAM-BODY
 10
-271.734381
 20
815.287666
 30
0.0
 70
    40
  0
VERTEX
  5
248
  8
TEAM-BODY
 10
-271.310061
 20
815.289461
 30
0.0
 70
    40
  0
VERTEX
  5
249
  8
TEAM-BODY
 10
-270.883809
 20
815.291182
 30
0.0
 70
    40
  0
VERTEX
  5
24A
  8
TEAM-BODY
 10
-270.456125
 20
815.292751
 30
0.0
 70
    40
  0
VERTEX
  5
24B
  8
TEAM-BODY
 10
-270.02751
 20
815.294095
 30
0.0
 70
    40
  0
VERTEX
  5
24C
  8
TEAM-BODY
 10
-269.599511
 20
815.295156
 30
0.0
 70
    40
  0
VERTEX
  5
24D
  8
TEAM-BODY
 10
-269.177865
 20
815.295953
 30
0.0
 70
    40
  0
VERTEX
  5
24E
  8
TEAM-BODY
 10
-268.769353
 20
815.296524
 30
0.0
 70
    40
  0
VERTEX
  5
24F
  8
TEAM-BODY
 10
-268.380758
 20
815.296907
 30
0.0
 70
    40
  0
VERTEX
  5
250
  8
TEAM-BODY
 10
-268.018862
 20
815.29714
 30
0.0
 70
    40
  0
VERTEX
  5
251
  8
TEAM-BODY
 10
-267.690449
 20
815.297259
 30
0.0
 70
    40
  0
VERTEX
  5
252
  8
TEAM-BODY
 10
-267.4023
 20
815.297303
 30
0.0
 70
    40
  0
VERTEX
  5
253
  8
TEAM-BODY
 10
-267.161198
 20
815.297309
 30
0.0
 70
    40
  0
VERTEX
  5
254
  8
TEAM-BODY
 10
-266.962364
 20
815.287493
 30
0.0
 70
    40
  0
VERTEX
  5
255
  8
TEAM-BODY
 10
-266.754778
 20
815.218778
 30
0.0
 70
    40
  0
VERTEX
  5
256
  8
TEAM-BODY
 10
-266.475857
 20
815.032266
 30
0.0
 70
    40
  0
VERTEX
  5
257
  8
TEAM-BODY
 10
-266.063018
 20
814.669058
 30
0.0
 70
    40
  0
VERTEX
  5
258
  8
TEAM-BODY
 10
-265.453679
 20
814.070256
 30
0.0
 70
    40
  0
VERTEX
  5
259
  8
TEAM-BODY
 10
-264.585259
 20
813.176961
 30
0.0
 70
    40
  0
VERTEX
  5
25A
  8
TEAM-BODY
 10
-263.395174
 20
811.930274
 30
0.0
 70
    40
  0
VERTEX
  5
25B
  8
TEAM-BODY
 10
-261.820842
 20
810.271298
 30
0.0
 70
    40
  0
VERTEX
  5
25C
  8
TEAM-BODY
 10
-259.82873
 20
808.170582
 30
0.0
 70
    40
  0
VERTEX
  5
25D
  8
TEAM-BODY
 10
-257.501496
 20
805.716475
 30
0.0
 70
    40
  0
VERTEX
  5
25E
  8
TEAM-BODY
 10
-254.950848
 20
803.026774
 30
0.0
 70
    40
  0
VERTEX
  5
25F
  8
TEAM-BODY
 10
-252.288493
 20
800.219276
 30
0.0
 70
    40
  0
VERTEX
  5
260
  8
TEAM-BODY
 10
-249.626137
 20
797.411777
 30
0.0
 70
    40
  0
VERTEX
  5
261
  8
TEAM-BODY
 10
-247.075489
 20
794.722076
 30
0.0
 70
    40
  0
VERTEX
  5
262
  8
TEAM-BODY
 10
-244.748255
 20
792.267969
 30
0.0
 70
    40
  0
VERTEX
  5
263
  8
TEAM-BODY
 10
-242.756143
 20
790.167253
 30
0.0
 70
    40
  0
VERTEX
  5
264
  8
TEAM-BODY
 10
-241.181018
 20
788.506312
 30
0.0
 70
    40
  0
VERTEX
  5
265
  8
TEAM-BODY
 10
-239.985382
 20
787.245872
 30
0.0
 70
    40
  0
VERTEX
  5
266
  8
TEAM-BODY
 10
-239.101892
 20
786.315247
 30
0.0
 70
    40
  0
VERTEX
  5
267
  8
TEAM-BODY
 10
-238.463209
 20
785.643748
 30
0.0
 70
    40
  0
VERTEX
  5
268
  8
TEAM-BODY
 10
-238.001991
 20
785.160689
 30
0.0
 70
    40
  0
VERTEX
  5
269
  8
TEAM-BODY
 10
-237.650898
 20
784.795382
 30
0.0
 70
    40
  0
VERTEX
  5
26A
  8
TEAM-BODY
 10
-237.342588
 20
784.47714
 30
0.0
 70
    40
  0
VERTEX
  5
26B
  8
TEAM-BODY
 10
-237.009722
 20
784.135276
 30
0.0
 70
    40
  0
VERTEX
  5
26C
  8
TEAM-BODY
 10
-236.598644
 20
783.714659
 30
0.0
 70
    40
  0
VERTEX
  5
26D
  8
TEAM-BODY
 10
-236.11045
 20
783.222385
 30
0.0
 70
    40
  0
VERTEX
  5
26E
  8
TEAM-BODY
 10
-235.559921
 20
782.681104
 30
0.0
 70
    40
  0
VERTEX
  5
26F
  8
TEAM-BODY
 10
-234.961839
 20
782.113467
 30
0.0
 70
    40
  0
VERTEX
  5
270
  8
TEAM-BODY
 10
-234.330985
 20
781.542128
 30
0.0
 70
    40
  0
VERTEX
  5
271
  8
TEAM-BODY
 10
-233.682142
 20
780.989736
 30
0.0
 70
    40
  0
VERTEX
  5
272
  8
TEAM-BODY
 10
-233.030091
 20
780.478943
 30
0.0
 70
    40
  0
VERTEX
  5
273
  8
TEAM-BODY
 10
-232.389613
 20
780.032401
 30
0.0
 70
    40
  0
VERTEX
  5
274
  8
TEAM-BODY
 10
-231.771477
 20
779.667197
 30
0.0
 70
    40
  0
VERTEX
  5
275
  8
TEAM-BODY
 10
-231.170394
 20
779.378162
 30
0.0
 70
    40
  0
VERTEX
  5
276
  8
TEAM-BODY
 10
-230.577063
 20
779.154562
 30
0.0
 70
    40
  0
VERTEX
  5
277
  8
TEAM-BODY
 10
-229.982181
 20
778.985663
 30
0.0
 70
    40
  0
VERTEX
  5
278
  8
TEAM-BODY
 10
-229.376448
 20
778.860732
 30
0.0
 70
    40
  0
VERTEX
  5
279
  8
TEAM-BODY
 10
-228.750561
 20
778.769036
 30
0.0
 70
    40
  0
VERTEX
  5
27A
  8
TEAM-BODY
 10
-228.095218
 20
778.69984
 30
0.0
 70
    40
  0
VERTEX
  5
27B
  8
TEAM-BODY
 10
-227.401117
 20
778.642412
 30
0.0
 70
    40
  0
VERTEX
  5
27C
  8
TEAM-BODY
 10
-226.639039
 20
778.586535
 30
0.0
 70
    40
  0
VERTEX
  5
27D
  8
TEAM-BODY
 10
-225.700093
 20
778.524058
 30
0.0
 70
    40
  0
VERTEX
  5
27E
  8
TEAM-BODY
 10
-224.455471
 20
778.447348
 30
0.0
 70
    40
  0
VERTEX
  5
27F
  8
TEAM-BODY
 10
-222.776362
 20
778.348774
 30
0.0
 70
    40
  0
VERTEX
  5
280
  8
TEAM-BODY
 10
-220.533959
 20
778.220701
 30
0.0
 70
    40
  0
VERTEX
  5
281
  8
TEAM-BODY
 10
-217.599452
 20
778.055497
 30
0.0
 70
    40
  0
VERTEX
  5
282
  8
TEAM-BODY
 10
-213.844033
 20
777.845528
 30
0.0
 70
    40
  0
VERTEX
  5
283
  8
TEAM-BODY
 10
-209.138892
 20
777.583162
 30
0.0
 70
    40
  0
VERTEX
  5
284
  8
TEAM-BODY
 10
-203.415188
 20
777.264243
 30
0.0
 70
    40
  0
VERTEX
  5
285
  8
TEAM-BODY
 10
-196.843942
 20
776.898525
 30
0.0
 70
    40
  0
VERTEX
  5
286
  8
TEAM-BODY
 10
-189.656143
 20
776.499238
 30
0.0
 70
    40
  0
VERTEX
  5
287
  8
TEAM-BODY
 10
-182.082779
 20
776.079615
 30
0.0
 70
    40
  0
VERTEX
  5
288
  8
TEAM-BODY
 10
-174.354837
 20
775.652886
 30
0.0
 70
    40
  0
VERTEX
  5
289
  8
TEAM-BODY
 10
-166.703307
 20
775.232283
 30
0.0
 70
    40
  0
VERTEX
  5
28A
  8
TEAM-BODY
 10
-159.359176
 20
774.831037
 30
0.0
 70
    40
  0
VERTEX
  5
28B
  8
TEAM-BODY
 10
-152.553433
 20
774.462378
 30
0.0
 70
    40
  0
VERTEX
  5
28C
  8
TEAM-BODY
 10
-146.449943
 20
774.135645
 30
0.0
 70
    40
  0
VERTEX
  5
28D
  8
TEAM-BODY
 10
-140.944087
 20
773.844595
 30
0.0
 70
    40
  0
VERTEX
  5
28E
  8
TEAM-BODY
 10
-135.864119
 20
773.579092
 30
0.0
 70
    40
  0
VERTEX
  5
28F
  8
TEAM-BODY
 10
-131.038297
 20
773.329
 30
0.0
 70
    40
  0
VERTEX
  5
290
  8
TEAM-BODY
 10
-126.294877
 20
773.084184
 30
0.0
 70
    40
  0
VERTEX
  5
291
  8
TEAM-BODY
 10
-121.462115
 20
772.834506
 30
0.0
 70
    40
  0
VERTEX
  5
292
  8
TEAM-BODY
 10
-116.368269
 20
772.569833
 30
0.0
 70
    40
  0
VERTEX
  5
293
  8
TEAM-BODY
 10
-110.841594
 20
772.280026
 30
0.0
 70
    40
  0
VERTEX
  5
294
  8
TEAM-BODY
 10
-104.771042
 20
771.958284
 30
0.0
 70
    40
  0
VERTEX
  5
295
  8
TEAM-BODY
 10
-98.288343
 20
771.611141
 30
0.0
 70
    40
  0
VERTEX
  5
296
  8
TEAM-BODY
 10
-91.585922
 20
771.248462
 30
0.0
 70
    40
  0
VERTEX
  5
297
  8
TEAM-BODY
 10
-84.856204
 20
770.880115
 30
0.0
 70
    40
  0
VERTEX
  5
298
  8
TEAM-BODY
 10
-78.291614
 20
770.515966
 30
0.0
 70
    40
  0
VERTEX
  5
299
  8
TEAM-BODY
 10
-72.084577
 20
770.165883
 30
0.0
 70
    40
  0
VERTEX
  5
29A
  8
TEAM-BODY
 10
-66.427518
 20
769.839732
 30
0.0
 70
    40
  0
VERTEX
  5
29B
  8
TEAM-BODY
 10
-61.512861
 20
769.54738
 30
0.0
 70
    40
  0
VERTEX
  5
29C
  8
TEAM-BODY
 10
-57.482264
 20
769.295102
 30
0.0
 70
    40
  0
VERTEX
  5
29D
  8
TEAM-BODY
 10
-54.274314
 20
769.074804
 30
0.0
 70
    40
  0
VERTEX
  5
29E
  8
TEAM-BODY
 10
-51.776828
 20
768.874799
 30
0.0
 70
    40
  0
VERTEX
  5
29F
  8
TEAM-BODY
 10
-49.877628
 20
768.683401
 30
0.0
 70
    40
  0
VERTEX
  5
2A0
  8
TEAM-BODY
 10
-48.46453
 20
768.488923
 30
0.0
 70
    40
  0
VERTEX
  5
2A1
  8
TEAM-BODY
 10
-47.425354
 20
768.279681
 30
0.0
 70
    40
  0
VERTEX
  5
2A2
  8
TEAM-BODY
 10
-46.64792
 20
768.043986
 30
0.0
 70
    40
  0
VERTEX
  5
2A3
  8
TEAM-BODY
 10
-46.020045
 20
767.770154
 30
0.0
 70
    40
  0
VERTEX
  5
2A4
  8
TEAM-BODY
 10
-45.448404
 20
767.449339
 30
0.0
 70
    40
  0
VERTEX
  5
2A5
  8
TEAM-BODY
 10
-44.915089
 20
767.084067
 30
0.0
 70
    40
  0
VERTEX
  5
2A6
  8
TEAM-BODY
 10
-44.421048
 20
766.679705
 30
0.0
 70
    40
  0
VERTEX
  5
2A7
  8
TEAM-BODY
 10
-43.967228
 20
766.241618
 30
0.0
 70
    40
  0
VERTEX
  5
2A8
  8
TEAM-BODY
 10
-43.554577
 20
765.775174
 30
0.0
 70
    40
  0
VERTEX
  5
2A9
  8
TEAM-BODY
 10
-43.184042
 20
765.285739
 30
0.0
 70
    40
  0
VERTEX
  5
2AA
  8
TEAM-BODY
 10
-42.85657
 20
764.778681
 30
0.0
 70
    40
  0
VERTEX
  5
2AB
  8
TEAM-BODY
 10
-42.57311
 20
764.259366
 30
0.0
 70
    40
  0
VERTEX
  5
2AC
  8
TEAM-BODY
 10
-42.333474
 20
763.732134
 30
0.0
 70
    40
  0
VERTEX
  5
2AD
  8
TEAM-BODY
 10
-42.132933
 20
763.19722
 30
0.0
 70
    40
  0
VERTEX
  5
2AE
  8
TEAM-BODY
 10
-41.965628
 20
762.653834
 30
0.0
 70
    40
  0
VERTEX
  5
2AF
  8
TEAM-BODY
 10
-41.825695
 20
762.101184
 30
0.0
 70
    40
  0
VERTEX
  5
2B0
  8
TEAM-BODY
 10
-41.707272
 20
761.538478
 30
0.0
 70
    40
  0
VERTEX
  5
2B1
  8
TEAM-BODY
 10
-41.604498
 20
760.964926
 30
0.0
 70
    40
  0
VERTEX
  5
2B2
  8
TEAM-BODY
 10
-41.51151
 20
760.379736
 30
0.0
 70
    40
  0
VERTEX
  5
2B3
  8
TEAM-BODY
 10
-41.422447
 20
759.782116
 30
0.0
 70
    40
  0
VERTEX
  5
2B4
  8
TEAM-BODY
 10
-41.332669
 20
759.17211
 30
0.0
 70
    40
  0
VERTEX
  5
2B5
  8
TEAM-BODY
 10
-41.242428
 20
758.553087
 30
0.0
 70
    40
  0
VERTEX
  5
2B6
  8
TEAM-BODY
 10
-41.1532
 20
757.929251
 30
0.0
 70
    40
  0
VERTEX
  5
2B7
  8
TEAM-BODY
 10
-41.066458
 20
757.304808
 30
0.0
 70
    40
  0
VERTEX
  5
2B8
  8
TEAM-BODY
 10
-40.983678
 20
756.683961
 30
0.0
 70
    40
  0
VERTEX
  5
2B9
  8
TEAM-BODY
 10
-40.906336
 20
756.070914
 30
0.0
 70
    40
  0
VERTEX
  5
2BA
  8
TEAM-BODY
 10
-40.835904
 20
755.469871
 30
0.0
 70
    40
  0
VERTEX
  5
2BB
  8
TEAM-BODY
 10
-40.77386
 20
754.885037
 30
0.0
 70
    40
  0
VERTEX
  5
2BC
  8
TEAM-BODY
 10
-40.720933
 20
754.316513
 30
0.0
 70
    40
  0
VERTEX
  5
2BD
  8
TEAM-BODY
 10
-40.67488
 20
753.747989
 30
0.0
 70
    40
  0
VERTEX
  5
2BE
  8
TEAM-BODY
 10
-40.632713
 20
753.159055
 30
0.0
 70
    40
  0
VERTEX
  5
2BF
  8
TEAM-BODY
 10
-40.591445
 20
752.529299
 30
0.0
 70
    40
  0
VERTEX
  5
2C0
  8
TEAM-BODY
 10
-40.548089
 20
751.83831
 30
0.0
 70
    40
  0
VERTEX
  5
2C1
  8
TEAM-BODY
 10
-40.499656
 20
751.065677
 30
0.0
 70
    40
  0
VERTEX
  5
2C2
  8
TEAM-BODY
 10
-40.443159
 20
750.190987
 30
0.0
 70
    40
  0
VERTEX
  5
2C3
  8
TEAM-BODY
 10
-40.37561
 20
749.193829
 30
0.0
 70
    40
  0
VERTEX
  5
2C4
  8
TEAM-BODY
 10
-40.295152
 20
748.064434
 30
0.0
 70
    40
  0
VERTEX
  5
2C5
  8
TEAM-BODY
 10
-40.204445
 20
746.835592
 30
0.0
 70
    40
  0
VERTEX
  5
2C6
  8
TEAM-BODY
 10
-40.107278
 20
745.550739
 30
0.0
 70
    40
  0
VERTEX
  5
2C7
  8
TEAM-BODY
 10
-40.007441
 20
744.253307
 30
0.0
 70
    40
  0
VERTEX
  5
2C8
  8
TEAM-BODY
 10
-39.908724
 20
742.986731
 30
0.0
 70
    40
  0
VERTEX
  5
2C9
  8
TEAM-BODY
 10
-39.814916
 20
741.794442
 30
0.0
 70
    40
  0
VERTEX
  5
2CA
  8
TEAM-BODY
 10
-39.729806
 20
740.719876
 30
0.0
 70
    40
  0
VERTEX
  5
2CB
  8
TEAM-BODY
 10
-39.657186
 20
739.806465
 30
0.0
 70
    40
  0
VERTEX
  5
2CC
  8
TEAM-BODY
 10
-39.599574
 20
739.085459
 30
0.0
 70
    40
  0
VERTEX
  5
2CD
  8
TEAM-BODY
 10
-39.554413
 20
738.539378
 30
0.0
 70
    40
  0
VERTEX
  5
2CE
  8
TEAM-BODY
 10
-39.517876
 20
738.138557
 30
0.0
 70
    40
  0
VERTEX
  5
2CF
  8
TEAM-BODY
 10
-39.486135
 20
737.85333
 30
0.0
 70
    40
  0
VERTEX
  5
2D0
  8
TEAM-BODY
 10
-39.455364
 20
737.654034
 30
0.0
 70
    40
  0
VERTEX
  5
2D1
  8
TEAM-BODY
 10
-39.421734
 20
737.511003
 30
0.0
 70
    40
  0
VERTEX
  5
2D2
  8
TEAM-BODY
 10
-39.381419
 20
737.394573
 30
0.0
 70
    40
  0
VERTEX
  5
2D3
  8
TEAM-BODY
 10
-39.330592
 20
737.27508
 30
0.0
 70
    40
  0
VERTEX
  5
2D4
  8
TEAM-BODY
 10
-39.26666
 20
737.129166
 30
0.0
 70
    40
  0
VERTEX
  5
2D5
  8
TEAM-BODY
 10
-39.191973
 20
736.958705
 30
0.0
 70
    40
  0
VERTEX
  5
2D6
  8
TEAM-BODY
 10
-39.110116
 20
736.77188
 30
0.0
 70
    40
  0
VERTEX
  5
2D7
  8
TEAM-BODY
 10
-39.024674
 20
736.576873
 30
0.0
 70
    40
  0
VERTEX
  5
2D8
  8
TEAM-BODY
 10
-38.939231
 20
736.381866
 30
0.0
 70
    40
  0
VERTEX
  5
2D9
  8
TEAM-BODY
 10
-38.857374
 20
736.195041
 30
0.0
 70
    40
  0
VERTEX
  5
2DA
  8
TEAM-BODY
 10
-38.782687
 20
736.024581
 30
0.0
 70
    40
  0
VERTEX
  5
2DB
  8
TEAM-BODY
 10
-38.718755
 20
735.878666
 30
0.0
 70
    40
  0
VERTEX
  5
2DC
  8
TEAM-BODY
 10
-38.668267
 20
735.763435
 30
0.0
 70
    40
  0
VERTEX
  5
2DD
  8
TEAM-BODY
 10
-38.630326
 20
735.676841
 30
0.0
 70
    40
  0
VERTEX
  5
2DE
  8
TEAM-BODY
 10
-38.60314
 20
735.614793
 30
0.0
 70
    40
  0
VERTEX
  5
2DF
  8
TEAM-BODY
 10
-38.584916
 20
735.573201
 30
0.0
 70
    40
  0
VERTEX
  5
2E0
  8
TEAM-BODY
 10
-38.573862
 20
735.547973
 30
0.0
 70
    40
  0
VERTEX
  5
2E1
  8
TEAM-BODY
 10
-38.568186
 20
735.535018
 30
0.0
 70
    40
  0
VERTEX
  5
2E2
  8
TEAM-BODY
 10
-38.566095
 20
735.530245
 30
0.0
 70
    40
  0
VERTEX
  5
2E3
  8
TEAM-BODY
 10
-38.565796
 20
735.529563
 30
0.0
 70
    40
  0
VERTEX
  5
2E4
  8
TEAM-BODY
 10
-38.54674
 20
735.529563
 30
0.0
 70
    40
  0
VERTEX
  5
2E5
  8
TEAM-BODY
 10
-38.41335
 20
735.529563
 30
0.0
 70
    40
  0
VERTEX
  5
2E6
  8
TEAM-BODY
 10
-38.051292
 20
735.529563
 30
0.0
 70
    40
  0
VERTEX
  5
2E7
  8
TEAM-BODY
 10
-37.346232
 20
735.529563
 30
0.0
 70
    40
  0
VERTEX
  5
2E8
  8
TEAM-BODY
 10
-36.183834
 20
735.529563
 30
0.0
 70
    40
  0
VERTEX
  5
2E9
  8
TEAM-BODY
 10
-34.449766
 20
735.529563
 30
0.0
 70
    40
  0
VERTEX
  5
2EA
  8
TEAM-BODY
 10
-32.029693
 20
735.529563
 30
0.0
 70
    40
  0
VERTEX
  5
2EB
  8
TEAM-BODY
 10
-28.809281
 20
735.529563
 30
0.0
 70
    40
  0
VERTEX
  5
2EC
  8
TEAM-BODY
 10
-24.750418
 20
735.529563
 30
0.0
 70
    40
  0
VERTEX
  5
2ED
  8
TEAM-BODY
 10
-20.119884
 20
735.529563
 30
0.0
 70
    40
  0
VERTEX
  5
2EE
  8
TEAM-BODY
 10
-15.260682
 20
735.529563
 30
0.0
 70
    40
  0
VERTEX
  5
2EF
  8
TEAM-BODY
 10
-10.515814
 20
735.529563
 30
0.0
 70
    40
  0
VERTEX
  5
2F0
  8
TEAM-BODY
 10
-6.228283
 20
735.529563
 30
0.0
 70
    40
  0
VERTEX
  5
2F1
  8
TEAM-BODY
 10
-2.741091
 20
735.529563
 30
0.0
 70
    40
  0
VERTEX
  5
2F2
  8
TEAM-BODY
 10
-0.39724
 20
735.529563
 30
0.0
 70
    40
  0
VERTEX
  5
2F3
  8
TEAM-BODY
 10
0.460266
 20
735.529563
 30
0.0
 70
    40
  0
VERTEX
  5
2F4
  8
TEAM-BODY
 10
0.239776
 20
850.000007
 30
0.0
 70
    48
  0
VERTEX
  5
2F5
  8
TEAM-BODY
 10
-276.536442
 20
850.000007
 30
0.0
 70
    48
  0
VERTEX
  5
2F6
  8
TEAM-BODY
 10
-276.536442
 20
850.000007
 30
0.0
 70
    48
  0
VERTEX
  5
2F7
  8
TEAM-BODY
 10
-277.1428
 20
849.660987
 30
0.0
 70
    48
  0
VERTEX
  5
2F8
  8
TEAM-BODY
 10
-277.343983
 20
849.027106
 30
0.0
 70
    48
  0
VERTEX
  5
2F9
  8
TEAM-BODY
 10
-277.343983
 20
849.027106
 30
0.0
 70
    48
  0
VERTEX
  5
2FA
  8
TEAM-BODY
 10
-277.343983
 20
849.027106
 30
0.0
 70
    48
  0
VERTEX
  5
2FB
  8
TEAM-BODY
 10
-277.346739
 20
817.879737
 30
0.0
 70
    48
  0
VERTEX
  5
2FC
  8
TEAM-BODY
 10
-277.346739
 20
817.879737
 30
0.0
 70
    48
  0
VERTEX
  5
2FD
  8
TEAM-BODY
 10
-277.29714
 20
816.826941
 30
0.0
 70
    48
  0
VERTEX
  5
2FE
  8
TEAM-BODY
 10
-277.641628
 20
815.278022
 30
0.0
 70
    48
  0
VERTEX
  5
2FF
  8
TEAM-BODY
 10
-276.583294
 20
815.278022
 30
0.0
 70
    48
  0
VERTEX
  5
300
  8
TEAM-BODY
 10
-273.449637
 20
815.278022
 30
0.0
 70
    48
  0
VERTEX
  5
301
  8
TEAM-BODY
 10
-270.032101
 20
815.297309
 30
0.0
 70
    48
  0
VERTEX
  5
302
  8
TEAM-BODY
 10
-266.587017
 20
815.297309
 30
0.0
 70
    48
  0
VERTEX
  5
303
  8
TEAM-BODY
 10
-266.587017
 20
815.297309
 30
0.0
 70
    48
  0
VERTEX
  5
304
  8
TEAM-BODY
 10
-237.989968
 20
785.141242
 30
0.0
 70
    48
  0
VERTEX
  5
305
  8
TEAM-BODY
 10
-237.989968
 20
785.141242
 30
0.0
 70
    48
  0
VERTEX
  5
306
  8
TEAM-BODY
 10
-232.10849
 20
779.105445
 30
0.0
 70
    48
  0
VERTEX
  5
307
  8
TEAM-BODY
 10
-227.91375
 20
778.631385
 30
0.0
 70
    48
  0
VERTEX
  5
308
  8
TEAM-BODY
 10
-220.643212
 20
778.223487
 30
0.0
 70
    48
  0
VERTEX
  5
309
  8
TEAM-BODY
 10
-144.346756
 20
773.973639
 30
0.0
 70
    48
  0
VERTEX
  5
30A
  8
TEAM-BODY
 10
-117.29036
 20
772.656226
 30
0.0
 70
    48
  0
VERTEX
  5
30B
  8
TEAM-BODY
 10
-51.541367
 20
769.081611
 30
0.0
 70
    48
  0
VERTEX
  5
30C
  8
TEAM-BODY
 10
-45.621338
 20
768.301612
 30
0.0
 70
    48
  0
VERTEX
  5
30D
  8
TEAM-BODY
 10
-42.093552
 20
764.332862
 30
0.0
 70
    48
  0
VERTEX
  5
30E
  8
TEAM-BODY
 10
-41.443115
 20
759.923133
 30
0.0
 70
    48
  0
VERTEX
  5
30F
  8
TEAM-BODY
 10
-40.668671
 20
754.667304
 30
0.0
 70
    48
  0
VERTEX
  5
310
  8
TEAM-BODY
 10
-40.52536
 20
750.717872
 30
0.0
 70
    48
  0
VERTEX
  5
311
  8
TEAM-BODY
 10
-39.483551
 20
737.624183
 30
0.0
 70
    48
  0
VERTEX
  5
312
  8
TEAM-BODY
 10
-39.483551
 20
737.624183
 30
0.0
 70
    48
  0
VERTEX
  5
313
  8
TEAM-BODY
 10
-38.565796
 20
735.529563
 30
0.0
 70
    48
  0
VERTEX
  5
314
  8
TEAM-BODY
 10
-38.565796
 20
735.529563
 30
0.0
 70
    48
  0
VERTEX
  5
315
  8
TEAM-BODY
 10
-38.565796
 20
735.529563
 30
0.0
 70
    48
  0
VERTEX
  5
316
  8
TEAM-BODY
 10
0.460266
 20
735.529563
 30
0.0
 70
    48
  0
VERTEX
  5
317
  8
TEAM-BODY
 10
0.460266
 20
735.529563
 30
0.0
 70
    48
  0
SEQEND
  5
318
  8
TEAM-BODY
  0
POLYLINE
  5
319
  8
TEAM-BODY
 66
     1
 10
0.0
 20
0.0
 30
0.0
 70
    12
 75
     6
  0
VERTEX
  5
31A
  8
TEAM-BODY
 10
-0.440979
 20
845.052833
 30
0.0
 70
    48
  0
VERTEX
  5
31B
  8
TEAM-BODY
 10
-0.440979
 20
845.052833
 30
0.0
 70
    40
  0
VERTEX
  5
31C
  8
TEAM-BODY
 10
-5.580629
 20
845.074438
 30
0.0
 70
    40
  0
VERTEX
  5
31D
  8
TEAM-BODY
 10
-10.410192
 20
845.132136
 30
0.0
 70
    40
  0
VERTEX
  5
31E
  8
TEAM-BODY
 10
-14.898893
 20
845.215253
 30
0.0
 70
    40
  0
VERTEX
  5
31F
  8
TEAM-BODY
 10
-19.015959
 20
845.313113
 30
0.0
 70
    40
  0
VERTEX
  5
320
  8
TEAM-BODY
 10
-22.730616
 20
845.415044
 30
0.0
 70
    40
  0
VERTEX
  5
321
  8
TEAM-BODY
 10
-26.012089
 20
845.51037
 30
0.0
 70
    40
  0
VERTEX
  5
322
  8
TEAM-BODY
 10
-28.829605
 20
845.588416
 30
0.0
 70
    40
  0
VERTEX
  5
323
  8
TEAM-BODY
 10
-31.15239
 20
845.638509
 30
0.0
 70
    40
  0
VERTEX
  5
324
  8
TEAM-BODY
 10
-32.962722
 20
845.641294
 30
0.0
 70
    40
  0
VERTEX
  5
325
  8
TEAM-BODY
 10
-34.295097
 20
845.542706
 30
0.0
 70
    40
  0
VERTEX
  5
326
  8
TEAM-BODY
 10
-35.197061
 20
845.279998
 30
0.0
 70
    40
  0
VERTEX
  5
327
  8
TEAM-BODY
 10
-35.716163
 20
844.790425
 30
0.0
 70
    40
  0
VERTEX
  5
328
  8
TEAM-BODY
 10
-35.899949
 20
844.011242
 30
0.0
 70
    40
  0
VERTEX
  5
329
  8
TEAM-BODY
 10
-35.795967
 20
842.879702
 30
0.0
 70
    40
  0
VERTEX
  5
32A
  8
TEAM-BODY
 10
-35.451766
 20
841.33306
 30
0.0
 70
    40
  0
VERTEX
  5
32B
  8
TEAM-BODY
 10
-34.914892
 20
839.30857
 30
0.0
 70
    40
  0
VERTEX
  5
32C
  8
TEAM-BODY
 10
-34.230681
 20
836.767324
 30
0.0
 70
    40
  0
VERTEX
  5
32D
  8
TEAM-BODY
 10
-33.435618
 20
833.765755
 30
0.0
 70
    40
  0
VERTEX
  5
32E
  8
TEAM-BODY
 10
-32.563977
 20
830.384134
 30
0.0
 70
    40
  0
VERTEX
  5
32F
  8
TEAM-BODY
 10
-31.650031
 20
826.702732
 30
0.0
 70
    40
  0
VERTEX
  5
330
  8
TEAM-BODY
 10
-30.728054
 20
822.801821
 30
0.0
 70
    40
  0
VERTEX
  5
331
  8
TEAM-BODY
 10
-29.832319
 20
818.76167
 30
0.0
 70
    40
  0
VERTEX
  5
332
  8
TEAM-BODY
 10
-28.997099
 20
814.662551
 30
0.0
 70
    40
  0
VERTEX
  5
333
  8
TEAM-BODY
 10
-28.256668
 20
810.584733
 30
0.0
 70
    40
  0
VERTEX
  5
334
  8
TEAM-BODY
 10
-27.640911
 20
806.589991
 30
0.0
 70
    40
  0
VERTEX
  5
335
  8
TEAM-BODY
 10
-27.162155
 20
802.666102
 30
0.0
 70
    40
  0
VERTEX
  5
336
  8
TEAM-BODY
 10
-26.828341
 20
798.782346
 30
0.0
 70
    40
  0
VERTEX
  5
337
  8
TEAM-BODY
 10
-26.647409
 20
794.908005
 30
0.0
 70
    40
  0
VERTEX
  5
338
  8
TEAM-BODY
 10
-26.627298
 20
791.012359
 30
0.0
 70
    40
  0
VERTEX
  5
339
  8
TEAM-BODY
 10
-26.775949
 20
787.064687
 30
0.0
 70
    40
  0
VERTEX
  5
33A
  8
TEAM-BODY
 10
-27.101301
 20
783.03427
 30
0.0
 70
    40
  0
VERTEX
  5
33B
  8
TEAM-BODY
 10
-27.611293
 20
778.89039
 30
0.0
 70
    40
  0
VERTEX
  5
33C
  8
TEAM-BODY
 10
-28.304949
 20
774.622917
 30
0.0
 70
    40
  0
VERTEX
  5
33D
  8
TEAM-BODY
 10
-29.145625
 20
770.304089
 30
0.0
 70
    40
  0
VERTEX
  5
33E
  8
TEAM-BODY
 10
-30.087758
 20
766.026735
 30
0.0
 70
    40
  0
VERTEX
  5
33F
  8
TEAM-BODY
 10
-31.085789
 20
761.883685
 30
0.0
 70
    40
  0
VERTEX
  5
340
  8
TEAM-BODY
 10
-32.094154
 20
757.967767
 30
0.0
 70
    40
  0
VERTEX
  5
341
  8
TEAM-BODY
 10
-33.067293
 20
754.37181
 30
0.0
 70
    40
  0
VERTEX
  5
342
  8
TEAM-BODY
 10
-33.959645
 20
751.188644
 30
0.0
 70
    40
  0
VERTEX
  5
343
  8
TEAM-BODY
 10
-34.725647
 20
748.511097
 30
0.0
 70
    40
  0
VERTEX
  5
344
  8
TEAM-BODY
 10
-35.313279
 20
746.40406
 30
0.0
 70
    40
  0
VERTEX
  5
345
  8
TEAM-BODY
 10
-35.644673
 20
744.820664
 30
0.0
 70
    40
  0
VERTEX
  5
346
  8
TEAM-BODY
 10
-35.635504
 20
743.686106
 30
0.0
 70
    40
  0
VERTEX
  5
347
  8
TEAM-BODY
 10
-35.201444
 20
742.925578
 30
0.0
 70
    40
  0
VERTEX
  5
348
  8
TEAM-BODY
 10
-34.258167
 20
742.464273
 30
0.0
 70
    40
  0
VERTEX
  5
349
  8
TEAM-BODY
 10
-32.721345
 20
742.227388
 30
0.0
 70
    40
  0
VERTEX
  5
34A
  8
TEAM-BODY
 10
-30.506653
 20
742.140114
 30
0.0
 70
    40
  0
VERTEX
  5
34B
  8
TEAM-BODY
 10
-27.529763
 20
742.127646
 30
0.0
 70
    40
  0
VERTEX
  5
34C
  8
TEAM-BODY
 10
-23.77331
 20
742.127646
 30
0.0
 70
    40
  0
VERTEX
  5
34D
  8
TEAM-BODY
 10
-19.48778
 20
742.127646
 30
0.0
 70
    40
  0
VERTEX
  5
34E
  8
TEAM-BODY
 10
-14.990619
 20
742.127646
 30
0.0
 70
    40
  0
VERTEX
  5
34F
  8
TEAM-BODY
 10
-10.599273
 20
742.127646
 30
0.0
 70
    40
  0
VERTEX
  5
350
  8
TEAM-BODY
 10
-6.631189
 20
742.127646
 30
0.0
 70
    40
  0
VERTEX
  5
351
  8
TEAM-BODY
 10
-3.403815
 20
742.127646
 30
0.0
 70
    40
  0
VERTEX
  5
352
  8
TEAM-BODY
 10
-1.234596
 20
742.127646
 30
0.0
 70
    40
  0
VERTEX
  5
353
  8
TEAM-BODY
 10
-0.440979
 20
742.127646
 30
0.0
 70
    40
  0
VERTEX
  5
354
  8
TEAM-BODY
 10
-14.532807
 20
845.052833
 30
0.0
 70
    48
  0
VERTEX
  5
355
  8
TEAM-BODY
 10
-36.757782
 20
846.050544
 30
0.0
 70
    48
  0
VERTEX
  5
356
  8
TEAM-BODY
 10
-36.462891
 20
845.074897
 30
0.0
 70
    48
  0
VERTEX
  5
357
  8
TEAM-BODY
 10
-26.880005
 20
809.501288
 30
0.0
 70
    48
  0
VERTEX
  5
358
  8
TEAM-BODY
 10
-25.557099
 20
780.428351
 30
0.0
 70
    48
  0
VERTEX
  5
359
  8
TEAM-BODY
 10
-36.559357
 20
742.127646
 30
0.0
 70
    48
  0
VERTEX
  5
35A
  8
TEAM-BODY
 10
-36.559357
 20
742.127646
 30
0.0
 70
    48
  0
VERTEX
  5
35B
  8
TEAM-BODY
 10
-0.440979
 20
742.127646
 30
0.0
 70
    48
  0
VERTEX
  5
35C
  8
TEAM-BODY
 10
-0.440979
 20
742.127646
 30
0.0
 70
    48
  0
SEQEND
  5
35D
  8
TEAM-BODY
  0
POLYLINE
  5
35E
  8
TEAM-BODY
 66
     1
 10
0.0
 20
0.0
 30
0.0
 70
    12
 75
     6
  0
VERTEX
  5
35F
  8
TEAM-BODY
 10
-36.462891
 20
845.074897
 30
0.0
 70
    48
  0
VERTEX
  5
360
  8
TEAM-BODY
 10
-36.462891
 20
845.074897
 30
0.0
 70
    40
  0
VERTEX
  5
361
  8
TEAM-BODY
 10
-29.647087
 20
831.393838
 30
0.0
 70
    40
  0
VERTEX
  5
362
  8
TEAM-BODY
 10
-24.934869
 20
818.003544
 30
0.0
 70
    40
  0
VERTEX
  5
363
  8
TEAM-BODY
 10
-22.249854
 20
804.874725
 30
0.0
 70
    40
  0
VERTEX
  5
364
  8
TEAM-BODY
 10
-21.515656
 20
791.978093
 30
0.0
 70
    40
  0
VERTEX
  5
365
  8
TEAM-BODY
 10
-22.655892
 20
779.284358
 30
0.0
 70
    40
  0
VERTEX
  5
366
  8
TEAM-BODY
 10
-25.594177
 20
766.764232
 30
0.0
 70
    40
  0
VERTEX
  5
367
  8
TEAM-BODY
 10
-30.254127
 20
754.388424
 30
0.0
 70
    40
  0
VERTEX
  5
368
  8
TEAM-BODY
 10
-36.559357
 20
742.127646
 30
0.0
 70
    40
  0
VERTEX
  5
369
  8
TEAM-BODY
 10
-15.414734
 20
808.178351
 30
0.0
 70
    48
  0
VERTEX
  5
36A
  8
TEAM-BODY
 10
-17.619599
 20
774.695716
 30
0.0
 70
    48
  0
VERTEX
  5
36B
  8
TEAM-BODY
 10
-36.559357
 20
742.127646
 30
0.0
 70
    48
  0
SEQEND
  5
36C
  8
TEAM-BODY
  0
POLYLINE
  5
36D
  8
TEAM-BODY
 66
     1
 10
0.0
 20
0.0
 30
0.0
 70
    12
 75
     6
  0
VERTEX
  5
36E
  8
TEAM-BODY
 10
-266.587017
 20
815.297309
 30
0.0
 70
    48
  0
VERTEX
  5
36F
  8
TEAM-BODY
 10
-266.587017
 20
815.297309
 30
0.0
 70
    40
  0
VERTEX
  5
370
  8
TEAM-BODY
 10
-256.486061
 20
815.297309
 30
0.0
 70
    40
  0
VERTEX
  5
371
  8
TEAM-BODY
 10
-229.856268
 20
815.297309
 30
0.0
 70
    40
  0
VERTEX
  5
372
  8
TEAM-BODY
 10
-192.20725
 20
815.297309
 30
0.0
 70
    40
  0
VERTEX
  5
373
  8
TEAM-BODY
 10
-149.048621
 20
815.297309
 30
0.0
 70
    40
  0
VERTEX
  5
374
  8
TEAM-BODY
 10
-105.889991
 20
815.297309
 30
0.0
 70
    40
  0
VERTEX
  5
375
  8
TEAM-BODY
 10
-68.240973
 20
815.297309
 30
0.0
 70
    40
  0
VERTEX
  5
376
  8
TEAM-BODY
 10
-41.61118
 20
815.297309
 30
0.0
 70
    40
  0
VERTEX
  5
377
  8
TEAM-BODY
 10
-31.510224
 20
815.297309
 30
0.0
 70
    40
  0
VERTEX
  5
378
  8
TEAM-BODY
 10
-266.587017
 20
815.297309
 30
0.0
 70
    48
  0
VERTEX
  5
379
  8
TEAM-BODY
 10
-31.510224
 20
815.297309
 30
0.0
 70
    48
  0
VERTEX
  5
37A
  8
TEAM-BODY
 10
-31.510224
 20
815.297309
 30
0.0
 70
    48
  0
SEQEND
  5
37B
  8
TEAM-BODY
  0
POLYLINE
  5
37C
  8
TEAM-BODY
 66
     1
 10
0.0
 20
0.0
 30
0.0
 70
    12
 75
     6
  0
VERTEX
  5
37D
  8
TEAM-BODY
 10
-0.427185
 20
845.052833
 30
0.0
 70
    48
  0
VERTEX
  5
37E
  8
TEAM-BODY
 10
-0.427185
 20
845.052833
 30
0.0
 70
    40
  0
VERTEX
  5
37F
  8
TEAM-BODY
 10
4.711668
 20
845.074438
 30
0.0
 70
    40
  0
VERTEX
  5
380
  8
TEAM-BODY
 10
9.540868
 20
845.132136
 30
0.0
 70
    40
  0
VERTEX
  5
381
  8
TEAM-BODY
 10
14.029552
 20
845.215253
 30
0.0
 70
    40
  0
VERTEX
  5
382
  8
TEAM-BODY
 10
18.146861
 20
845.313113
 30
0.0
 70
    40
  0
VERTEX
  5
383
  8
TEAM-BODY
 10
21.861935
 20
845.415044
 30
0.0
 70
    40
  0
VERTEX
  5
384
  8
TEAM-BODY
 10
25.143913
 20
845.51037
 30
0.0
 70
    40
  0
VERTEX
  5
385
  8
TEAM-BODY
 10
27.961934
 20
845.588416
 30
0.0
 70
    40
  0
VERTEX
  5
386
  8
TEAM-BODY
 10
30.285138
 20
845.638509
 30
0.0
 70
    40
  0
VERTEX
  5
387
  8
TEAM-BODY
 10
32.095736
 20
845.641294
 30
0.0
 70
    40
  0
VERTEX
  5
388
  8
TEAM-BODY
 10
33.428226
 20
845.542706
 30
0.0
 70
    40
  0
VERTEX
  5
389
  8
TEAM-BODY
 10
34.330176
 20
845.279998
 30
0.0
 70
    40
  0
VERTEX
  5
38A
  8
TEAM-BODY
 10
34.849156
 20
844.790425
 30
0.0
 70
    40
  0
VERTEX
  5
38B
  8
TEAM-BODY
 10
35.032734
 20
844.011242
 30
0.0
 70
    40
  0
VERTEX
  5
38C
  8
TEAM-BODY
 10
34.928479
 20
842.879702
 30
0.0
 70
    40
  0
VERTEX
  5
38D
  8
TEAM-BODY
 10
34.583961
 20
841.33306
 30
0.0
 70
    40
  0
VERTEX
  5
38E
  8
TEAM-BODY
 10
34.046748
 20
839.30857
 30
0.0
 70
    40
  0
VERTEX
  5
38F
  8
TEAM-BODY
 10
33.362194
 20
836.767324
 30
0.0
 70
    40
  0
VERTEX
  5
390
  8
TEAM-BODY
 10
32.566792
 20
833.765755
 30
0.0
 70
    40
  0
VERTEX
  5
391
  8
TEAM-BODY
 10
31.694823
 20
830.384134
 30
0.0
 70
    40
  0
VERTEX
  5
392
  8
TEAM-BODY
 10
30.780565
 20
826.702732
 30
0.0
 70
    40
  0
VERTEX
  5
393
  8
TEAM-BODY
 10
29.858297
 20
822.801821
 30
0.0
 70
    40
  0
VERTEX
  5
394
  8
TEAM-BODY
 10
28.962297
 20
818.76167
 30
0.0
 70
    40
  0
VERTEX
  5
395
  8
TEAM-BODY
 10
28.126845
 20
814.662551
 30
0.0
 70
    40
  0
VERTEX
  5
396
  8
TEAM-BODY
 10
27.38622
 20
810.584733
 30
0.0
 70
    40
  0
VERTEX
  5
397
  8
TEAM-BODY
 10
26.770311
 20
806.589991
 30
0.0
 70
    40
  0
VERTEX
  5
398
  8
TEAM-BODY
 10
26.291447
 20
802.666102
 30
0.0
 70
    40
  0
VERTEX
  5
399
  8
TEAM-BODY
 10
25.957567
 20
798.782346
 30
0.0
 70
    40
  0
VERTEX
  5
39A
  8
TEAM-BODY
 10
25.776613
 20
794.908005
 30
0.0
 70
    40
  0
VERTEX
  5
39B
  8
TEAM-BODY
 10
25.756524
 20
791.012359
 30
0.0
 70
    40
  0
VERTEX
  5
39C
  8
TEAM-BODY
 10
25.905238
 20
787.064687
 30
0.0
 70
    40
  0
VERTEX
  5
39D
  8
TEAM-BODY
 10
26.230697
 20
783.03427
 30
0.0
 70
    40
  0
VERTEX
  5
39E
  8
TEAM-BODY
 10
26.74084
 20
778.89039
 30
0.0
 70
    40
  0
VERTEX
  5
39F
  8
TEAM-BODY
 10
27.434687
 20
774.622917
 30
0.0
 70
    40
  0
VERTEX
  5
3A0
  8
TEAM-BODY
 10
28.275586
 20
770.304089
 30
0.0
 70
    40
  0
VERTEX
  5
3A1
  8
TEAM-BODY
 10
29.217965
 20
766.026735
 30
0.0
 70
    40
  0
VERTEX
  5
3A2
  8
TEAM-BODY
 10
30.216251
 20
761.883685
 30
0.0
 70
    40
  0
VERTEX
  5
3A3
  8
TEAM-BODY
 10
31.224872
 20
757.967767
 30
0.0
 70
    40
  0
VERTEX
  5
3A4
  8
TEAM-BODY
 10
32.198256
 20
754.37181
 30
0.0
 70
    40
  0
VERTEX
  5
3A5
  8
TEAM-BODY
 10
33.090831
 20
751.188644
 30
0.0
 70
    40
  0
VERTEX
  5
3A6
  8
TEAM-BODY
 10
33.857025
 20
748.511097
 30
0.0
 70
    40
  0
VERTEX
  5
3A7
  8
TEAM-BODY
 10
34.444807
 20
746.40406
 30
0.0
 70
    40
  0
VERTEX
  5
3A8
  8
TEAM-BODY
 10
34.776315
 20
744.820664
 30
0.0
 70
    40
  0
VERTEX
  5
3A9
  8
TEAM-BODY
 10
34.767227
 20
743.686106
 30
0.0
 70
    40
  0
VERTEX
  5
3AA
  8
TEAM-BODY
 10
34.333222
 20
742.925578
 30
0.0
 70
    40
  0
VERTEX
  5
3AB
  8
TEAM-BODY
 10
33.389978
 20
742.464273
 30
0.0
 70
    40
  0
VERTEX
  5
3AC
  8
TEAM-BODY
 10
31.853173
 20
742.227388
 30
0.0
 70
    40
  0
VERTEX
  5
3AD
  8
TEAM-BODY
 10
29.638487
 20
742.140114
 30
0.0
 70
    40
  0
VERTEX
  5
3AE
  8
TEAM-BODY
 10
26.661598
 20
742.127646
 30
0.0
 70
    40
  0
VERTEX
  5
3AF
  8
TEAM-BODY
 10
22.905145
 20
742.127646
 30
0.0
 70
    40
  0
VERTEX
  5
3B0
  8
TEAM-BODY
 10
18.619615
 20
742.127646
 30
0.0
 70
    40
  0
VERTEX
  5
3B1
  8
TEAM-BODY
 10
14.122454
 20
742.127646
 30
0.0
 70
    40
  0
VERTEX
  5
3B2
  8
TEAM-BODY
 10
9.731109
 20
742.127646
 30
0.0
 70
    40
  0
VERTEX
  5
3B3
  8
TEAM-BODY
 10
5.763025
 20
742.127646
 30
0.0
 70
    40
  0
VERTEX
  5
3B4
  8
TEAM-BODY
 10
2.535651
 20
742.127646
 30
0.0
 70
    40
  0
VERTEX
  5
3B5
  8
TEAM-BODY
 10
0.366432
 20
742.127646
 30
0.0
 70
    40
  0
VERTEX
  5
3B6
  8
TEAM-BODY
 10
-0.427185
 20
742.127646
 30
0.0
 70
    40
  0
VERTEX
  5
3B7
  8
TEAM-BODY
 10
13.661865
 20
845.052833
 30
0.0
 70
    48
  0
VERTEX
  5
3B8
  8
TEAM-BODY
 10
35.892364
 20
846.050544
 30
0.0
 70
    48
  0
VERTEX
  5
3B9
  8
TEAM-BODY
 10
35.594757
 20
845.074897
 30
0.0
 70
    48
  0
VERTEX
  5
3BA
  8
TEAM-BODY
 10
26.009094
 20
809.501288
 30
0.0
 70
    48
  0
VERTEX
  5
3BB
  8
TEAM-BODY
 10
24.686188
 20
780.428351
 30
0.0
 70
    48
  0
VERTEX
  5
3BC
  8
TEAM-BODY
 10
35.691192
 20
742.127646
 30
0.0
 70
    48
  0
VERTEX
  5
3BD
  8
TEAM-BODY
 10
35.691192
 20
742.127646
 30
0.0
 70
    48
  0
VERTEX
  5
3BE
  8
TEAM-BODY
 10
-0.427185
 20
742.127646
 30
0.0
 70
    48
  0
VERTEX
  5
3BF
  8
TEAM-BODY
 10
-0.427185
 20
742.127646
 30
0.0
 70
    48
  0
SEQEND
  5
3C0
  8
TEAM-BODY
  0
POLYLINE
  5
3C1
  8
TEAM-BODY
 66
     1
 10
0.0
 20
0.0
 30
0.0
 70
    12
 75
     6
  0
VERTEX
  5
3C2
  8
TEAM-BODY
 10
35.594757
 20
845.074897
 30
0.0
 70
    48
  0
VERTEX
  5
3C3
  8
TEAM-BODY
 10
35.594757
 20
845.074897
 30
0.0
 70
    40
  0
VERTEX
  5
3C4
  8
TEAM-BODY
 10
28.778042
 20
831.393838
 30
0.0
 70
    40
  0
VERTEX
  5
3C5
  8
TEAM-BODY
 10
24.065173
 20
818.003544
 30
0.0
 70
    40
  0
VERTEX
  5
3C6
  8
TEAM-BODY
 10
21.379765
 20
804.874725
 30
0.0
 70
    40
  0
VERTEX
  5
3C7
  8
TEAM-BODY
 10
20.645435
 20
791.978093
 30
0.0
 70
    40
  0
VERTEX
  5
3C8
  8
TEAM-BODY
 10
21.785798
 20
779.284358
 30
0.0
 70
    40
  0
VERTEX
  5
3C9
  8
TEAM-BODY
 10
24.724468
 20
766.764232
 30
0.0
 70
    40
  0
VERTEX
  5
3CA
  8
TEAM-BODY
 10
29.385061
 20
754.388424
 30
0.0
 70
    40
  0
VERTEX
  5
3CB
  8
TEAM-BODY
 10
35.691192
 20
742.127646
 30
0.0
 70
    40
  0
VERTEX
  5
3CC
  8
TEAM-BODY
 10
14.543823
 20
808.178351
 30
0.0
 70
    48
  0
VERTEX
  5
3CD
  8
TEAM-BODY
 10
16.748688
 20
774.695716
 30
0.0
 70
    48
  0
VERTEX
  5
3CE
  8
TEAM-BODY
 10
35.691192
 20
742.127646
 30
0.0
 70
    48
  0
SEQEND
  5
3CF
  8
TEAM-BODY
  0
LINE
  5
3D0
  8
TEAM-AXE
 10
-20.0
 20
630.0
 30
0.0
 11
20.0
 21
630.0
 31
0.0
  0
CIRCLE
  5
3D1
  8
TEAM-KAN
 10
0.0
 20
630.0
 30
0.0
 40
20.0
  0
TEXT
  5
3D3
  8
TEAM-TXT
 10
-212.095366
 20
869.720339
 30
0.0
 40
30.0
  1
team 231036
 41
0.8
 51
15.0
  7
TEAM
  0
CIRCLE
  5
3D6
  8
TEAM-KAN
 10
0.0
 20
630.0
 30
0.0
 40
20.0
  0
CIRCLE
  5
3D7
  8
TEAM-WARM
 10
-60.0
 20
680.0
 30
0.0
 40
10.0
  0
LINE
  5
3D9
  8
TEAM-AXE
 10
-70.0
 20
680.0
 30
0.0
 11
-50.0
 21
680.0
 31
0.0
  0
LINE
  5
3DA
  8
TEAM-AXE
 10
-60.0
 20
690.0
 30
0.0
 11
-60.0
 21
670.0
 31
0.0
210
0.0
220
-0.0
230
-1.0
  0
LINE
  5
3DB
  8
TEAM-AXE
 10
0.0
 20
650.0
 30
0.0
 11
0.0
 21
610.0
 31
0.0
210
0.0
220
-0.0
230
-1.0
  0
LINE
  5
3DC
  8
TEAM-AXE
 10
0.0
 20
850.000007
 30
0.0
 11
0.0
 21
650.0
 31
0.0
210
0.0
220
-0.0
230
-1.0
  0
LINE
  5
3DD
  8
TEAM-AXE
 10
60.0
 20
690.0
 30
0.0
 11
60.0
 21
670.0
 31
0.0
210
0.0
220
-0.0
230
-1.0
  0
ENDSEC
  0
EOF
