  0
SECTION
  2
HEADER
  9
$ACADVER
  1
AC1009
  9
$INSBASE
 10
0.0
 20
0.0
 30
0.0
  9
$EXTMIN
 10
-390.644875
 20
-644.537874
 30
-0.000003
  9
$EXTMAX
 10
290.03642
 20
10.013521
 30
0.000007
  9
$LIMMIN
 10
-390.644875
 20
-644.537874
  9
$LIMMAX
 10
290.03642
 20
10.013521
  9
$ORTHOMODE
 70
     1
  9
$REGENMODE
 70
     1
  9
$FILLMODE
 70
     1
  9
$QTEXTMODE
 70
     0
  9
$MIRRTEXT
 70
     0
  9
$DRAGMODE
 70
     2
  9
$LTSCALE
 40
50.0
  9
$OSMODE
 70
     0
  9
$ATTMODE
 70
     1
  9
$TEXTSIZE
 40
200.0
  9
$TRACEWID
 40
1.0
  9
$TEXTSTYLE
  7
STANDARD
  9
$CLAYER
  8
TEAM-MAS
  9
$CELTYPE
  6
BYLAYER
  9
$CECOLOR
 62
   256
  9
$DIMSCALE
 40
0.0
  9
$DIMASZ
 40
20.0
  9
$DIMEXO
 40
10.0
  9
$DIMDLI
 40
1.0
  9
$DIMRND
 40
0.0
  9
$DIMDLE
 40
0.0
  9
$DIMEXE
 40
1.0
  9
$DIMTP
 40
0.0
  9
$DIMTM
 40
0.0
  9
$DIMTXT
 40
35.0
  9
$DIMCEN
 40
1.0
  9
$DIMTSZ
 40
0.0
  9
$DIMTOL
 70
     0
  9
$DIMLIM
 70
     0
  9
$DIMTIH
 70
     0
  9
$DIMTOH
 70
     0
  9
$DIMSE1
 70
     0
  9
$DIMSE2
 70
     0
  9
$DIMTAD
 70
     0
  9
$DIMZIN
 70
     0
  9
$DIMBLK
  1

  9
$DIMASO
 70
     1
  9
$DIMSHO
 70
     0
  9
$DIMPOST
  1

  9
$DIMAPOST
  1

  9
$DIMALT
 70
     0
  9
$DIMALTD
 70
     2
  9
$DIMALTF
 40
25.4
  9
$DIMLFAC
 40
1.0
  9
$DIMTOFL
 70
     0
  9
$DIMTVP
 40
0.0
  9
$DIMTIX
 70
     0
  9
$DIMSOXD
 70
     0
  9
$DIMSAH
 70
     0
  9
$DIMBLK1
  1

  9
$DIMBLK2
  1

  9
$DIMSTYLE
  2
TEAM
  9
$DIMCLRD
 70
     9
  9
$DIMCLRE
 70
     9
  9
$DIMCLRT
 70
    11
  9
$DIMTFAC
 40
1.0
  9
$DIMGAP
 40
7.0
  9
$LUNITS
 70
     2
  9
$LUPREC
 70
     1
  9
$SKETCHINC
 40
1.0
  9
$FILLETRAD
 40
10.0
  9
$AUNITS
 70
     0
  9
$AUPREC
 70
     0
  9
$MENU
  1
ROPLANS
  9
$ELEVATION
 40
0.0
  9
$PELEVATION
 40
0.0
  9
$THICKNESS
 40
0.0
  9
$LIMCHECK
 70
     0
  9
$BLIPMODE
 70
     1
  9
$CHAMFERA
 40
0.0
  9
$CHAMFERB
 40
0.0
  9
$SKPOLY
 70
     0
  9
$TDCREATE
 40
2450392.957851
  9
$TDUPDATE
 40
2456203.941022
  9
$TDINDWG
 40
2.322858
  9
$TDUSRTIMER
 40
2.322858
  9
$USRTIMER
 70
     1
  9
$ANGBASE
 50
0.0
  9
$ANGDIR
 70
     0
  9
$PDMODE
 70
     0
  9
$PDSIZE
 40
0.0
  9
$PLINEWID
 40
0.0
  9
$COORDS
 70
     2
  9
$SPLFRAME
 70
     0
  9
$SPLINETYPE
 70
     6
  9
$SPLINESEGS
 70
     8
  9
$ATTDIA
 70
     0
  9
$ATTREQ
 70
     0
  9
$HANDLING
 70
     1
  9
$HANDSEED
  5
CB
  9
$SURFTAB1
 70
    36
  9
$SURFTAB2
 70
    36
  9
$SURFTYPE
 70
     6
  9
$SURFU
 70
     6
  9
$SURFV
 70
     6
  9
$UCSNAME
  2

  9
$UCSORG
 10
0.0
 20
0.0
 30
0.0
  9
$UCSXDIR
 10
1.0
 20
0.0
 30
0.0
  9
$UCSYDIR
 10
0.0
 20
1.0
 30
0.0
  9
$PUCSNAME
  2

  9
$PUCSORG
 10
0.0
 20
0.0
 30
0.0
  9
$PUCSXDIR
 10
1.0
 20
0.0
 30
0.0
  9
$PUCSYDIR
 10
0.0
 20
1.0
 30
0.0
  9
$USERI1
 70
     0
  9
$USERI2
 70
     0
  9
$USERI3
 70
     0
  9
$USERI4
 70
     0
  9
$USERI5
 70
     0
  9
$USERR1
 40
0.0
  9
$USERR2
 40
0.0
  9
$USERR3
 40
0.0
  9
$USERR4
 40
0.0
  9
$USERR5
 40
0.0
  9
$WORLDVIEW
 70
     1
  9
$SHADEDGE
 70
     0
  9
$SHADEDIF
 70
    70
  9
$TILEMODE
 70
     1
  9
$MAXACTVP
 70
    16
  9
$PLIMCHECK
 70
     0
  9
$PEXTMIN
 10
-0.805942
 20
0.005011
 30
0.0
  9
$PEXTMAX
 10
20.250094
 20
11.356329
 30
0.0
  9
$PLIMMIN
 10
0.0
 20
0.0
  9
$PLIMMAX
 10
12.0
 20
9.0
  9
$UNITMODE
 70
     0
  9
$VISRETAIN
 70
     0
  9
$PLINEGEN
 70
     0
  9
$PSLTSCALE
 70
     0
  0
ENDSEC
  0
SECTION
  2
TABLES
  0
TABLE
  2
VPORT
 70
     2
  0
VPORT
  2
*ACTIVE
 70
     0
 10
0.0
 20
0.0
 11
1.0
 21
1.0
 12
-50.304228
 22
-317.262176
 13
0.0
 23
0.0
 14
1.0
 24
1.0
 15
50.0
 25
50.0
 16
0.0
 26
0.0
 36
1.0
 17
0.0
 27
0.0
 37
0.0
 40
658.67239
 41
1.911765
 42
50.0
 43
0.0
 44
0.0
 50
0.0
 51
0.0
 71
     0
 72
   100
 73
     1
 74
     1
 75
     0
 76
     0
 77
     0
 78
     0
  0
ENDTAB
  0
TABLE
  2
LTYPE
 70
     2
  0
LTYPE
  2
CONTINUOUS
 70
     0
  3
Solid Line
 72
    65
 73
     0
 40
0.0
  0
LTYPE
  2
31
 70
     0
  3

 72
    65
 73
     4
 40
2.1
 49
1.5
 49
-0.3
 49
0.0
 49
-0.3
  0
ENDTAB
  0
TABLE
  2
LAYER
 70
     8
  0
LAYER
  2
0
 70
     0
 62
     7
  6
CONTINUOUS
  0
LAYER
  2
DEFPOINTS
 70
     0
 62
     7
  6
CONTINUOUS
  0
LAYER
  2
TEAM-BODY
 70
     0
 62
     2
  6
CONTINUOUS
  0
LAYER
  2
TEAM-AXE
 70
     0
 62
    10
  6
31
  0
LAYER
  2
TEAM-MAS
 70
     0
 62
     9
  6
CONTINUOUS
  0
LAYER
  2
TEAM-TXT
 70
     0
 62
    11
  6
CONTINUOUS
  0
LAYER
  2
TEAM-DET1
 70
     0
 62
     4
  6
CONTINUOUS
  0
LAYER
  2
TEAM-INSP
 70
     0
 62
     5
  6
CONTINUOUS
  0
ENDTAB
  0
TABLE
  2
STYLE
 70
     2
  0
STYLE
  2
STANDARD
 70
     0
 40
0.0
 41
1.0
 50
0.0
 71
     0
 42
200.0
  3
txt
  4

  0
STYLE
  2
TEAM
 70
     0
 40
0.0
 41
0.8
 50
15.0
 71
     0
 42
7.0
  3
ROMANS.shx
  4

  0
ENDTAB
  0
TABLE
  2
VIEW
 70
     0
  0
ENDTAB
  0
TABLE
  2
UCS
 70
     0
  0
ENDTAB
  0
TABLE
  2
APPID
 70
     1
  0
APPID
  2
ACAD
 70
     0
  0
ENDTAB
  0
TABLE
  2
DIMSTYLE
 70
     1
  0
DIMSTYLE
  2
TEAM
 70
     0
  3

  4

  5

  6

  7

 40
0.0
 41
20.0
 42
10.0
 43
1.0
 44
1.0
 45
0.0
 46
0.0
 47
0.0
 48
0.0
140
35.0
141
1.0
142
0.0
143
25.4
144
1.0
145
0.0
146
1.0
147
7.0
 71
     0
 72
     0
 73
     0
 74
     0
 75
     0
 76
     0
 77
     0
 78
     0
170
     0
171
     2
172
     0
173
     0
174
     0
175
     0
176
     9
177
     9
178
    11
  0
ENDTAB
  0
ENDSEC
  0
SECTION
  2
BLOCKS
  0
BLOCK
  8
0
  2
$MODEL_SPACE
 70
     0
 10
0.0
 20
0.0
 30
0.0
  3
$MODEL_SPACE
  1

  0
ENDBLK
  5
B3
  8
0
  0
BLOCK
 67
     1
  8
0
  2
$PAPER_SPACE
 70
     0
 10
0.0
 20
0.0
 30
0.0
  3
$PAPER_SPACE
  1

  0
ENDBLK
  5
B1
 67
     1
  8
0
  0
BLOCK
  8
0
  2
*D0
 70
     1
 10
0.0
 20
0.0
 30
0.0
  3
*D0
  1

  0
LINE
  5
46
  8
0
  6
BYBLOCK
 62
     9
 10
3950.0
 20
-330.0
 30
0.0
 11
3672.050671
 21
-330.0
 31
0.0
  0
LINE
  5
47
  8
0
  6
BYBLOCK
 62
     9
 10
3990.0
 20
0.0
 30
0.0
 11
3672.050671
 21
0.0
 31
0.0
  0
LINE
  5
48
  8
0
  6
BYBLOCK
 62
     9
 10
3673.050671
 20
-310.0
 30
0.0
 11
3673.050671
 21
-250.75
 31
0.0
  0
LINE
  5
49
  8
0
  6
BYBLOCK
 62
     9
 10
3673.050671
 20
-20.0
 30
0.0
 11
3673.050671
 21
-79.25
 31
0.0
  0
SOLID
  5
4A
  8
0
  6
BYBLOCK
 62
     9
 10
3669.717338
 20
-310.0
 30
0.0
 11
3676.384004
 21
-310.0
 31
0.0
 12
3673.050671
 22
-330.0
 32
0.0
 13
3673.050671
 23
-330.0
 33
0.0
  0
SOLID
  5
4B
  8
0
  6
BYBLOCK
 62
     9
 10
3669.717338
 20
-20.0
 30
0.0
 11
3676.384004
 21
-20.0
 31
0.0
 12
3673.050671
 22
0.0
 32
0.0
 13
3673.050671
 23
0.0
 33
0.0
  0
TEXT
  5
4C
  8
0
  6
BYBLOCK
 62
    11
 10
3690.550671
 20
-243.75
 30
0.0
 40
35.0
  1
330.00
 50
90.0
  0
POINT
  5
4D
  8
DEFPOINTS
  6
BYBLOCK
 62
     0
 10
3960.0
 20
-330.0
 30
0.0
  0
POINT
  5
4E
  8
DEFPOINTS
  6
BYBLOCK
 62
     0
 10
4000.0
 20
0.0
 30
0.0
  0
POINT
  5
4F
  8
DEFPOINTS
  6
BYBLOCK
 62
     0
 10
3673.050671
 20
0.0
 30
0.0
  0
ENDBLK
  5
51
  8
0
  0
BLOCK
  8
0
  2
*D1
 70
     1
 10
0.0
 20
0.0
 30
0.0
  3
*D1
  1

  0
LINE
  5
38
  8
0
  6
BYBLOCK
 62
     9
 10
3990.0
 20
-580.0
 30
0.0
 11
3625.901424
 21
-580.0
 31
0.0
  0
LINE
  5
39
  8
0
  6
BYBLOCK
 62
     9
 10
3990.0
 20
0.0
 30
0.0
 11
3625.901424
 21
0.0
 31
0.0
  0
LINE
  5
3A
  8
0
  6
BYBLOCK
 62
     9
 10
3626.901424
 20
-560.0
 30
0.0
 11
3626.901424
 21
-375.75
 31
0.0
  0
LINE
  5
3B
  8
0
  6
BYBLOCK
 62
     9
 10
3626.901424
 20
-20.0
 30
0.0
 11
3626.901424
 21
-204.25
 31
0.0
  0
SOLID
  5
3C
  8
0
  6
BYBLOCK
 62
     9
 10
3623.568091
 20
-560.0
 30
0.0
 11
3630.234757
 21
-560.0
 31
0.0
 12
3626.901424
 22
-580.0
 32
0.0
 13
3626.901424
 23
-580.0
 33
0.0
  0
SOLID
  5
3D
  8
0
  6
BYBLOCK
 62
     9
 10
3623.568091
 20
-20.0
 30
0.0
 11
3630.234757
 21
-20.0
 31
0.0
 12
3626.901424
 22
0.0
 32
0.0
 13
3626.901424
 23
0.0
 33
0.0
  0
TEXT
  5
3E
  8
0
  6
BYBLOCK
 62
    11
 10
3644.401424
 20
-368.75
 30
0.0
 40
35.0
  1
580.00
 50
90.0
  0
POINT
  5
3F
  8
DEFPOINTS
  6
BYBLOCK
 62
     0
 10
4000.0
 20
-580.0
 30
0.0
  0
POINT
  5
40
  8
DEFPOINTS
  6
BYBLOCK
 62
     0
 10
4000.0
 20
0.0
 30
0.0
  0
POINT
  5
41
  8
DEFPOINTS
  6
BYBLOCK
 62
     0
 10
3626.901424
 20
0.0
 30
0.0
  0
ENDBLK
  5
43
  8
0
  0
BLOCK
  8
0
  2
*D2
 70
     1
 10
0.0
 20
0.0
 30
0.0
  3
*D2
  1

  0
LINE
  5
25
  8
0
  6
BYBLOCK
 62
     9
 10
3710.0
 20
-300.0
 30
0.0
 11
3710.0
 21
-628.031752
 31
0.0
  0
LINE
  5
26
  8
0
  6
BYBLOCK
 62
     9
 10
4290.0
 20
-300.0
 30
0.0
 11
4290.0
 21
-628.031752
 31
0.0
  0
LINE
  5
27
  8
0
  6
BYBLOCK
 62
     9
 10
3730.0
 20
-627.031752
 30
0.0
 11
3914.25
 21
-627.031752
 31
0.0
  0
LINE
  5
28
  8
0
  6
BYBLOCK
 62
     9
 10
4270.0
 20
-627.031752
 30
0.0
 11
4085.75
 21
-627.031752
 31
0.0
  0
SOLID
  5
29
  8
0
  6
BYBLOCK
 62
     9
 10
3730.0
 20
-623.698418
 30
0.0
 11
3730.0
 21
-630.365085
 31
0.0
 12
3710.0
 22
-627.031752
 32
0.0
 13
3710.0
 23
-627.031752
 33
0.0
  0
SOLID
  5
2A
  8
0
  6
BYBLOCK
 62
     9
 10
4270.0
 20
-623.698418
 30
0.0
 11
4270.0
 21
-630.365085
 31
0.0
 12
4290.0
 22
-627.031752
 32
0.0
 13
4290.0
 23
-627.031752
 33
0.0
  0
TEXT
  5
2B
  8
0
  6
BYBLOCK
 62
    11
 10
3921.25
 20
-644.531752
 30
0.0
 40
35.0
  1
580.00
  0
POINT
  5
2C
  8
DEFPOINTS
  6
BYBLOCK
 62
     0
 10
3710.0
 20
-290.0
 30
0.0
  0
POINT
  5
2E
  8
DEFPOINTS
  6
BYBLOCK
 62
     0
 10
4290.0
 20
-290.0
 30
0.0
  0
POINT
  5
2F
  8
DEFPOINTS
  6
BYBLOCK
 62
     0
 10
4290.0
 20
-627.031752
 30
0.0
  0
ENDBLK
  5
31
  8
0
  0
ENDSEC
  0
SECTION
  2
ENTITIES
  0
TEXT
  5
20
  8
TEAM-TXT
 10
-126.354514
 20
-226.021054
 30
0.0
 40
30.0
  1
team 232008
 41
0.8
 51
15.0
  7
TEAM
  0
DIMENSION
  5
23
  8
TEAM-MAS
  2
*D2
 10
290.0
 20
-627.031752
 30
0.0
 11
0.0
 21
-627.031752
 31
0.0
 12
-4000.0
 22
0.0
 32
0.0
 13
-290.0
 23
-290.0
 33
0.0
 14
290.0
 24
-290.0
 34
0.0
1001
ACAD
1000
DSTYLE
1002
{
1070
    40
1040
1.0
1002
}
  0
CIRCLE
  5
32
  8
TEAM-BODY
 10
0.0
 20
-290.0
 30
0.0
 40
290.0
  0
CIRCLE
  5
34
  8
TEAM-DET1
 10
0.0
 20
-330.0
 30
0.0
 40
209.954557
  0
DIMENSION
  5
36
  8
TEAM-MAS
  2
*D1
 10
-373.098576
 20
0.0
 30
0.0
 11
-373.098576
 21
-290.0
 31
0.0
 12
-4000.0
 22
0.0
 32
0.0
 13
0.0
 23
-580.0
 33
0.0
 14
0.0
 24
0.0
 34
0.0
 50
90.0
1001
ACAD
1000
DSTYLE
1002
{
1070
    40
1040
1.0
1002
}
  0
DIMENSION
  5
44
  8
TEAM-MAS
  2
*D0
 10
-326.949329
 20
0.0
 30
0.0
 11
-326.949329
 21
-165.0
 31
0.0
 12
-4000.0
 22
0.0
 32
0.0
 13
-40.0
 23
-330.0
 33
0.0
 14
0.0
 24
0.0
 34
0.0
 50
90.0
1001
ACAD
1000
DSTYLE
1002
{
1070
    40
1040
1.0
1002
}
  0
LINE
  5
52
  8
TEAM-AXE
 10
0.0
 20
-43.25985
 30
0.0
 11
0.0
 21
-85.25985
 31
0.0
  0
ARC
  5
55
  8
TEAM-DET1
 10
0.0
 20
-64.25985
 30
0.0
 40
13.5
 50
0.0
 51
180.0
  0
ARC
  5
56
  8
TEAM-DET1
 10
0.0
 20
-64.25985
 30
0.0
 40
13.5
 50
180.0
 51
0.0
  0
LINE
  5
57
  8
TEAM-AXE
 10
-21.0
 20
-64.25985
 30
0.0
 11
21.0
 21
-64.25985
 31
0.0
  0
CIRCLE
  5
58
  8
TEAM-INSP
 10
0.0
 20
0.0
 30
0.0
 40
10.0
  0
POLYLINE
  5
5A
  8
TEAM-DET1
 66
     1
 10
0.0
 20
0.0
 30
0.0
 70
     1
  0
VERTEX
  5
B9
  8
TEAM-DET1
 10
13.363197
 20
-133.741938
 30
0.0
 42
0.221169
  0
VERTEX
  5
BA
  8
TEAM-DET1
 10
12.687845
 20
-132.28984
 30
0.0
 42
0.091345
  0
VERTEX
  5
BB
  8
TEAM-DET1
 10
9.449208
 20
-130.444308
 30
0.0
 42
0.04809
  0
VERTEX
  5
BC
  8
TEAM-DET1
 10
5.468576
 20
-129.471594
 30
0.0
 42
0.035905
  0
VERTEX
  5
BD
  8
TEAM-DET1
 10
0.0
 20
-129.078385
 30
0.0
 42
0.035905
  0
VERTEX
  5
BE
  8
TEAM-DET1
 10
-5.468576
 20
-129.471594
 30
0.0
 42
0.04809
  0
VERTEX
  5
BF
  8
TEAM-DET1
 10
-9.449208
 20
-130.444308
 30
0.0
 42
0.091345
  0
VERTEX
  5
C0
  8
TEAM-DET1
 10
-12.687845
 20
-132.28984
 30
0.0
 42
0.221169
  0
VERTEX
  5
C1
  8
TEAM-DET1
 10
-13.363197
 20
-133.741938
 30
0.0
 42
0.221169
  0
VERTEX
  5
C2
  8
TEAM-DET1
 10
-12.687845
 20
-135.194037
 30
0.0
 42
0.091345
  0
VERTEX
  5
C3
  8
TEAM-DET1
 10
-9.449208
 20
-137.039569
 30
0.0
 42
0.04809
  0
VERTEX
  5
C4
  8
TEAM-DET1
 10
-5.468576
 20
-138.012282
 30
0.0
 42
0.035905
  0
VERTEX
  5
C5
  8
TEAM-DET1
 10
0.0
 20
-138.405492
 30
0.0
 42
0.035905
  0
VERTEX
  5
C6
  8
TEAM-DET1
 10
5.468576
 20
-138.012282
 30
0.0
 42
0.04809
  0
VERTEX
  5
C7
  8
TEAM-DET1
 10
9.449208
 20
-137.039569
 30
0.0
 42
0.091345
  0
VERTEX
  5
C8
  8
TEAM-DET1
 10
12.687845
 20
-135.194037
 30
0.0
 42
0.221169
  0
SEQEND
  5
C9
  8
TEAM-DET1
  0
LINE
  5
5B
  8
TEAM-AXE
 10
-21.0
 20
-133.741938
 30
0.0
 11
21.0
 21
-133.741938
 31
0.0
  0
LINE
  5
5C
  8
TEAM-AXE
 10
0.0
 20
-370.0
 30
0.0
 11
0.0
 21
-290.0
 31
0.0
  0
CIRCLE
  5
5D
  8
TEAM-DET1
 10
0.0
 20
-330.0
 30
0.0
 40
30.0
  0
CIRCLE
  5
5E
  8
TEAM-BODY
 10
0.0
 20
-330.0
 30
0.0
 40
20.0
  0
LINE
  5
5F
  8
TEAM-AXE
 10
-40.0
 20
-330.0
 30
0.0
 11
40.0
 21
-330.0
 31
0.0
  0
ENDSEC
  0
EOF
