  0
SECTION
  2
HEADER
  9
$ACADVER
  1
AC1009
  9
$INSBASE
 10
0.0
 20
0.0
 30
0.0
  9
$EXTMIN
 10
-440.997915
 20
-10.047073
 30
-0.000003
  9
$EXTMAX
 10
466.959765
 20
895.79073
 30
0.000007
  9
$LIMMIN
 10
-440.997915
 20
-10.047073
  9
$LIMMAX
 10
466.959765
 20
895.79073
  9
$ORTHOMODE
 70
     1
  9
$REGENMODE
 70
     1
  9
$FILLMODE
 70
     1
  9
$QTEXTMODE
 70
     0
  9
$MIRRTEXT
 70
     0
  9
$DRAGMODE
 70
     2
  9
$LTSCALE
 40
50.0
  9
$OSMODE
 70
     0
  9
$ATTMODE
 70
     1
  9
$TEXTSIZE
 40
200.0
  9
$TRACEWID
 40
1.0
  9
$TEXTSTYLE
  7
STANDARD
  9
$CLAYER
  8
TEAM-MAS
  9
$CELTYPE
  6
BYLAYER
  9
$CECOLOR
 62
   256
  9
$DIMSCALE
 40
0.0
  9
$DIMASZ
 40
20.0
  9
$DIMEXO
 40
10.0
  9
$DIMDLI
 40
1.0
  9
$DIMRND
 40
0.0
  9
$DIMDLE
 40
0.0
  9
$DIMEXE
 40
1.0
  9
$DIMTP
 40
0.0
  9
$DIMTM
 40
0.0
  9
$DIMTXT
 40
35.0
  9
$DIMCEN
 40
1.0
  9
$DIMTSZ
 40
0.0
  9
$DIMTOL
 70
     0
  9
$DIMLIM
 70
     0
  9
$DIMTIH
 70
     0
  9
$DIMTOH
 70
     0
  9
$DIMSE1
 70
     0
  9
$DIMSE2
 70
     0
  9
$DIMTAD
 70
     0
  9
$DIMZIN
 70
     0
  9
$DIMBLK
  1

  9
$DIMASO
 70
     1
  9
$DIMSHO
 70
     0
  9
$DIMPOST
  1

  9
$DIMAPOST
  1

  9
$DIMALT
 70
     0
  9
$DIMALTD
 70
     2
  9
$DIMALTF
 40
25.4
  9
$DIMLFAC
 40
1.0
  9
$DIMTOFL
 70
     0
  9
$DIMTVP
 40
0.0
  9
$DIMTIX
 70
     0
  9
$DIMSOXD
 70
     0
  9
$DIMSAH
 70
     0
  9
$DIMBLK1
  1

  9
$DIMBLK2
  1

  9
$DIMSTYLE
  2
TEAM
  9
$DIMCLRD
 70
     9
  9
$DIMCLRE
 70
     9
  9
$DIMCLRT
 70
    11
  9
$DIMTFAC
 40
1.0
  9
$DIMGAP
 40
7.0
  9
$LUNITS
 70
     2
  9
$LUPREC
 70
     1
  9
$SKETCHINC
 40
1.0
  9
$FILLETRAD
 40
10.0
  9
$AUNITS
 70
     0
  9
$AUPREC
 70
     0
  9
$MENU
  1
ROPLANS
  9
$ELEVATION
 40
0.0
  9
$PELEVATION
 40
0.0
  9
$THICKNESS
 40
0.0
  9
$LIMCHECK
 70
     0
  9
$BLIPMODE
 70
     1
  9
$CHAMFERA
 40
0.0
  9
$CHAMFERB
 40
0.0
  9
$SKPOLY
 70
     0
  9
$TDCREATE
 40
2450392.957851
  9
$TDUPDATE
 40
2456203.941022
  9
$TDINDWG
 40
2.322858
  9
$TDUSRTIMER
 40
2.322858
  9
$USRTIMER
 70
     1
  9
$ANGBASE
 50
0.0
  9
$ANGDIR
 70
     0
  9
$PDMODE
 70
     0
  9
$PDSIZE
 40
0.0
  9
$PLINEWID
 40
0.0
  9
$COORDS
 70
     2
  9
$SPLFRAME
 70
     0
  9
$SPLINETYPE
 70
     6
  9
$SPLINESEGS
 70
     8
  9
$ATTDIA
 70
     0
  9
$ATTREQ
 70
     0
  9
$HANDLING
 70
     1
  9
$HANDSEED
  5
121
  9
$SURFTAB1
 70
    36
  9
$SURFTAB2
 70
    36
  9
$SURFTYPE
 70
     6
  9
$SURFU
 70
     6
  9
$SURFV
 70
     6
  9
$UCSNAME
  2

  9
$UCSORG
 10
0.0
 20
0.0
 30
0.0
  9
$UCSXDIR
 10
1.0
 20
0.0
 30
0.0
  9
$UCSYDIR
 10
0.0
 20
1.0
 30
0.0
  9
$PUCSNAME
  2

  9
$PUCSORG
 10
0.0
 20
0.0
 30
0.0
  9
$PUCSXDIR
 10
1.0
 20
0.0
 30
0.0
  9
$PUCSYDIR
 10
0.0
 20
1.0
 30
0.0
  9
$USERI1
 70
     0
  9
$USERI2
 70
     0
  9
$USERI3
 70
     0
  9
$USERI4
 70
     0
  9
$USERI5
 70
     0
  9
$USERR1
 40
0.0
  9
$USERR2
 40
0.0
  9
$USERR3
 40
0.0
  9
$USERR4
 40
0.0
  9
$USERR5
 40
0.0
  9
$WORLDVIEW
 70
     1
  9
$SHADEDGE
 70
     0
  9
$SHADEDIF
 70
    70
  9
$TILEMODE
 70
     1
  9
$MAXACTVP
 70
    16
  9
$PLIMCHECK
 70
     0
  9
$PEXTMIN
 10
-0.805942
 20
0.005011
 30
0.0
  9
$PEXTMAX
 10
20.250094
 20
11.356329
 30
0.0
  9
$PLIMMIN
 10
0.0
 20
0.0
  9
$PLIMMAX
 10
12.0
 20
9.0
  9
$UNITMODE
 70
     0
  9
$VISRETAIN
 70
     0
  9
$PLINEGEN
 70
     0
  9
$PSLTSCALE
 70
     0
  0
ENDSEC
  0
SECTION
  2
TABLES
  0
TABLE
  2
VPORT
 70
     2
  0
VPORT
  2
*ACTIVE
 70
     0
 10
0.0
 20
0.0
 11
1.0
 21
1.0
 12
12.980925
 22
442.871829
 13
0.0
 23
0.0
 14
1.0
 24
1.0
 15
50.0
 25
50.0
 16
0.0
 26
0.0
 36
1.0
 17
0.0
 27
0.0
 37
0.0
 40
911.540874
 41
1.911765
 42
50.0
 43
0.0
 44
0.0
 50
0.0
 51
0.0
 71
     0
 72
   100
 73
     1
 74
     1
 75
     0
 76
     0
 77
     0
 78
     0
  0
ENDTAB
  0
TABLE
  2
LTYPE
 70
     3
  0
LTYPE
  2
CONTINUOUS
 70
     0
  3
Solid Line
 72
    65
 73
     0
 40
0.0
  0
LTYPE
  2
31
 70
     0
  3

 72
    65
 73
     4
 40
2.1
 49
1.5
 49
-0.3
 49
0.0
 49
-0.3
  0
LTYPE
  2
22
 70
     0
  3

 72
    65
 73
     2
 40
1.4
 49
1.2
 49
-0.2
  0
ENDTAB
  0
TABLE
  2
LAYER
 70
    11
  0
LAYER
  2
0
 70
     0
 62
     7
  6
CONTINUOUS
  0
LAYER
  2
DEFPOINTS
 70
     0
 62
     7
  6
CONTINUOUS
  0
LAYER
  2
TEAM-BODY
 70
     0
 62
     2
  6
CONTINUOUS
  0
LAYER
  2
TEAM-AXE
 70
     0
 62
    10
  6
31
  0
LAYER
  2
TEAM-MAS
 70
     0
 62
     9
  6
CONTINUOUS
  0
LAYER
  2
TEAM-TXT
 70
     0
 62
    11
  6
CONTINUOUS
  0
LAYER
  2
TEAM-COLD
 70
     0
 62
     3
  6
CONTINUOUS
  0
LAYER
  2
TEAM-HIDE
 70
     0
 62
     8
  6
22
  0
LAYER
  2
TEAM-KAN
 70
     0
 62
     6
  6
CONTINUOUS
  0
LAYER
  2
TEAM-WARM
 70
     0
 62
     1
  6
CONTINUOUS
  0
LAYER
  2
TEAM-INSP
 70
     0
 62
     5
  6
CONTINUOUS
  0
ENDTAB
  0
TABLE
  2
STYLE
 70
     2
  0
STYLE
  2
STANDARD
 70
     0
 40
0.0
 41
1.0
 50
0.0
 71
     0
 42
200.0
  3
txt
  4

  0
STYLE
  2
TEAM
 70
     0
 40
0.0
 41
0.8
 50
15.0
 71
     0
 42
7.0
  3
ROMANS.shx
  4

  0
ENDTAB
  0
TABLE
  2
VIEW
 70
     0
  0
ENDTAB
  0
TABLE
  2
UCS
 70
     0
  0
ENDTAB
  0
TABLE
  2
APPID
 70
     1
  0
APPID
  2
ACAD
 70
     0
  0
ENDTAB
  0
TABLE
  2
DIMSTYLE
 70
     1
  0
DIMSTYLE
  2
TEAM
 70
     0
  3

  4

  5

  6

  7

 40
0.0
 41
20.0
 42
10.0
 43
1.0
 44
1.0
 45
0.0
 46
0.0
 47
0.0
 48
0.0
140
35.0
141
1.0
142
0.0
143
25.4
144
1.0
145
0.0
146
1.0
147
7.0
 71
     0
 72
     0
 73
     0
 74
     0
 75
     0
 76
     0
 77
     0
 78
     0
170
     0
171
     2
172
     0
173
     0
174
     0
175
     0
176
     9
177
     9
178
    11
  0
ENDTAB
  0
ENDSEC
  0
SECTION
  2
BLOCKS
  0
BLOCK
  8
0
  2
$MODEL_SPACE
 70
     0
 10
0.0
 20
0.0
 30
0.0
  3
$MODEL_SPACE
  1

  0
ENDBLK
  5
11A
  8
0
  0
BLOCK
 67
     1
  8
0
  2
$PAPER_SPACE
 70
     0
 10
0.0
 20
0.0
 30
0.0
  3
$PAPER_SPACE
  1

  0
ENDBLK
  5
118
 67
     1
  8
0
  0
BLOCK
  8
0
  2
*D0
 70
     1
 10
0.0
 20
0.0
 30
0.0
  3
*D0
  1

  0
LINE
  5
87
  8
0
  6
BYBLOCK
 62
     9
 10
7710.0
 20
860.0
 30
0.0
 11
7710.0
 21
879.273018
 31
0.0
  0
LINE
  5
88
  8
0
  6
BYBLOCK
 62
     9
 10
8290.0
 20
860.0
 30
0.0
 11
8290.0
 21
879.273018
 31
0.0
  0
LINE
  5
89
  8
0
  6
BYBLOCK
 62
     9
 10
7730.0
 20
878.273018
 30
0.0
 11
7914.25
 21
878.273018
 31
0.0
  0
LINE
  5
8A
  8
0
  6
BYBLOCK
 62
     9
 10
8270.0
 20
878.273018
 30
0.0
 11
8085.75
 21
878.273018
 31
0.0
  0
SOLID
  5
8B
  8
0
  6
BYBLOCK
 62
     9
 10
7730.0
 20
881.606351
 30
0.0
 11
7730.0
 21
874.939684
 31
0.0
 12
7710.0
 22
878.273018
 32
0.0
 13
7710.0
 23
878.273018
 33
0.0
  0
SOLID
  5
8C
  8
0
  6
BYBLOCK
 62
     9
 10
8270.0
 20
881.606351
 30
0.0
 11
8270.0
 21
874.939684
 31
0.0
 12
8290.0
 22
878.273018
 32
0.0
 13
8290.0
 23
878.273018
 33
0.0
  0
TEXT
  5
8D
  8
0
  6
BYBLOCK
 62
    11
 10
7921.25
 20
860.773018
 30
0.0
 40
35.0
  1
580.00
  0
POINT
  5
8E
  8
DEFPOINTS
  6
BYBLOCK
 62
     0
 10
7710.0
 20
850.0
 30
0.0
  0
POINT
  5
8F
  8
DEFPOINTS
  6
BYBLOCK
 62
     0
 10
8290.0
 20
850.0
 30
0.0
  0
POINT
  5
90
  8
DEFPOINTS
  6
BYBLOCK
 62
     0
 10
8290.0
 20
878.273018
 30
0.0
  0
ENDBLK
  5
92
  8
0
  0
BLOCK
  8
0
  2
*D1
 70
     1
 10
0.0
 20
0.0
 30
0.0
  3
*D1
  1

  0
LINE
  5
D3
  8
0
  6
BYBLOCK
 62
     9
 10
7927.5
 20
649.0
 30
0.0
 11
7927.5
 21
747.638566
 31
0.0
  0
LINE
  5
D4
  8
0
  6
BYBLOCK
 62
     9
 10
8072.5
 20
649.0
 30
0.0
 11
8072.5
 21
747.638566
 31
0.0
  0
LINE
  5
D5
  8
0
  6
BYBLOCK
 62
     9
 10
7947.5
 20
746.638566
 30
0.0
 11
8052.5
 21
746.638566
 31
0.0
  0
TEXT
  5
D6
  8
0
  6
BYBLOCK
 62
    11
 10
7924.166667
 20
758.138566
 30
0.0
 40
35.0
  1
145.00
  0
SOLID
  5
D7
  8
0
  6
BYBLOCK
 62
     9
 10
7947.5
 20
749.971899
 30
0.0
 11
7947.5
 21
743.305233
 31
0.0
 12
7927.5
 22
746.638566
 32
0.0
 13
7927.5
 23
746.638566
 33
0.0
  0
SOLID
  5
D8
  8
0
  6
BYBLOCK
 62
     9
 10
8052.5
 20
749.971899
 30
0.0
 11
8052.5
 21
743.305233
 31
0.0
 12
8072.5
 22
746.638566
 32
0.0
 13
8072.5
 23
746.638566
 33
0.0
  0
POINT
  5
D9
  8
DEFPOINTS
  6
BYBLOCK
 62
     0
 10
7927.5
 20
639.0
 30
0.0
  0
POINT
  5
DA
  8
DEFPOINTS
  6
BYBLOCK
 62
     0
 10
8072.5
 20
639.0
 30
0.0
  0
POINT
  5
DB
  8
DEFPOINTS
  6
BYBLOCK
 62
     0
 10
8072.5
 20
746.638566
 30
0.0
  0
ENDBLK
  5
DD
  8
0
  0
BLOCK
  8
0
  2
*D2
 70
     1
 10
0.0
 20
0.0
 30
0.0
  3
*D2
  1

  0
LINE
  5
5F
  8
0
  6
BYBLOCK
 62
     9
 10
8040.0
 20
570.0
 30
0.0
 11
8040.0
 21
443.359776
 31
0.0
  0
LINE
  5
60
  8
0
  6
BYBLOCK
 62
     9
 10
7960.0
 20
570.0
 30
0.0
 11
7960.0
 21
443.359776
 31
0.0
  0
LINE
  5
61
  8
0
  6
BYBLOCK
 62
     9
 10
8020.0
 20
444.359776
 30
0.0
 11
7980.0
 21
444.359776
 31
0.0
  0
TEXT
  5
62
  8
0
  6
BYBLOCK
 62
    11
 10
8011.505764
 20
427.008793
 30
0.0
 40
35.0
  1
80.00
  0
SOLID
  5
63
  8
0
  6
BYBLOCK
 62
     9
 10
8020.0
 20
447.69311
 30
0.0
 11
8020.0
 21
441.026443
 31
0.0
 12
8040.0
 22
444.359776
 32
0.0
 13
8040.0
 23
444.359776
 33
0.0
  0
SOLID
  5
64
  8
0
  6
BYBLOCK
 62
     9
 10
7980.0
 20
447.69311
 30
0.0
 11
7980.0
 21
441.026443
 31
0.0
 12
7960.0
 22
444.359776
 32
0.0
 13
7960.0
 23
444.359776
 33
0.0
  0
POINT
  5
65
  8
DEFPOINTS
  6
BYBLOCK
 62
     0
 10
8040.0
 20
580.0
 30
0.0
  0
POINT
  5
66
  8
DEFPOINTS
  6
BYBLOCK
 62
     0
 10
7960.0
 20
580.0
 30
0.0
  0
POINT
  5
67
  8
DEFPOINTS
  6
BYBLOCK
 62
     0
 10
7960.0
 20
444.359776
 30
0.0
  0
ENDBLK
  5
69
  8
0
  0
BLOCK
  8
0
  2
*D3
 70
     1
 10
0.0
 20
0.0
 30
0.0
  3
*D3
  1

  0
LINE
  5
24
  8
0
  6
BYBLOCK
 62
     9
 10
8010.0
 20
0.0
 30
0.0
 11
8450.401711
 21
0.0
 31
0.0
  0
LINE
  5
25
  8
0
  6
BYBLOCK
 62
     9
 10
8300.0
 20
850.0
 30
0.0
 11
8450.401711
 21
850.0
 31
0.0
  0
LINE
  5
26
  8
0
  6
BYBLOCK
 62
     9
 10
8449.401711
 20
20.0
 30
0.0
 11
8449.401711
 21
339.25
 31
0.0
  0
LINE
  5
27
  8
0
  6
BYBLOCK
 62
     9
 10
8449.401711
 20
830.0
 30
0.0
 11
8449.401711
 21
510.75
 31
0.0
  0
SOLID
  5
28
  8
0
  6
BYBLOCK
 62
     9
 10
8446.068378
 20
20.0
 30
0.0
 11
8452.735044
 21
20.0
 31
0.0
 12
8449.401711
 22
0.0
 32
0.0
 13
8449.401711
 23
0.0
 33
0.0
  0
SOLID
  5
29
  8
0
  6
BYBLOCK
 62
     9
 10
8446.068378
 20
830.0
 30
0.0
 11
8452.735044
 21
830.0
 31
0.0
 12
8449.401711
 22
850.0
 32
0.0
 13
8449.401711
 23
850.0
 33
0.0
  0
TEXT
  5
2A
  8
0
  6
BYBLOCK
 62
    11
 10
8466.901711
 20
346.25
 30
0.0
 40
35.0
  1
850.00
 50
90.0
  0
POINT
  5
2B
  8
DEFPOINTS
  6
BYBLOCK
 62
     0
 10
8000.0
 20
0.0
 30
0.0
  0
POINT
  5
2D
  8
DEFPOINTS
  6
BYBLOCK
 62
     0
 10
8290.0
 20
850.0
 30
0.0
  0
POINT
  5
2E
  8
DEFPOINTS
  6
BYBLOCK
 62
     0
 10
8449.401711
 20
850.0
 30
0.0
  0
ENDBLK
  5
30
  8
0
  0
BLOCK
  8
0
  2
*D4
 70
     1
 10
0.0
 20
0.0
 30
0.0
  3
*D4
  1

  0
LINE
  5
96
  8
0
  6
BYBLOCK
 62
     9
 10
8045.0
 20
685.0
 30
0.0
 11
8346.237921
 21
685.0
 31
0.0
  0
LINE
  5
97
  8
0
  6
BYBLOCK
 62
     9
 10
8300.0
 20
850.0
 30
0.0
 11
8346.237921
 21
850.0
 31
0.0
  0
LINE
  5
98
  8
0
  6
BYBLOCK
 62
     9
 10
8345.237921
 20
705.0
 30
0.0
 11
8345.237921
 21
830.0
 31
0.0
  0
TEXT
  5
99
  8
0
  6
BYBLOCK
 62
    11
 10
8391.737921
 20
691.666667
 30
0.0
 40
35.0
  1
165.00
 50
90.0
  0
SOLID
  5
9A
  8
0
  6
BYBLOCK
 62
     9
 10
8341.904587
 20
705.0
 30
0.0
 11
8348.571254
 21
705.0
 31
0.0
 12
8345.237921
 22
685.0
 32
0.0
 13
8345.237921
 23
685.0
 33
0.0
  0
SOLID
  5
9B
  8
0
  6
BYBLOCK
 62
     9
 10
8341.904587
 20
830.0
 30
0.0
 11
8348.571254
 21
830.0
 31
0.0
 12
8345.237921
 22
850.0
 32
0.0
 13
8345.237921
 23
850.0
 33
0.0
  0
POINT
  5
9C
  8
DEFPOINTS
  6
BYBLOCK
 62
     0
 10
8035.0
 20
685.0
 30
0.0
  0
POINT
  5
9D
  8
DEFPOINTS
  6
BYBLOCK
 62
     0
 10
8290.0
 20
850.0
 30
0.0
  0
POINT
  5
9E
  8
DEFPOINTS
  6
BYBLOCK
 62
     0
 10
8345.237921
 20
850.0
 30
0.0
  0
ENDBLK
  5
A0
  8
0
  0
BLOCK
  8
0
  2
*D5
 70
     1
 10
0.0
 20
0.0
 30
0.0
  3
*D5
  1

  0
LINE
  5
A4
  8
0
  6
BYBLOCK
 62
     9
 10
8040.0
 20
550.0
 30
0.0
 11
8397.588598
 21
550.0
 31
0.0
  0
LINE
  5
A5
  8
0
  6
BYBLOCK
 62
     9
 10
8310.0
 20
850.0
 30
0.0
 11
8397.588598
 21
850.0
 31
0.0
  0
LINE
  5
A6
  8
0
  6
BYBLOCK
 62
     9
 10
8396.588598
 20
570.0
 30
0.0
 11
8396.588598
 21
617.166667
 31
0.0
  0
LINE
  5
A7
  8
0
  6
BYBLOCK
 62
     9
 10
8396.588598
 20
830.0
 30
0.0
 11
8396.588598
 21
782.833333
 31
0.0
  0
SOLID
  5
A8
  8
0
  6
BYBLOCK
 62
     9
 10
8393.255264
 20
570.0
 30
0.0
 11
8399.921931
 21
570.0
 31
0.0
 12
8396.588598
 22
550.0
 32
0.0
 13
8396.588598
 23
550.0
 33
0.0
  0
SOLID
  5
A9
  8
0
  6
BYBLOCK
 62
     9
 10
8393.255264
 20
830.0
 30
0.0
 11
8399.921931
 21
830.0
 31
0.0
 12
8396.588598
 22
850.0
 32
0.0
 13
8396.588598
 23
850.0
 33
0.0
  0
TEXT
  5
AA
  8
0
  6
BYBLOCK
 62
    11
 10
8414.088598
 20
624.166667
 30
0.0
 40
35.0
  1
300.00
 50
90.0
  0
POINT
  5
AB
  8
DEFPOINTS
  6
BYBLOCK
 62
     0
 10
8030.0
 20
550.0
 30
0.0
  0
POINT
  5
AC
  8
DEFPOINTS
  6
BYBLOCK
 62
     0
 10
8300.0
 20
850.0
 30
0.0
  0
POINT
  5
AD
  8
DEFPOINTS
  6
BYBLOCK
 62
     0
 10
8396.588598
 20
850.0
 30
0.0
  0
ENDBLK
  5
AF
  8
0
  0
BLOCK
  8
0
  2
*D6
 70
     1
 10
0.0
 20
0.0
 30
0.0
  3
*D6
  1

  0
LINE
  5
72
  8
0
  6
BYBLOCK
 62
     9
 10
7705.0
 20
850.0
 30
0.0
 11
7657.742401
 21
850.0
 31
0.0
  0
LINE
  5
73
  8
0
  6
BYBLOCK
 62
     9
 10
7705.0
 20
825.0
 30
0.0
 11
7657.742401
 21
825.0
 31
0.0
  0
LINE
  5
74
  8
0
  6
BYBLOCK
 62
     9
 10
7658.742401
 20
870.0
 30
0.0
 11
7658.742401
 21
890.0
 31
0.0
  0
LINE
  5
75
  8
0
  6
BYBLOCK
 62
     9
 10
7658.742401
 20
805.0
 30
0.0
 11
7658.742401
 21
785.0
 31
0.0
  0
TEXT
  5
76
  8
0
  6
BYBLOCK
 62
    11
 10
7675.912271
 20
689.794738
 30
0.0
 40
35.0
  1
25.00
 50
90.0
  0
LINE
  5
77
  8
0
  6
BYBLOCK
 62
     9
 10
7658.742401
 20
850.0
 30
0.0
 11
7658.742401
 21
825.0
 31
0.0
  0
SOLID
  5
78
  8
0
  6
BYBLOCK
 62
     9
 10
7655.409067
 20
870.0
 30
0.0
 11
7662.075734
 21
870.0
 31
0.0
 12
7658.742401
 22
850.0
 32
0.0
 13
7658.742401
 23
850.0
 33
0.0
  0
SOLID
  5
79
  8
0
  6
BYBLOCK
 62
     9
 10
7655.409067
 20
805.0
 30
0.0
 11
7662.075734
 21
805.0
 31
0.0
 12
7658.742401
 22
825.0
 32
0.0
 13
7658.742401
 23
825.0
 33
0.0
  0
POINT
  5
7A
  8
DEFPOINTS
  6
BYBLOCK
 62
     0
 10
7715.0
 20
850.0
 30
0.0
  0
POINT
  5
7B
  8
DEFPOINTS
  6
BYBLOCK
 62
     0
 10
7715.0
 20
825.0
 30
0.0
  0
POINT
  5
7C
  8
DEFPOINTS
  6
BYBLOCK
 62
     0
 10
7658.742401
 20
825.0
 30
0.0
  0
ENDBLK
  5
7E
  8
0
  0
BLOCK
  8
0
  2
*D7
 70
     1
 10
0.0
 20
0.0
 30
0.0
  3
*D7
  1

  0
LINE
  5
51
  8
0
  6
BYBLOCK
 62
     9
 10
7990.0
 20
0.0
 30
0.0
 11
7575.538426
 21
0.0
 31
0.0
  0
LINE
  5
52
  8
0
  6
BYBLOCK
 62
     9
 10
7898.56984
 20
620.0
 30
0.0
 11
7575.538426
 21
620.0
 31
0.0
  0
LINE
  5
53
  8
0
  6
BYBLOCK
 62
     9
 10
7576.538426
 20
20.0
 30
0.0
 11
7576.538426
 21
224.25
 31
0.0
  0
LINE
  5
54
  8
0
  6
BYBLOCK
 62
     9
 10
7576.538426
 20
600.0
 30
0.0
 11
7576.538426
 21
395.75
 31
0.0
  0
SOLID
  5
55
  8
0
  6
BYBLOCK
 62
     9
 10
7573.205093
 20
20.0
 30
0.0
 11
7579.87176
 21
20.0
 31
0.0
 12
7576.538426
 22
0.0
 32
0.0
 13
7576.538426
 23
0.0
 33
0.0
  0
SOLID
  5
56
  8
0
  6
BYBLOCK
 62
     9
 10
7573.205093
 20
600.0
 30
0.0
 11
7579.87176
 21
600.0
 31
0.0
 12
7576.538426
 22
620.0
 32
0.0
 13
7576.538426
 23
620.0
 33
0.0
  0
TEXT
  5
57
  8
0
  6
BYBLOCK
 62
    11
 10
7594.038426
 20
231.25
 30
0.0
 40
35.0
  1
620.00
 50
90.0
  0
POINT
  5
58
  8
DEFPOINTS
  6
BYBLOCK
 62
     0
 10
8000.0
 20
0.0
 30
0.0
  0
POINT
  5
59
  8
DEFPOINTS
  6
BYBLOCK
 62
     0
 10
7908.56984
 20
620.0
 30
0.0
  0
POINT
  5
5A
  8
DEFPOINTS
  6
BYBLOCK
 62
     0
 10
7576.538426
 20
620.0
 30
0.0
  0
ENDBLK
  5
5C
  8
0
  0
BLOCK
  8
0
  2
*D8
 70
     1
 10
0.0
 20
0.0
 30
0.0
  3
*D8
  1

  0
LINE
  5
42
  8
0
  6
BYBLOCK
 62
     9
 10
7990.0
 20
0.0
 30
0.0
 11
7685.597101
 21
0.0
 31
0.0
  0
LINE
  5
43
  8
0
  6
BYBLOCK
 62
     9
 10
7960.0
 20
550.0
 30
0.0
 11
7685.597101
 21
550.0
 31
0.0
  0
LINE
  5
44
  8
0
  6
BYBLOCK
 62
     9
 10
7686.597101
 20
20.0
 30
0.0
 11
7686.597101
 21
189.25
 31
0.0
  0
LINE
  5
45
  8
0
  6
BYBLOCK
 62
     9
 10
7686.597101
 20
530.0
 30
0.0
 11
7686.597101
 21
360.75
 31
0.0
  0
SOLID
  5
46
  8
0
  6
BYBLOCK
 62
     9
 10
7683.263768
 20
20.0
 30
0.0
 11
7689.930434
 21
20.0
 31
0.0
 12
7686.597101
 22
0.0
 32
0.0
 13
7686.597101
 23
0.0
 33
0.0
  0
SOLID
  5
47
  8
0
  6
BYBLOCK
 62
     9
 10
7683.263768
 20
530.0
 30
0.0
 11
7689.930434
 21
530.0
 31
0.0
 12
7686.597101
 22
550.0
 32
0.0
 13
7686.597101
 23
550.0
 33
0.0
  0
TEXT
  5
48
  8
0
  6
BYBLOCK
 62
    11
 10
7704.097101
 20
196.25
 30
0.0
 40
35.0
  1
550.00
 50
90.0
  0
POINT
  5
49
  8
DEFPOINTS
  6
BYBLOCK
 62
     0
 10
8000.0
 20
0.0
 30
0.0
  0
POINT
  5
4A
  8
DEFPOINTS
  6
BYBLOCK
 62
     0
 10
7970.0
 20
550.0
 30
0.0
  0
POINT
  5
4B
  8
DEFPOINTS
  6
BYBLOCK
 62
     0
 10
7686.597101
 20
550.0
 30
0.0
  0
ENDBLK
  5
4D
  8
0
  0
BLOCK
  8
0
  2
*D9
 70
     1
 10
0.0
 20
0.0
 30
0.0
  3
*D9
  1

  0
LINE
  5
34
  8
0
  6
BYBLOCK
 62
     9
 10
7990.0
 20
0.0
 30
0.0
 11
7633.68051
 21
0.0
 31
0.0
  0
LINE
  5
35
  8
0
  6
BYBLOCK
 62
     9
 10
7930.0
 20
600.0
 30
0.0
 11
7633.68051
 21
600.0
 31
0.0
  0
LINE
  5
36
  8
0
  6
BYBLOCK
 62
     9
 10
7634.68051
 20
20.0
 30
0.0
 11
7634.68051
 21
217.166667
 31
0.0
  0
LINE
  5
37
  8
0
  6
BYBLOCK
 62
     9
 10
7634.68051
 20
580.0
 30
0.0
 11
7634.68051
 21
382.833333
 31
0.0
  0
SOLID
  5
38
  8
0
  6
BYBLOCK
 62
     9
 10
7631.347176
 20
20.0
 30
0.0
 11
7638.013843
 21
20.0
 31
0.0
 12
7634.68051
 22
0.0
 32
0.0
 13
7634.68051
 23
0.0
 33
0.0
  0
SOLID
  5
39
  8
0
  6
BYBLOCK
 62
     9
 10
7631.347176
 20
580.0
 30
0.0
 11
7638.013843
 21
580.0
 31
0.0
 12
7634.68051
 22
600.0
 32
0.0
 13
7634.68051
 23
600.0
 33
0.0
  0
TEXT
  5
3A
  8
0
  6
BYBLOCK
 62
    11
 10
7652.18051
 20
224.166667
 30
0.0
 40
35.0
  1
600.00
 50
90.0
  0
POINT
  5
3B
  8
DEFPOINTS
  6
BYBLOCK
 62
     0
 10
8000.0
 20
0.0
 30
0.0
  0
POINT
  5
3C
  8
DEFPOINTS
  6
BYBLOCK
 62
     0
 10
7940.0
 20
600.0
 30
0.0
  0
POINT
  5
3D
  8
DEFPOINTS
  6
BYBLOCK
 62
     0
 10
7634.68051
 20
600.0
 30
0.0
  0
ENDBLK
  5
3F
  8
0
  0
ENDSEC
  0
SECTION
  2
ENTITIES
  0
LINE
  5
20
  8
TEAM-BODY
 10
-278.636435
 20
825.0
 30
0.0
 11
-173.848355
 21
0.0
 31
0.0
  0
DIMENSION
  5
22
  8
TEAM-MAS
  2
*D3
 10
449.401711
 20
850.0
 30
0.0
 11
449.401711
 21
425.0
 31
0.0
 12
-8000.0
 22
0.0
 32
0.0
 13
0.0
 23
0.0
 33
0.0
 14
290.0
 24
850.0
 34
0.0
 50
90.0
1001
ACAD
1000
DSTYLE
1002
{
1070
    40
1040
1.0
1002
}
  0
LINE
  5
31
  8
TEAM-BODY
 10
278.636435
 20
825.0
 30
0.0
 11
173.848355
 21
0.0
 31
0.0
  0
DIMENSION
  5
32
  8
TEAM-MAS
  2
*D9
 10
-365.31949
 20
600.0
 30
0.0
 11
-365.31949
 21
300.0
 31
0.0
 12
-8000.0
 22
0.0
 32
0.0
 13
0.0
 23
0.0
 33
0.0
 14
-60.0
 24
600.0
 34
0.0
 50
90.0
1001
ACAD
1000
DSTYLE
1002
{
1070
    40
1040
1.0
1002
}
  0
DIMENSION
  5
40
  8
TEAM-MAS
  2
*D8
 10
-313.402899
 20
550.0
 30
0.0
 11
-313.402899
 21
275.0
 31
0.0
 12
-8000.0
 22
0.0
 32
0.0
 13
0.0
 23
0.0
 33
0.0
 14
-30.0
 24
550.0
 34
0.0
 50
90.0
1001
ACAD
1000
DSTYLE
1002
{
1070
    40
1040
1.0
1002
}
  0
LINE
  5
4E
  8
TEAM-BODY
 10
0.0
 20
653.332305
 30
0.0
 11
0.0
 21
129.427868
 31
0.0
  0
DIMENSION
  5
4F
  8
TEAM-MAS
  2
*D7
 10
-423.461574
 20
620.0
 30
0.0
 11
-423.461574
 21
310.0
 31
0.0
 12
-8000.0
 22
0.0
 32
0.0
 13
0.0
 23
0.0
 33
0.0
 14
-91.43016
 24
620.0
 34
0.0
 50
90.0
1001
ACAD
1000
DSTYLE
1002
{
1070
    40
1040
1.0
1002
}
  0
DIMENSION
  5
5D
  8
TEAM-MAS
  2
*D2
 10
-40.0
 20
444.359776
 30
0.0
 11
72.755764
 21
444.508793
 31
0.0
 12
-8000.0
 22
0.0
 32
0.0
 70
   128
 13
40.0
 23
580.0
 33
0.0
 14
-40.0
 24
580.0
 34
0.0
1001
ACAD
1000
DSTYLE
1002
{
1070
    40
1040
1.0
1002
}
  0
LINE
  5
6A
  8
TEAM-BODY
 10
-189.598792
 20
129.427868
 30
0.0
 11
0.0
 21
129.427868
 31
0.0
  0
LINE
  5
6B
  8
TEAM-BODY
 10
5.0
 20
0.0
 30
0.0
 11
-173.848355
 21
0.0
 31
0.0
  0
CIRCLE
  5
6C
  8
TEAM-INSP
 10
0.0
 20
0.0
 30
0.0
 40
10.0
  0
LINE
  5
6E
  8
TEAM-BODY
 10
189.598792
 20
129.427868
 30
0.0
 11
0.0
 21
129.427868
 31
0.0
  0
LINE
  5
6F
  8
TEAM-BODY
 10
-5.0
 20
0.0
 30
0.0
 11
173.848355
 21
0.0
 31
0.0
  0
DIMENSION
  5
70
  8
TEAM-MAS
  2
*D6
 10
-346.257599
 20
825.0
 30
0.0
 11
-346.587729
 21
753.961404
 31
0.0
 12
-8005.0
 22
0.0
 32
0.0
 70
   128
 13
-290.0
 23
850.0
 33
0.0
 14
-290.0
 24
825.0
 34
0.0
 50
90.0
1001
ACAD
1000
DSTYLE
1002
{
1070
    40
1040
1.0
1002
}
  0
LINE
  5
7F
  8
TEAM-BODY
 10
-290.0
 20
825.0
 30
0.0
 11
0.0
 21
825.0
 31
0.0
  0
LINE
  5
80
  8
TEAM-BODY
 10
-290.0
 20
850.0
 30
0.0
 11
-290.0
 21
825.0
 31
0.0
  0
TEXT
  5
81
  8
TEAM-TXT
 10
-268.908769
 20
775.947653
 30
0.0
 40
30.0
  1
team 232008
 41
0.8
 51
15.0
  7
TEAM
  0
LINE
  5
84
  8
TEAM-BODY
 10
-290.0
 20
850.0
 30
0.0
 11
0.0
 21
850.0
 31
0.0
  0
DIMENSION
  5
85
  8
TEAM-MAS
  2
*D0
 10
290.0
 20
878.273018
 30
0.0
 11
0.0
 21
878.273018
 31
0.0
 12
-8000.0
 22
0.0
 32
0.0
 13
-290.0
 23
850.0
 33
0.0
 14
290.0
 24
850.0
 34
0.0
1001
ACAD
1000
DSTYLE
1002
{
1070
    40
1040
1.0
1002
}
  0
LINE
  5
93
  8
TEAM-BODY
 10
290.0
 20
825.0
 30
0.0
 11
0.0
 21
825.0
 31
0.0
  0
DIMENSION
  5
94
  8
TEAM-MAS
  2
*D4
 10
345.237921
 20
850.0
 30
0.0
 11
374.237921
 21
767.5
 31
0.0
 12
-8000.0
 22
0.0
 32
0.0
 13
35.0
 23
685.0
 33
0.0
 14
290.0
 24
850.0
 34
0.0
 50
90.0
1001
ACAD
1000
DSTYLE
1002
{
1070
    40
1040
1.0
1002
}
  0
LINE
  5
A1
  8
TEAM-BODY
 10
290.0
 20
850.0
 30
0.0
 11
0.0
 21
850.0
 31
0.0
  0
DIMENSION
  5
A2
  8
TEAM-MAS
  2
*D5
 10
396.588598
 20
850.0
 30
0.0
 11
396.588598
 21
700.0
 31
0.0
 12
-8000.0
 22
0.0
 32
0.0
 13
30.0
 23
550.0
 33
0.0
 14
300.0
 24
850.0
 34
0.0
 50
90.0
1001
ACAD
1000
DSTYLE
1002
{
1070
    40
1040
1.0
1002
}
  0
LINE
  5
B0
  8
TEAM-BODY
 10
290.0
 20
850.0
 30
0.0
 11
290.0
 21
825.0
 31
0.0
  0
LINE
  5
B1
  8
TEAM-HIDE
 10
139.461163
 20
685.0
 30
0.0
 11
191.482741
 21
745.574399
 31
0.0
  0
CIRCLE
  5
B4
  8
TEAM-WARM
 10
-40.0
 20
600.0
 30
0.0
 40
10.0
  0
LINE
  5
B6
  8
TEAM-AXE
 10
-40.0
 20
620.0
 30
0.0
 11
-40.0
 21
580.0
 31
0.0
210
0.0
220
-0.0
230
-1.0
  0
LINE
  5
B9
  8
TEAM-AXE
 10
-60.0
 20
600.0
 30
0.0
 11
-20.0
 21
600.0
 31
0.0
  0
LINE
  5
BA
  8
TEAM-AXE
 10
20.0
 20
600.0
 30
0.0
 11
60.0
 21
600.0
 31
0.0
  0
CIRCLE
  5
BB
  8
TEAM-COLD
 10
40.0
 20
600.0
 30
0.0
 40
10.0
  0
LINE
  5
BD
  8
TEAM-AXE
 10
40.0
 20
620.0
 30
0.0
 11
40.0
 21
580.0
 31
0.0
210
0.0
220
-0.0
230
-1.0
  0
LINE
  5
BE
  8
TEAM-BODY
 10
-253.35418
 20
653.332305
 30
0.0
 11
0.0
 21
653.332305
 31
0.0
  0
LINE
  5
BF
  8
TEAM-AXE
 10
-91.43016
 20
620.0
 30
0.0
 11
-53.5
 21
620.0
 31
0.0
  0
LINE
  5
C0
  8
TEAM-AXE
 10
-72.5
 20
639.0
 30
0.0
 11
-72.5
 21
601.0
 31
0.0
  0
ARC
  5
C1
  8
TEAM-HIDE
 10
-72.951591
 20
620.0
 30
0.0
 40
9.0
 50
90.0
 51
270.0
  0
ARC
  5
C2
  8
TEAM-HIDE
 10
-72.5
 20
620.0
 30
0.0
 40
9.0
 50
270.0
 51
90.0
  0
LINE
  5
C3
  8
TEAM-AXE
 10
91.5
 20
620.0
 30
0.0
 11
53.5
 21
620.0
 31
0.0
  0
LINE
  5
C4
  8
TEAM-AXE
 10
72.5
 20
639.0
 30
0.0
 11
72.5
 21
601.0
 31
0.0
  0
ARC
  5
C5
  8
TEAM-HIDE
 10
72.5
 20
620.0
 30
0.0
 40
9.0
 50
270.0
 51
90.0
  0
ARC
  5
C6
  8
TEAM-HIDE
 10
72.5
 20
620.0
 30
0.0
 40
9.0
 50
90.0
 51
270.0
  0
CIRCLE
  5
C7
  8
TEAM-KAN
 10
0.0
 20
550.0
 30
0.0
 40
20.0
  0
LINE
  5
C9
  8
TEAM-AXE
 10
-30.0
 20
550.0
 30
0.0
 11
30.0
 21
550.0
 31
0.0
  0
LINE
  5
CA
  8
TEAM-HIDE
 10
35.0
 20
685.0
 30
0.0
 11
35.0
 21
716.17213
 31
0.0
  0
LINE
  5
CB
  8
TEAM-HIDE
 10
-35.0
 20
685.0
 30
0.0
 11
-35.0
 21
716.17213
 31
0.0
  0
LINE
  5
CC
  8
TEAM-HIDE
 10
-139.461163
 20
685.0
 30
0.0
 11
-191.482741
 21
745.574399
 31
0.0
  0
LINE
  5
CD
  8
TEAM-HIDE
 10
35.0
 20
685.0
 30
0.0
 11
-139.461163
 21
685.0
 31
0.0
  0
LINE
  5
CE
  8
TEAM-BODY
 10
253.35418
 20
653.332305
 30
0.0
 11
0.0
 21
653.332305
 31
0.0
  0
LINE
  5
CF
  8
TEAM-HIDE
 10
-35.0
 20
685.0
 30
0.0
 11
139.461163
 21
685.0
 31
0.0
  0
LINE
  5
D0
  8
TEAM-AXE
 10
0.0
 20
850.0
 30
0.0
 11
0.0
 21
486.839849
 31
0.0
  0
DIMENSION
  5
D1
  8
TEAM-MAS
  2
*D1
 10
72.5
 20
746.638566
 30
0.0
 11
0.0
 21
775.638566
 31
0.0
 12
-8000.0
 22
0.0
 32
0.0
 13
-72.5
 23
639.0
 33
0.0
 14
72.5
 24
639.0
 34
0.0
1001
ACAD
1000
DSTYLE
1002
{
1070
    40
1040
1.0
1002
}
  0
ENDSEC
  0
EOF
