  0
SECTION
  2
HEADER
  9
$ACADVER
  1
AC1009
  9
$INSBASE
 10
0.0
 20
0.0
 30
0.0
  9
$EXTMIN
 10
-276.454526
 20
-10.026203
 30
-0.000006
  9
$EXTMAX
 10
483.83713
 20
902.276869
 30
0.0
  9
$LIMMIN
 10
-276.454526
 20
-10.026203
  9
$LIMMAX
 10
483.83713
 20
902.276869
  9
$ORTHOMODE
 70
     1
  9
$REGENMODE
 70
     1
  9
$FILLMODE
 70
     1
  9
$QTEXTMODE
 70
     0
  9
$MIRRTEXT
 70
     0
  9
$DRAGMODE
 70
     2
  9
$LTSCALE
 40
25.0
  9
$OSMODE
 70
     0
  9
$ATTMODE
 70
     1
  9
$TEXTSIZE
 40
200.0
  9
$TRACEWID
 40
1.0
  9
$TEXTSTYLE
  7
STANDARD
  9
$CLAYER
  8
TEAM-MAS
  9
$CELTYPE
  6
BYLAYER
  9
$CECOLOR
 62
   256
  9
$DIMSCALE
 40
0.0
  9
$DIMASZ
 40
20.0
  9
$DIMEXO
 40
10.0
  9
$DIMDLI
 40
1.0
  9
$DIMRND
 40
0.0
  9
$DIMDLE
 40
0.0
  9
$DIMEXE
 40
1.0
  9
$DIMTP
 40
0.0
  9
$DIMTM
 40
0.0
  9
$DIMTXT
 40
35.0
  9
$DIMCEN
 40
1.0
  9
$DIMTSZ
 40
0.0
  9
$DIMTOL
 70
     0
  9
$DIMLIM
 70
     0
  9
$DIMTIH
 70
     0
  9
$DIMTOH
 70
     0
  9
$DIMSE1
 70
     0
  9
$DIMSE2
 70
     0
  9
$DIMTAD
 70
     0
  9
$DIMZIN
 70
     0
  9
$DIMBLK
  1

  9
$DIMASO
 70
     1
  9
$DIMSHO
 70
     0
  9
$DIMPOST
  1

  9
$DIMAPOST
  1

  9
$DIMALT
 70
     0
  9
$DIMALTD
 70
     2
  9
$DIMALTF
 40
25.4
  9
$DIMLFAC
 40
1.0
  9
$DIMTOFL
 70
     0
  9
$DIMTVP
 40
0.0
  9
$DIMTIX
 70
     0
  9
$DIMSOXD
 70
     0
  9
$DIMSAH
 70
     0
  9
$DIMBLK1
  1

  9
$DIMBLK2
  1

  9
$DIMSTYLE
  2
TEAM
  9
$DIMCLRD
 70
     9
  9
$DIMCLRE
 70
     9
  9
$DIMCLRT
 70
    11
  9
$DIMTFAC
 40
1.0
  9
$DIMGAP
 40
15.0
  9
$LUNITS
 70
     2
  9
$LUPREC
 70
     1
  9
$SKETCHINC
 40
1.0
  9
$FILLETRAD
 40
50.0
  9
$AUNITS
 70
     0
  9
$AUPREC
 70
     0
  9
$MENU
  1
ROPLANS
  9
$ELEVATION
 40
0.0
  9
$PELEVATION
 40
0.0
  9
$THICKNESS
 40
0.0
  9
$LIMCHECK
 70
     0
  9
$BLIPMODE
 70
     1
  9
$CHAMFERA
 40
0.0
  9
$CHAMFERB
 40
0.0
  9
$SKPOLY
 70
     0
  9
$TDCREATE
 40
2450392.957851
  9
$TDUPDATE
 40
2455534.564459
  9
$TDINDWG
 40
2.577934
  9
$TDUSRTIMER
 40
2.577934
  9
$USRTIMER
 70
     1
  9
$ANGBASE
 50
0.0
  9
$ANGDIR
 70
     0
  9
$PDMODE
 70
     0
  9
$PDSIZE
 40
0.0
  9
$PLINEWID
 40
0.0
  9
$COORDS
 70
     2
  9
$SPLFRAME
 70
     0
  9
$SPLINETYPE
 70
     6
  9
$SPLINESEGS
 70
     8
  9
$ATTDIA
 70
     0
  9
$ATTREQ
 70
     0
  9
$HANDLING
 70
     1
  9
$HANDSEED
  5
10A
  9
$SURFTAB1
 70
    36
  9
$SURFTAB2
 70
    36
  9
$SURFTYPE
 70
     6
  9
$SURFU
 70
     6
  9
$SURFV
 70
     6
  9
$UCSNAME
  2

  9
$UCSORG
 10
0.0
 20
0.0
 30
0.0
  9
$UCSXDIR
 10
1.0
 20
0.0
 30
0.0
  9
$UCSYDIR
 10
0.0
 20
1.0
 30
0.0
  9
$PUCSNAME
  2

  9
$PUCSORG
 10
0.0
 20
0.0
 30
0.0
  9
$PUCSXDIR
 10
1.0
 20
0.0
 30
0.0
  9
$PUCSYDIR
 10
0.0
 20
1.0
 30
0.0
  9
$USERI1
 70
     0
  9
$USERI2
 70
     0
  9
$USERI3
 70
     0
  9
$USERI4
 70
     0
  9
$USERI5
 70
     0
  9
$USERR1
 40
0.0
  9
$USERR2
 40
0.0
  9
$USERR3
 40
0.0
  9
$USERR4
 40
0.0
  9
$USERR5
 40
0.0
  9
$WORLDVIEW
 70
     1
  9
$SHADEDGE
 70
     0
  9
$SHADEDIF
 70
    70
  9
$TILEMODE
 70
     1
  9
$MAXACTVP
 70
    16
  9
$PLIMCHECK
 70
     0
  9
$PEXTMIN
 10
-0.805942
 20
0.005011
 30
0.0
  9
$PEXTMAX
 10
20.421406
 20
13.725274
 30
0.0
  9
$PLIMMIN
 10
0.0
 20
0.0
  9
$PLIMMAX
 10
12.0
 20
9.0
  9
$UNITMODE
 70
     0
  9
$VISRETAIN
 70
     0
  9
$PLINEGEN
 70
     0
  9
$PSLTSCALE
 70
     0
  0
ENDSEC
  0
SECTION
  2
TABLES
  0
TABLE
  2
VPORT
 70
     2
  0
VPORT
  2
*ACTIVE
 70
     0
 10
0.0
 20
0.0
 11
1.0
 21
1.0
 12
103.691302
 22
446.125333
 13
0.0
 23
0.0
 14
1.0
 24
1.0
 15
50.0
 25
50.0
 16
0.0
 26
0.0
 36
1.0
 17
0.0
 27
0.0
 37
0.0
 40
917.905752
 41
1.865779
 42
50.0
 43
0.0
 44
0.0
 50
0.0
 51
0.0
 71
     0
 72
   100
 73
     1
 74
     1
 75
     0
 76
     0
 77
     0
 78
     0
  0
ENDTAB
  0
TABLE
  2
LTYPE
 70
     3
  0
LTYPE
  2
CONTINUOUS
 70
     0
  3
Solid Line
 72
    65
 73
     0
 40
0.0
  0
LTYPE
  2
31
 70
     0
  3

 72
    65
 73
     4
 40
2.1
 49
1.5
 49
-0.3
 49
0.0
 49
-0.3
  0
LTYPE
  2
22
 70
     0
  3

 72
    65
 73
     2
 40
1.4
 49
1.2
 49
-0.2
  0
ENDTAB
  0
TABLE
  2
LAYER
 70
    11
  0
LAYER
  2
0
 70
     0
 62
     7
  6
CONTINUOUS
  0
LAYER
  2
DEFPOINTS
 70
     0
 62
     7
  6
CONTINUOUS
  0
LAYER
  2
TEAM-BODY
 70
     0
 62
     2
  6
CONTINUOUS
  0
LAYER
  2
TEAM-AXE
 70
     0
 62
    10
  6
31
  0
LAYER
  2
TEAM-MAS
 70
     0
 62
     9
  6
CONTINUOUS
  0
LAYER
  2
TEAM-TXT
 70
     0
 62
    11
  6
CONTINUOUS
  0
LAYER
  2
TEAM-COLD
 70
     0
 62
     3
  6
CONTINUOUS
  0
LAYER
  2
TEAM-HIDE
 70
     0
 62
     8
  6
22
  0
LAYER
  2
TEAM-KAN
 70
     0
 62
     6
  6
CONTINUOUS
  0
LAYER
  2
TEAM-WARM
 70
     0
 62
     1
  6
CONTINUOUS
  0
LAYER
  2
TEAM-INSP
 70
     0
 62
     5
  6
CONTINUOUS
  0
ENDTAB
  0
TABLE
  2
STYLE
 70
     2
  0
STYLE
  2
STANDARD
 70
     0
 40
0.0
 41
1.0
 50
0.0
 71
     0
 42
200.0
  3
txt
  4

  0
STYLE
  2
TEAM
 70
     0
 40
0.0
 41
0.8
 50
15.0
 71
     0
 42
7.0
  3
ROMANS.shx
  4

  0
ENDTAB
  0
TABLE
  2
VIEW
 70
     0
  0
ENDTAB
  0
TABLE
  2
UCS
 70
     0
  0
ENDTAB
  0
TABLE
  2
APPID
 70
     1
  0
APPID
  2
ACAD
 70
     0
  0
ENDTAB
  0
TABLE
  2
DIMSTYLE
 70
     1
  0
DIMSTYLE
  2
TEAM
 70
     0
  3

  4

  5

  6

  7

 40
0.0
 41
20.0
 42
10.0
 43
1.0
 44
1.0
 45
0.0
 46
0.0
 47
0.0
 48
0.0
140
35.0
141
1.0
142
0.0
143
25.4
144
1.0
145
0.0
146
1.0
147
15.0
 71
     0
 72
     0
 73
     0
 74
     0
 75
     0
 76
     0
 77
     0
 78
     0
170
     0
171
     2
172
     0
173
     0
174
     0
175
     0
176
     9
177
     9
178
    11
  0
ENDTAB
  0
ENDSEC
  0
SECTION
  2
BLOCKS
  0
BLOCK
  8
0
  2
$MODEL_SPACE
 70
     0
 10
0.0
 20
0.0
 30
0.0
  3
$MODEL_SPACE
  1

  0
ENDBLK
  5
FC
  8
0
  0
BLOCK
 67
     1
  8
0
  2
$PAPER_SPACE
 70
     0
 10
0.0
 20
0.0
 30
0.0
  3
$PAPER_SPACE
  1

  0
ENDBLK
  5
FA
 67
     1
  8
0
  0
BLOCK
  8
0
  2
*D0
 70
     1
 10
0.0
 20
0.0
 30
0.0
  3
*D0
  1

  0
LINE
  5
31
  8
0
  6
BYBLOCK
 62
     9
 10
8040.0
 20
28570.0
 30
0.0
 11
8422.747563
 21
28570.0
 31
0.0
  0
LINE
  5
32
  8
0
  6
BYBLOCK
 62
     9
 10
8010.0
 20
28000.0
 30
0.0
 11
8422.747563
 21
28000.0
 31
0.0
  0
LINE
  5
33
  8
0
  6
BYBLOCK
 62
     9
 10
8421.747563
 20
28550.0
 30
0.0
 11
8421.747563
 21
28343.75
 31
0.0
  0
LINE
  5
34
  8
0
  6
BYBLOCK
 62
     9
 10
8421.747563
 20
28020.0
 30
0.0
 11
8421.747563
 21
28226.25
 31
0.0
  0
SOLID
  5
35
  8
0
  6
BYBLOCK
 62
     9
 10
8418.41423
 20
28550.0
 30
0.0
 11
8425.080897
 21
28550.0
 31
0.0
 12
8421.747563
 22
28570.0
 32
0.0
 13
8421.747563
 23
28570.0
 33
0.0
  0
SOLID
  5
36
  8
0
  6
BYBLOCK
 62
     9
 10
8418.41423
 20
28020.0
 30
0.0
 11
8425.080897
 21
28020.0
 31
0.0
 12
8421.747563
 22
28000.0
 32
0.0
 13
8421.747563
 23
28000.0
 33
0.0
  0
TEXT
  5
37
  8
0
  6
BYBLOCK
 62
    11
 10
8439.247563
 20
28248.23622
 30
0.0
 40
35.0
  1
570
 50
90.0
  0
POINT
  5
38
  8
DEFPOINTS
  6
BYBLOCK
 62
     0
 10
8030.0
 20
28570.0
 30
0.0
  0
POINT
  5
39
  8
DEFPOINTS
  6
BYBLOCK
 62
     0
 10
8000.0
 20
28000.0
 30
0.0
  0
POINT
  5
3A
  8
DEFPOINTS
  6
BYBLOCK
 62
     0
 10
8421.747563
 20
28000.0
 30
0.0
  0
ENDBLK
  5
3C
  8
0
  0
BLOCK
  8
0
  2
*D1
 70
     1
 10
0.0
 20
0.0
 30
0.0
  3
*D1
  1

  0
LINE
  5
3F
  8
0
  6
BYBLOCK
 62
     9
 10
8010.0
 20
28850.000007
 30
0.0
 11
8467.621189
 21
28850.000007
 31
0.0
  0
LINE
  5
40
  8
0
  6
BYBLOCK
 62
     9
 10
8010.0
 20
28000.0
 30
0.0
 11
8467.621189
 21
28000.0
 31
0.0
  0
LINE
  5
41
  8
0
  6
BYBLOCK
 62
     9
 10
8466.621189
 20
28830.000007
 30
0.0
 11
8466.621189
 21
28483.750004
 31
0.0
  0
LINE
  5
42
  8
0
  6
BYBLOCK
 62
     9
 10
8466.621189
 20
28020.0
 30
0.0
 11
8466.621189
 21
28366.250004
 31
0.0
  0
SOLID
  5
43
  8
0
  6
BYBLOCK
 62
     9
 10
8463.287856
 20
28830.000007
 30
0.0
 11
8469.954523
 21
28830.000007
 31
0.0
 12
8466.621189
 22
28850.000007
 32
0.0
 13
8466.621189
 23
28850.000007
 33
0.0
  0
SOLID
  5
44
  8
0
  6
BYBLOCK
 62
     9
 10
8463.287856
 20
28020.0
 30
0.0
 11
8469.954523
 21
28020.0
 31
0.0
 12
8466.621189
 22
28000.0
 32
0.0
 13
8466.621189
 23
28000.0
 33
0.0
  0
TEXT
  5
45
  8
0
  6
BYBLOCK
 62
    11
 10
8484.121189
 20
28388.236224
 30
0.0
 40
35.0
  1
850
 50
90.0
  0
POINT
  5
46
  8
DEFPOINTS
  6
BYBLOCK
 62
     0
 10
8000.0
 20
28850.000007
 30
0.0
  0
POINT
  5
47
  8
DEFPOINTS
  6
BYBLOCK
 62
     0
 10
8000.0
 20
28000.0
 30
0.0
  0
POINT
  5
48
  8
DEFPOINTS
  6
BYBLOCK
 62
     0
 10
8466.621189
 20
28000.0
 30
0.0
  0
ENDBLK
  5
4A
  8
0
  0
BLOCK
  8
0
  2
*D2
 70
     1
 10
0.0
 20
0.0
 30
0.0
  3
*D2
  1

  0
LINE
  5
5D
  8
0
  6
BYBLOCK
 62
     9
 10
8010.0
 20
28850.000007
 30
0.0
 11
8324.683588
 21
28850.000007
 31
0.0
  0
LINE
  5
5E
  8
0
  6
BYBLOCK
 62
     9
 10
8035.605
 20
28670.000007
 30
0.0
 11
8324.683588
 21
28670.000007
 31
0.0
  0
LINE
  5
5F
  8
0
  6
BYBLOCK
 62
     9
 10
8323.683588
 20
28830.000007
 30
0.0
 11
8323.683588
 21
28812.916674
 31
0.0
  0
LINE
  5
60
  8
0
  6
BYBLOCK
 62
     9
 10
8323.683588
 20
28690.000007
 30
0.0
 11
8323.683588
 21
28707.08334
 31
0.0
  0
SOLID
  5
61
  8
0
  6
BYBLOCK
 62
     9
 10
8320.350254
 20
28830.000007
 30
0.0
 11
8327.016921
 21
28830.000007
 31
0.0
 12
8323.683588
 22
28850.000007
 32
0.0
 13
8323.683588
 23
28850.000007
 33
0.0
  0
SOLID
  5
62
  8
0
  6
BYBLOCK
 62
     9
 10
8320.350254
 20
28690.000007
 30
0.0
 11
8327.016921
 21
28690.000007
 31
0.0
 12
8323.683588
 22
28670.000007
 32
0.0
 13
8323.683588
 23
28670.000007
 33
0.0
  0
TEXT
  5
63
  8
0
  6
BYBLOCK
 62
    11
 10
8341.183588
 20
28726.736228
 30
0.0
 40
35.0
  1
180
 50
90.0
  0
POINT
  5
64
  8
DEFPOINTS
  6
BYBLOCK
 62
     0
 10
8000.0
 20
28850.000007
 30
0.0
  0
POINT
  5
65
  8
DEFPOINTS
  6
BYBLOCK
 62
     0
 10
8025.605
 20
28670.000007
 30
0.0
  0
POINT
  5
66
  8
DEFPOINTS
  6
BYBLOCK
 62
     0
 10
8323.683588
 20
28670.000007
 30
0.0
  0
ENDBLK
  5
68
  8
0
  0
BLOCK
  8
0
  2
*D3
 70
     1
 10
0.0
 20
0.0
 30
0.0
  3
*D3
  1

  0
LINE
  5
6B
  8
0
  6
BYBLOCK
 62
     9
 10
8010.0
 20
28850.000007
 30
0.0
 11
8372.814375
 21
28850.000007
 31
0.0
  0
LINE
  5
6C
  8
0
  6
BYBLOCK
 62
     9
 10
8090.0
 20
28619.999604
 30
0.0
 11
8372.814375
 21
28619.999604
 31
0.0
  0
LINE
  5
6D
  8
0
  6
BYBLOCK
 62
     9
 10
8371.814375
 20
28830.000007
 30
0.0
 11
8371.814375
 21
28793.749805
 31
0.0
  0
LINE
  5
6E
  8
0
  6
BYBLOCK
 62
     9
 10
8371.814375
 20
28639.999604
 30
0.0
 11
8371.814375
 21
28676.249805
 31
0.0
  0
SOLID
  5
6F
  8
0
  6
BYBLOCK
 62
     9
 10
8368.481042
 20
28830.000007
 30
0.0
 11
8375.147708
 21
28830.000007
 31
0.0
 12
8371.814375
 22
28850.000007
 32
0.0
 13
8371.814375
 23
28850.000007
 33
0.0
  0
SOLID
  5
70
  8
0
  6
BYBLOCK
 62
     9
 10
8368.481042
 20
28639.999604
 30
0.0
 11
8375.147708
 21
28639.999604
 31
0.0
 12
8371.814375
 22
28619.999604
 32
0.0
 13
8371.814375
 23
28619.999604
 33
0.0
  0
TEXT
  5
71
  8
0
  6
BYBLOCK
 62
    11
 10
8389.314375
 20
28698.680416
 30
0.0
 40
35.0
  1
230
 50
90.0
  0
POINT
  5
72
  8
DEFPOINTS
  6
BYBLOCK
 62
     0
 10
8000.0
 20
28850.000007
 30
0.0
  0
POINT
  5
73
  8
DEFPOINTS
  6
BYBLOCK
 62
     0
 10
8080.0
 20
28619.999604
 30
0.0
  0
POINT
  5
74
  8
DEFPOINTS
  6
BYBLOCK
 62
     0
 10
8371.814375
 20
28619.999604
 30
0.0
  0
ENDBLK
  5
76
  8
0
  0
BLOCK
  8
0
  2
*D4
 70
     1
 10
0.0
 20
0.0
 30
0.0
  3
*D4
  1

  0
LINE
  5
79
  8
0
  6
BYBLOCK
 62
     9
 10
8010.0
 20
28850.000007
 30
0.0
 11
8422.747563
 21
28850.000007
 31
0.0
  0
LINE
  5
7A
  8
0
  6
BYBLOCK
 62
     9
 10
8040.0
 20
28570.0
 30
0.0
 11
8422.747563
 21
28570.0
 31
0.0
  0
LINE
  5
7B
  8
0
  6
BYBLOCK
 62
     9
 10
8421.747563
 20
28830.000007
 30
0.0
 11
8421.747563
 21
28768.750004
 31
0.0
  0
LINE
  5
7C
  8
0
  6
BYBLOCK
 62
     9
 10
8421.747563
 20
28590.0
 30
0.0
 11
8421.747563
 21
28651.250004
 31
0.0
  0
SOLID
  5
7D
  8
0
  6
BYBLOCK
 62
     9
 10
8418.41423
 20
28830.000007
 30
0.0
 11
8425.080897
 21
28830.000007
 31
0.0
 12
8421.747563
 22
28850.000007
 32
0.0
 13
8421.747563
 23
28850.000007
 33
0.0
  0
SOLID
  5
7E
  8
0
  6
BYBLOCK
 62
     9
 10
8418.41423
 20
28590.0
 30
0.0
 11
8425.080897
 21
28590.0
 31
0.0
 12
8421.747563
 22
28570.0
 32
0.0
 13
8421.747563
 23
28570.0
 33
0.0
  0
TEXT
  5
7F
  8
0
  6
BYBLOCK
 62
    11
 10
8439.247563
 20
28673.680614
 30
0.0
 40
35.0
  1
280
 50
90.0
  0
POINT
  5
80
  8
DEFPOINTS
  6
BYBLOCK
 62
     0
 10
8000.0
 20
28850.000007
 30
0.0
  0
POINT
  5
81
  8
DEFPOINTS
  6
BYBLOCK
 62
     0
 10
8030.0
 20
28570.0
 30
0.0
  0
POINT
  5
82
  8
DEFPOINTS
  6
BYBLOCK
 62
     0
 10
8421.747563
 20
28570.0
 30
0.0
  0
ENDBLK
  5
84
  8
0
  0
BLOCK
  8
0
  2
*D5
 70
     1
 10
0.0
 20
0.0
 30
0.0
  3
*D5
  1

  0
LINE
  5
87
  8
0
  6
BYBLOCK
 62
     9
 10
7940.0
 20
28609.999604
 30
0.0
 11
7940.0
 21
28426.906345
 31
0.0
  0
LINE
  5
88
  8
0
  6
BYBLOCK
 62
     9
 10
8060.0
 20
28609.999604
 30
0.0
 11
8060.0
 21
28426.906345
 31
0.0
  0
LINE
  5
89
  8
0
  6
BYBLOCK
 62
     9
 10
7960.0
 20
28427.906345
 30
0.0
 11
7975.0
 21
28427.906345
 31
0.0
  0
LINE
  5
8A
  8
0
  6
BYBLOCK
 62
     9
 10
8040.0
 20
28427.906345
 30
0.0
 11
8025.0
 21
28427.906345
 31
0.0
  0
TEXT
  5
8B
  8
0
  6
BYBLOCK
 62
    11
 10
7966.19409
 20
28434.459953
 30
0.0
 40
35.0
  1
120
  0
SOLID
  5
8C
  8
0
  6
BYBLOCK
 62
     9
 10
7960.0
 20
28431.239679
 30
0.0
 11
7960.0
 21
28424.573012
 31
0.0
 12
7940.0
 22
28427.906345
 32
0.0
 13
7940.0
 23
28427.906345
 33
0.0
  0
SOLID
  5
8D
  8
0
  6
BYBLOCK
 62
     9
 10
8040.0
 20
28431.239679
 30
0.0
 11
8040.0
 21
28424.573012
 31
0.0
 12
8060.0
 22
28427.906345
 32
0.0
 13
8060.0
 23
28427.906345
 33
0.0
  0
POINT
  5
8E
  8
DEFPOINTS
  6
BYBLOCK
 62
     0
 10
7940.0
 20
28619.999604
 30
0.0
  0
POINT
  5
8F
  8
DEFPOINTS
  6
BYBLOCK
 62
     0
 10
8060.0
 20
28619.999604
 30
0.0
  0
POINT
  5
90
  8
DEFPOINTS
  6
BYBLOCK
 62
     0
 10
8060.0
 20
28427.906345
 30
0.0
  0
ENDBLK
  5
92
  8
0
  0
BLOCK
  8
0
  2
*D6
 70
     1
 10
0.0
 20
0.0
 30
0.0
  3
*D6
  1

  0
LINE
  5
4F
  8
0
  6
BYBLOCK
 62
     9
 10
7724.99998
 20
28834.239964
 30
0.0
 11
7724.99998
 21
28887.466103
 31
0.0
  0
LINE
  5
50
  8
0
  6
BYBLOCK
 62
     9
 10
8274.99998
 20
28834.239964
 30
0.0
 11
8274.99998
 21
28887.466103
 31
0.0
  0
LINE
  5
51
  8
0
  6
BYBLOCK
 62
     9
 10
7744.99998
 20
28886.466103
 30
0.0
 11
7941.24998
 21
28886.466103
 31
0.0
  0
LINE
  5
52
  8
0
  6
BYBLOCK
 62
     9
 10
8254.99998
 20
28886.466103
 30
0.0
 11
8058.74998
 21
28886.466103
 31
0.0
  0
SOLID
  5
53
  8
0
  6
BYBLOCK
 62
     9
 10
7744.99998
 20
28889.799436
 30
0.0
 11
7744.99998
 21
28883.13277
 31
0.0
 12
7724.99998
 22
28886.466103
 32
0.0
 13
7724.99998
 23
28886.466103
 33
0.0
  0
SOLID
  5
54
  8
0
  6
BYBLOCK
 62
     9
 10
8254.99998
 20
28889.799436
 30
0.0
 11
8254.99998
 21
28883.13277
 31
0.0
 12
8274.99998
 22
28886.466103
 32
0.0
 13
8274.99998
 23
28886.466103
 33
0.0
  0
TEXT
  5
55
  8
0
  6
BYBLOCK
 62
    11
 10
7963.2362
 20
28868.966103
 30
0.0
 40
35.0
  1
550
  0
POINT
  5
56
  8
DEFPOINTS
  6
BYBLOCK
 62
     0
 10
7724.99998
 20
28824.239964
 30
0.0
  0
POINT
  5
57
  8
DEFPOINTS
  6
BYBLOCK
 62
     0
 10
8274.99998
 20
28824.239964
 30
0.0
  0
POINT
  5
58
  8
DEFPOINTS
  6
BYBLOCK
 62
     0
 10
8274.99998
 20
28886.466103
 30
0.0
  0
ENDBLK
  5
5A
  8
0
  0
BLOCK
  8
0
  2
*D7
 70
     1
 10
0.0
 20
0.0
 30
0.0
  3
*D7
  1

  0
LINE
  5
22
  8
0
  6
BYBLOCK
 62
     9
 10
8070.0
 20
28619.999604
 30
0.0
 11
8372.814375
 21
28619.999604
 31
0.0
  0
LINE
  5
23
  8
0
  6
BYBLOCK
 62
     9
 10
8010.0
 20
28000.0
 30
0.0
 11
8372.814375
 21
28000.0
 31
0.0
  0
LINE
  5
24
  8
0
  6
BYBLOCK
 62
     9
 10
8371.814375
 20
28599.999604
 30
0.0
 11
8371.814375
 21
28368.749802
 31
0.0
  0
LINE
  5
25
  8
0
  6
BYBLOCK
 62
     9
 10
8371.814375
 20
28020.0
 30
0.0
 11
8371.814375
 21
28251.249802
 31
0.0
  0
SOLID
  5
26
  8
0
  6
BYBLOCK
 62
     9
 10
8368.481042
 20
28599.999604
 30
0.0
 11
8375.147708
 21
28599.999604
 31
0.0
 12
8371.814375
 22
28619.999604
 32
0.0
 13
8371.814375
 23
28619.999604
 33
0.0
  0
SOLID
  5
27
  8
0
  6
BYBLOCK
 62
     9
 10
8368.481042
 20
28020.0
 30
0.0
 11
8375.147708
 21
28020.0
 31
0.0
 12
8371.814375
 22
28000.0
 32
0.0
 13
8371.814375
 23
28000.0
 33
0.0
  0
TEXT
  5
28
  8
0
  6
BYBLOCK
 62
    11
 10
8389.314375
 20
28274.283266
 30
0.0
 40
35.0
  1
620
 50
90.0
  0
POINT
  5
29
  8
DEFPOINTS
  6
BYBLOCK
 62
     0
 10
8060.0
 20
28619.999604
 30
0.0
  0
POINT
  5
2B
  8
DEFPOINTS
  6
BYBLOCK
 62
     0
 10
8000.0
 20
28000.0
 30
0.0
  0
POINT
  5
2C
  8
DEFPOINTS
  6
BYBLOCK
 62
     0
 10
8371.814375
 20
28000.0
 30
0.0
  0
ENDBLK
  5
2E
  8
0
  0
ENDSEC
  0
SECTION
  2
ENTITIES
  0
DIMENSION
  5
20
  8
TEAM-MAS
  2
*D7
 10
371.814375
 20
0.0
 30
0.0
 11
371.814375
 21
309.999802
 31
0.0
 12
-8000.0
 22
-28000.0
 32
0.0
 13
60.0
 23
619.999604
 33
0.0
 14
0.0
 24
0.0
 34
0.0
 50
90.0
1001
ACAD
1000
DSTYLE
1002
{
1070
    40
1040
1.0
1002
}
  0
DIMENSION
  5
2F
  8
TEAM-MAS
  2
*D0
 10
421.747563
 20
0.0
 30
0.0
 11
421.747563
 21
285.0
 31
0.0
 12
-8000.0
 22
-28000.0
 32
0.0
 13
30.0
 23
570.0
 33
0.0
 14
0.0
 24
0.0
 34
0.0
 50
90.0
1001
ACAD
1000
DSTYLE
1002
{
1070
    40
1040
1.0
1002
}
  0
DIMENSION
  5
3D
  8
TEAM-MAS
  2
*D1
 10
466.621189
 20
0.0
 30
0.0
 11
466.621189
 21
425.000004
 31
0.0
 12
-8000.0
 22
-28000.0
 32
0.0
 13
0.0
 23
850.000007
 33
0.0
 14
0.0
 24
0.0
 34
0.0
 50
90.0
1001
ACAD
1000
DSTYLE
1002
{
1070
    40
1040
1.0
1002
}
  0
CIRCLE
  5
4B
  8
TEAM-INSP
 10
0.0
 20
0.0
 30
0.0
 40
10.0
  0
DIMENSION
  5
4D
  8
TEAM-MAS
  2
*D6
 10
274.99998
 20
886.466103
 30
0.0
 11
-0.00002
 21
886.466103
 31
0.0
 12
-8000.0
 22
-28000.0
 32
0.0
 13
-275.00002
 23
824.239964
 33
0.0
 14
274.99998
 24
824.239964
 34
0.0
1001
ACAD
1000
DSTYLE
1002
{
1070
    40
1040
1.0
1002
}
  0
DIMENSION
  5
5B
  8
TEAM-MAS
  2
*D2
 10
323.683588
 20
670.000007
 30
0.0
 11
323.683588
 21
760.000007
 31
0.0
 12
-8000.0
 22
-28000.0
 32
0.0
 13
0.0
 23
850.000007
 33
0.0
 14
25.605
 24
670.000007
 34
0.0
 50
90.0
1001
ACAD
1000
DSTYLE
1002
{
1070
    40
1040
1.0
1002
}
  0
DIMENSION
  5
69
  8
TEAM-MAS
  2
*D3
 10
371.814375
 20
619.999604
 30
0.0
 11
371.814375
 21
734.999805
 31
0.0
 12
-8000.0
 22
-28000.0
 32
0.0
 13
0.0
 23
850.000007
 33
0.0
 14
80.0
 24
619.999604
 34
0.0
 50
90.0
1001
ACAD
1000
DSTYLE
1002
{
1070
    40
1040
1.0
1002
}
  0
DIMENSION
  5
77
  8
TEAM-MAS
  2
*D4
 10
421.747563
 20
570.0
 30
0.0
 11
421.747563
 21
710.000004
 31
0.0
 12
-8000.0
 22
-28000.0
 32
0.0
 13
0.0
 23
850.000007
 33
0.0
 14
30.0
 24
570.0
 34
0.0
 50
90.0
1001
ACAD
1000
DSTYLE
1002
{
1070
    40
1040
1.0
1002
}
  0
DIMENSION
  5
85
  8
TEAM-MAS
  2
*D5
 10
60.0
 20
427.906345
 30
0.0
 11
-0.54213
 21
451.959953
 31
0.0
 12
-8000.0
 22
-28000.0
 32
0.0
 70
   128
 13
-60.0
 23
619.999604
 33
0.0
 14
60.0
 24
619.999604
 34
0.0
1001
ACAD
1000
DSTYLE
1002
{
1070
    40
1040
1.0
1002
}
  0
LINE
  5
93
  8
TEAM-BODY
 10
-268.00001
 20
850.000007
 30
0.0
 11
268.00001
 21
850.000007
 31
0.0
  0
LINE
  5
95
  8
TEAM-BODY
 10
-275.00002
 20
808.47992
 30
0.0
 11
274.99998
 21
808.47992
 31
0.0
  0
LINE
  5
96
  8
TEAM-AXE
 10
40.0
 20
619.999604
 30
0.0
 11
80.0
 21
619.999604
 31
0.0
  0
CIRCLE
  5
99
  8
TEAM-COLD
 10
60.0
 20
619.999604
 30
0.0
 40
15.0
  0
LINE
  5
9B
  8
TEAM-BODY
 10
-240.0
 20
696.367263
 30
0.0
 11
240.0
 21
696.367263
 31
0.0
  0
TEXT
  5
9C
  8
TEAM-TXT
 10
-90.235134
 20
740.315541
 30
0.0
 40
30.0
  1
team 232061
 41
0.8
 51
15.0
  7
TEAM
  0
LINE
  5
9F
  8
TEAM-BODY
 10
-275.00002
 20
840.000007
 30
0.0
 11
-275.00002
 21
808.47992
 31
0.0
  0
LINE
  5
A0
  8
TEAM-AXE
 10
0.0
 20
850.000007
 30
0.0
 11
0.0
 21
534.223731
 31
0.0
210
0.0
220
-0.0
230
-1.0
  0
CIRCLE
  5
A1
  8
TEAM-KAN
 10
0.0
 20
570.0
 30
0.0
 40
20.0
  0
LINE
  5
A3
  8
TEAM-AXE
 10
-30.0
 20
570.0
 30
0.0
 11
30.0
 21
570.0
 31
0.0
  0
LINE
  5
A4
  8
TEAM-AXE
 10
-80.0
 20
619.999604
 30
0.0
 11
-40.0
 21
619.999604
 31
0.0
  0
LINE
  5
A5
  8
TEAM-AXE
 10
-60.0
 20
599.999604
 30
0.0
 11
-60.0
 21
639.999604
 31
0.0
  0
CIRCLE
  5
A6
  8
TEAM-WARM
 10
-60.0
 20
619.999604
 30
0.0
 40
15.0
  0
POLYLINE
  5
A8
  8
TEAM-HIDE
 66
     1
 10
0.0
 20
0.0
 30
0.0
  0
VERTEX
  5
102
  8
TEAM-HIDE
 10
36.838883
 20
696.367263
 30
0.0
  0
VERTEX
  5
103
  8
TEAM-HIDE
 10
35.546873
 20
674.762906
 30
0.0
 42
-0.397128
  0
VERTEX
  5
104
  8
TEAM-HIDE
 10
30.562919
 20
670.048273
 30
0.0
  0
VERTEX
  5
105
  8
TEAM-HIDE
 10
-28.937133
 20
669.954309
 30
0.0
 42
-0.398043
  0
VERTEX
  5
106
  8
TEAM-HIDE
 10
-33.936879
 20
674.668942
 30
0.0
  0
VERTEX
  5
107
  8
TEAM-HIDE
 10
-35.234314
 20
696.367263
 30
0.0
  0
SEQEND
  5
108
  8
TEAM-HIDE
  0
LINE
  5
AB
  8
TEAM-BODY
 10
-275.00002
 20
840.000007
 30
0.0
 11
-275.00002
 21
843.000037
 31
0.0
  0
ARC
  5
AC
  8
TEAM-BODY
 10
-268.00003
 20
843.000027
 30
0.0
 40
6.99998
 50
89.999788
 51
179.999899
  0
LINE
  5
AD
  8
TEAM-BODY
 10
-240.0
 20
696.367263
 30
0.0
 11
-240.0
 21
808.47992
 31
0.0
  0
LINE
  5
AE
  8
TEAM-BODY
 10
274.99998
 20
840.000007
 30
0.0
 11
274.99998
 21
808.47992
 31
0.0
  0
LINE
  5
AF
  8
TEAM-AXE
 10
60.0
 20
599.999604
 30
0.0
 11
60.0
 21
639.999604
 31
0.0
  0
LINE
  5
B0
  8
TEAM-BODY
 10
240.0
 20
696.367263
 30
0.0
 11
240.0
 21
808.47992
 31
0.0
  0
POINT
  5
B1
  8
TEAM-HIDE
 10
235.341978
 20
850.000007
 30
0.0
  0
LINE
  5
B2
  8
TEAM-BODY
 10
274.99998
 20
840.000007
 30
0.0
 11
274.99998
 21
843.000037
 31
0.0
  0
ARC
  5
B3
  8
TEAM-BODY
 10
268.0
 20
843.000027
 30
0.0
 40
6.99998
 50
0.000101
 51
89.999899
  0
ENDSEC
  0
EOF
