  0
SECTION
  2
HEADER
  9
$ACADVER
  1
AC1009
  9
$INSBASE
 10
0.0
 20
0.0
 30
0.0
  9
$EXTMIN
 10
-276.47689
 20
-10.071385
 30
-0.000006
  9
$EXTMAX
 10
492.470441
 20
927.791417
 30
0.0
  9
$LIMMIN
 10
-276.47689
 20
-10.071385
  9
$LIMMAX
 10
492.470441
 20
927.791417
  9
$ORTHOMODE
 70
     1
  9
$REGENMODE
 70
     1
  9
$FILLMODE
 70
     1
  9
$QTEXTMODE
 70
     0
  9
$MIRRTEXT
 70
     0
  9
$DRAGMODE
 70
     2
  9
$LTSCALE
 40
25.0
  9
$OSMODE
 70
     0
  9
$ATTMODE
 70
     1
  9
$TEXTSIZE
 40
200.0
  9
$TRACEWID
 40
1.0
  9
$TEXTSTYLE
  7
STANDARD
  9
$CLAYER
  8
TEAM-MAS
  9
$CELTYPE
  6
BYLAYER
  9
$CECOLOR
 62
   256
  9
$DIMSCALE
 40
0.0
  9
$DIMASZ
 40
20.0
  9
$DIMEXO
 40
10.0
  9
$DIMDLI
 40
1.0
  9
$DIMRND
 40
0.0
  9
$DIMDLE
 40
0.0
  9
$DIMEXE
 40
1.0
  9
$DIMTP
 40
0.0
  9
$DIMTM
 40
0.0
  9
$DIMTXT
 40
35.0
  9
$DIMCEN
 40
1.0
  9
$DIMTSZ
 40
0.0
  9
$DIMTOL
 70
     0
  9
$DIMLIM
 70
     0
  9
$DIMTIH
 70
     0
  9
$DIMTOH
 70
     0
  9
$DIMSE1
 70
     0
  9
$DIMSE2
 70
     0
  9
$DIMTAD
 70
     0
  9
$DIMZIN
 70
     0
  9
$DIMBLK
  1

  9
$DIMASO
 70
     1
  9
$DIMSHO
 70
     0
  9
$DIMPOST
  1

  9
$DIMAPOST
  1

  9
$DIMALT
 70
     0
  9
$DIMALTD
 70
     2
  9
$DIMALTF
 40
25.4
  9
$DIMLFAC
 40
1.0
  9
$DIMTOFL
 70
     0
  9
$DIMTVP
 40
0.0
  9
$DIMTIX
 70
     0
  9
$DIMSOXD
 70
     0
  9
$DIMSAH
 70
     0
  9
$DIMBLK1
  1

  9
$DIMBLK2
  1

  9
$DIMSTYLE
  2
TEAM
  9
$DIMCLRD
 70
     9
  9
$DIMCLRE
 70
     9
  9
$DIMCLRT
 70
    11
  9
$DIMTFAC
 40
1.0
  9
$DIMGAP
 40
15.0
  9
$LUNITS
 70
     2
  9
$LUPREC
 70
     1
  9
$SKETCHINC
 40
1.0
  9
$FILLETRAD
 40
50.0
  9
$AUNITS
 70
     0
  9
$AUPREC
 70
     0
  9
$MENU
  1
ROPLANS
  9
$ELEVATION
 40
0.0
  9
$PELEVATION
 40
0.0
  9
$THICKNESS
 40
0.0
  9
$LIMCHECK
 70
     0
  9
$BLIPMODE
 70
     1
  9
$CHAMFERA
 40
0.0
  9
$CHAMFERB
 40
0.0
  9
$SKPOLY
 70
     0
  9
$TDCREATE
 40
2450392.957851
  9
$TDUPDATE
 40
2455534.564459
  9
$TDINDWG
 40
2.577934
  9
$TDUSRTIMER
 40
2.577934
  9
$USRTIMER
 70
     1
  9
$ANGBASE
 50
0.0
  9
$ANGDIR
 70
     0
  9
$PDMODE
 70
     0
  9
$PDSIZE
 40
0.0
  9
$PLINEWID
 40
0.0
  9
$COORDS
 70
     2
  9
$SPLFRAME
 70
     0
  9
$SPLINETYPE
 70
     6
  9
$SPLINESEGS
 70
     8
  9
$ATTDIA
 70
     0
  9
$ATTREQ
 70
     0
  9
$HANDLING
 70
     1
  9
$HANDSEED
  5
146
  9
$SURFTAB1
 70
    36
  9
$SURFTAB2
 70
    36
  9
$SURFTYPE
 70
     6
  9
$SURFU
 70
     6
  9
$SURFV
 70
     6
  9
$UCSNAME
  2

  9
$UCSORG
 10
0.0
 20
0.0
 30
0.0
  9
$UCSXDIR
 10
1.0
 20
0.0
 30
0.0
  9
$UCSYDIR
 10
0.0
 20
1.0
 30
0.0
  9
$PUCSNAME
  2

  9
$PUCSORG
 10
0.0
 20
0.0
 30
0.0
  9
$PUCSXDIR
 10
1.0
 20
0.0
 30
0.0
  9
$PUCSYDIR
 10
0.0
 20
1.0
 30
0.0
  9
$USERI1
 70
     0
  9
$USERI2
 70
     0
  9
$USERI3
 70
     0
  9
$USERI4
 70
     0
  9
$USERI5
 70
     0
  9
$USERR1
 40
0.0
  9
$USERR2
 40
0.0
  9
$USERR3
 40
0.0
  9
$USERR4
 40
0.0
  9
$USERR5
 40
0.0
  9
$WORLDVIEW
 70
     1
  9
$SHADEDGE
 70
     0
  9
$SHADEDIF
 70
    70
  9
$TILEMODE
 70
     1
  9
$MAXACTVP
 70
    16
  9
$PLIMCHECK
 70
     0
  9
$PEXTMIN
 10
-0.805942
 20
0.005011
 30
0.0
  9
$PEXTMAX
 10
20.421406
 20
13.725274
 30
0.0
  9
$PLIMMIN
 10
0.0
 20
0.0
  9
$PLIMMAX
 10
12.0
 20
9.0
  9
$UNITMODE
 70
     0
  9
$VISRETAIN
 70
     0
  9
$PLINEGEN
 70
     0
  9
$PSLTSCALE
 70
     0
  0
ENDSEC
  0
SECTION
  2
TABLES
  0
TABLE
  2
VPORT
 70
     2
  0
VPORT
  2
*ACTIVE
 70
     0
 10
0.0
 20
0.0
 11
1.0
 21
1.0
 12
107.996775
 22
458.860016
 13
0.0
 23
0.0
 14
1.0
 24
1.0
 15
50.0
 25
50.0
 16
0.0
 26
0.0
 36
1.0
 17
0.0
 27
0.0
 37
0.0
 40
943.62245
 41
1.865779
 42
50.0
 43
0.0
 44
0.0
 50
0.0
 51
0.0
 71
     0
 72
   100
 73
     1
 74
     1
 75
     0
 76
     0
 77
     0
 78
     0
  0
ENDTAB
  0
TABLE
  2
LTYPE
 70
     3
  0
LTYPE
  2
CONTINUOUS
 70
     0
  3
Solid Line
 72
    65
 73
     0
 40
0.0
  0
LTYPE
  2
31
 70
     0
  3

 72
    65
 73
     4
 40
2.1
 49
1.5
 49
-0.3
 49
0.0
 49
-0.3
  0
LTYPE
  2
22
 70
     0
  3

 72
    65
 73
     2
 40
1.4
 49
1.2
 49
-0.2
  0
ENDTAB
  0
TABLE
  2
LAYER
 70
    12
  0
LAYER
  2
0
 70
     0
 62
     7
  6
CONTINUOUS
  0
LAYER
  2
DEFPOINTS
 70
     0
 62
     7
  6
CONTINUOUS
  0
LAYER
  2
TEAM-BODY
 70
     0
 62
     2
  6
CONTINUOUS
  0
LAYER
  2
TEAM-AXE
 70
     0
 62
    10
  6
31
  0
LAYER
  2
TEAM-MAS
 70
     0
 62
     9
  6
CONTINUOUS
  0
LAYER
  2
TEAM-TXT
 70
     0
 62
    11
  6
CONTINUOUS
  0
LAYER
  2
TEAM-DET1
 70
     0
 62
     4
  6
CONTINUOUS
  0
LAYER
  2
TEAM-COLD
 70
     0
 62
     3
  6
CONTINUOUS
  0
LAYER
  2
TEAM-HIDE
 70
     0
 62
     8
  6
22
  0
LAYER
  2
TEAM-KAN
 70
     0
 62
     6
  6
CONTINUOUS
  0
LAYER
  2
TEAM-WARM
 70
     0
 62
     1
  6
CONTINUOUS
  0
LAYER
  2
TEAM-INSP
 70
     0
 62
     5
  6
CONTINUOUS
  0
ENDTAB
  0
TABLE
  2
STYLE
 70
     2
  0
STYLE
  2
STANDARD
 70
     0
 40
0.0
 41
1.0
 50
0.0
 71
     0
 42
200.0
  3
txt
  4

  0
STYLE
  2
TEAM
 70
     0
 40
0.0
 41
0.8
 50
15.0
 71
     0
 42
7.0
  3
ROMANS.shx
  4

  0
ENDTAB
  0
TABLE
  2
VIEW
 70
     0
  0
ENDTAB
  0
TABLE
  2
UCS
 70
     0
  0
ENDTAB
  0
TABLE
  2
APPID
 70
     1
  0
APPID
  2
ACAD
 70
     0
  0
ENDTAB
  0
TABLE
  2
DIMSTYLE
 70
     1
  0
DIMSTYLE
  2
TEAM
 70
     0
  3

  4

  5

  6

  7

 40
0.0
 41
20.0
 42
10.0
 43
1.0
 44
1.0
 45
0.0
 46
0.0
 47
0.0
 48
0.0
140
35.0
141
1.0
142
0.0
143
25.4
144
1.0
145
0.0
146
1.0
147
15.0
 71
     0
 72
     0
 73
     0
 74
     0
 75
     0
 76
     0
 77
     0
 78
     0
170
     0
171
     2
172
     0
173
     0
174
     0
175
     0
176
     9
177
     9
178
    11
  0
ENDTAB
  0
ENDSEC
  0
SECTION
  2
BLOCKS
  0
BLOCK
  8
0
  2
$MODEL_SPACE
 70
     0
 10
0.0
 20
0.0
 30
0.0
  3
$MODEL_SPACE
  1

  0
ENDBLK
  5
11D
  8
0
  0
BLOCK
 67
     1
  8
0
  2
$PAPER_SPACE
 70
     0
 10
0.0
 20
0.0
 30
0.0
  3
$PAPER_SPACE
  1

  0
ENDBLK
  5
11B
 67
     1
  8
0
  0
BLOCK
  8
0
  2
*D0
 70
     1
 10
0.0
 20
0.0
 30
0.0
  3
*D0
  1

  0
LINE
  5
77
  8
0
  6
BYBLOCK
 62
     9
 10
7724.99998
 20
48844.239964
 30
0.0
 11
7724.99998
 21
48912.959113
 31
0.0
  0
LINE
  5
78
  8
0
  6
BYBLOCK
 62
     9
 10
8274.99998
 20
48844.239964
 30
0.0
 11
8274.99998
 21
48912.959113
 31
0.0
  0
LINE
  5
79
  8
0
  6
BYBLOCK
 62
     9
 10
7744.99998
 20
48911.959113
 30
0.0
 11
7941.24998
 21
48911.959113
 31
0.0
  0
LINE
  5
7A
  8
0
  6
BYBLOCK
 62
     9
 10
8254.99998
 20
48911.959113
 30
0.0
 11
8058.74998
 21
48911.959113
 31
0.0
  0
SOLID
  5
7B
  8
0
  6
BYBLOCK
 62
     9
 10
7744.99998
 20
48915.292447
 30
0.0
 11
7744.99998
 21
48908.62578
 31
0.0
 12
7724.99998
 22
48911.959113
 32
0.0
 13
7724.99998
 23
48911.959113
 33
0.0
  0
SOLID
  5
7C
  8
0
  6
BYBLOCK
 62
     9
 10
8254.99998
 20
48915.292447
 30
0.0
 11
8254.99998
 21
48908.62578
 31
0.0
 12
8274.99998
 22
48911.959113
 32
0.0
 13
8274.99998
 23
48911.959113
 33
0.0
  0
TEXT
  5
7D
  8
0
  6
BYBLOCK
 62
    11
 10
7963.2362
 20
48894.459113
 30
0.0
 40
35.0
  1
550
  0
POINT
  5
7E
  8
DEFPOINTS
  6
BYBLOCK
 62
     0
 10
7724.99998
 20
48834.239964
 30
0.0
  0
POINT
  5
7F
  8
DEFPOINTS
  6
BYBLOCK
 62
     0
 10
8274.99998
 20
48834.239964
 30
0.0
  0
POINT
  5
80
  8
DEFPOINTS
  6
BYBLOCK
 62
     0
 10
8274.99998
 20
48911.959113
 30
0.0
  0
ENDBLK
  5
82
  8
0
  0
BLOCK
  8
0
  2
*D1
 70
     1
 10
0.0
 20
0.0
 30
0.0
  3
*D1
  1

  0
LINE
  5
22
  8
0
  6
BYBLOCK
 62
     9
 10
7940.0
 20
48579.999604
 30
0.0
 11
7940.0
 21
48426.906345
 31
0.0
  0
LINE
  5
23
  8
0
  6
BYBLOCK
 62
     9
 10
8060.0
 20
48579.999604
 30
0.0
 11
8060.0
 21
48426.906345
 31
0.0
  0
LINE
  5
24
  8
0
  6
BYBLOCK
 62
     9
 10
7960.0
 20
48427.906345
 30
0.0
 11
7975.0
 21
48427.906345
 31
0.0
  0
LINE
  5
25
  8
0
  6
BYBLOCK
 62
     9
 10
8040.0
 20
48427.906345
 30
0.0
 11
8025.0
 21
48427.906345
 31
0.0
  0
TEXT
  5
26
  8
0
  6
BYBLOCK
 62
    11
 10
7966.19409
 20
48434.459953
 30
0.0
 40
35.0
  1
120
  0
SOLID
  5
27
  8
0
  6
BYBLOCK
 62
     9
 10
7960.0
 20
48431.239679
 30
0.0
 11
7960.0
 21
48424.573012
 31
0.0
 12
7940.0
 22
48427.906345
 32
0.0
 13
7940.0
 23
48427.906345
 33
0.0
  0
SOLID
  5
28
  8
0
  6
BYBLOCK
 62
     9
 10
8040.0
 20
48431.239679
 30
0.0
 11
8040.0
 21
48424.573012
 31
0.0
 12
8060.0
 22
48427.906345
 32
0.0
 13
8060.0
 23
48427.906345
 33
0.0
  0
POINT
  5
29
  8
DEFPOINTS
  6
BYBLOCK
 62
     0
 10
7940.0
 20
48589.999604
 30
0.0
  0
POINT
  5
2B
  8
DEFPOINTS
  6
BYBLOCK
 62
     0
 10
8060.0
 20
48589.999604
 30
0.0
  0
POINT
  5
2C
  8
DEFPOINTS
  6
BYBLOCK
 62
     0
 10
8060.0
 20
48427.906345
 30
0.0
  0
ENDBLK
  5
2E
  8
0
  0
BLOCK
  8
0
  2
*D2
 70
     1
 10
0.0
 20
0.0
 30
0.0
  3
*D2
  1

  0
LINE
  5
69
  8
0
  6
BYBLOCK
 62
     9
 10
8070.0
 20
48589.999604
 30
0.0
 11
8381.407732
 21
48589.999604
 31
0.0
  0
LINE
  5
6A
  8
0
  6
BYBLOCK
 62
     9
 10
8010.0
 20
48000.0
 30
0.0
 11
8381.407732
 21
48000.0
 31
0.0
  0
LINE
  5
6B
  8
0
  6
BYBLOCK
 62
     9
 10
8380.407732
 20
48569.999604
 30
0.0
 11
8380.407732
 21
48353.749802
 31
0.0
  0
LINE
  5
6C
  8
0
  6
BYBLOCK
 62
     9
 10
8380.407732
 20
48020.0
 30
0.0
 11
8380.407732
 21
48236.249802
 31
0.0
  0
SOLID
  5
6D
  8
0
  6
BYBLOCK
 62
     9
 10
8377.074399
 20
48569.999604
 30
0.0
 11
8383.741065
 21
48569.999604
 31
0.0
 12
8380.407732
 22
48589.999604
 32
0.0
 13
8380.407732
 23
48589.999604
 33
0.0
  0
SOLID
  5
6E
  8
0
  6
BYBLOCK
 62
     9
 10
8377.074399
 20
48020.0
 30
0.0
 11
8383.741065
 21
48020.0
 31
0.0
 12
8380.407732
 22
48000.0
 32
0.0
 13
8380.407732
 23
48000.0
 33
0.0
  0
TEXT
  5
6F
  8
0
  6
BYBLOCK
 62
    11
 10
8397.907732
 20
48258.174872
 30
0.0
 40
35.0
  1
590
 50
90.0
  0
POINT
  5
70
  8
DEFPOINTS
  6
BYBLOCK
 62
     0
 10
8060.0
 20
48589.999604
 30
0.0
  0
POINT
  5
71
  8
DEFPOINTS
  6
BYBLOCK
 62
     0
 10
8000.0
 20
48000.0
 30
0.0
  0
POINT
  5
72
  8
DEFPOINTS
  6
BYBLOCK
 62
     0
 10
8380.407732
 20
48000.0
 30
0.0
  0
ENDBLK
  5
74
  8
0
  0
BLOCK
  8
0
  2
*D3
 70
     1
 10
0.0
 20
0.0
 30
0.0
  3
*D3
  1

  0
LINE
  5
5B
  8
0
  6
BYBLOCK
 62
     9
 10
8040.0
 20
48540.0
 30
0.0
 11
8431.34092
 21
48540.0
 31
0.0
  0
LINE
  5
5C
  8
0
  6
BYBLOCK
 62
     9
 10
8010.0
 20
48000.0
 30
0.0
 11
8431.34092
 21
48000.0
 31
0.0
  0
LINE
  5
5D
  8
0
  6
BYBLOCK
 62
     9
 10
8430.34092
 20
48520.0
 30
0.0
 11
8430.34092
 21
48328.75
 31
0.0
  0
LINE
  5
5E
  8
0
  6
BYBLOCK
 62
     9
 10
8430.34092
 20
48020.0
 30
0.0
 11
8430.34092
 21
48211.25
 31
0.0
  0
SOLID
  5
5F
  8
0
  6
BYBLOCK
 62
     9
 10
8427.007587
 20
48520.0
 30
0.0
 11
8433.674254
 21
48520.0
 31
0.0
 12
8430.34092
 22
48540.0
 32
0.0
 13
8430.34092
 23
48540.0
 33
0.0
  0
SOLID
  5
60
  8
0
  6
BYBLOCK
 62
     9
 10
8427.007587
 20
48020.0
 30
0.0
 11
8433.674254
 21
48020.0
 31
0.0
 12
8430.34092
 22
48000.0
 32
0.0
 13
8430.34092
 23
48000.0
 33
0.0
  0
TEXT
  5
61
  8
0
  6
BYBLOCK
 62
    11
 10
8447.84092
 20
48231.48622
 30
0.0
 40
35.0
  1
540
 50
90.0
  0
POINT
  5
62
  8
DEFPOINTS
  6
BYBLOCK
 62
     0
 10
8030.0
 20
48540.0
 30
0.0
  0
POINT
  5
63
  8
DEFPOINTS
  6
BYBLOCK
 62
     0
 10
8000.0
 20
48000.0
 30
0.0
  0
POINT
  5
64
  8
DEFPOINTS
  6
BYBLOCK
 62
     0
 10
8430.34092
 20
48000.0
 30
0.0
  0
ENDBLK
  5
66
  8
0
  0
BLOCK
  8
0
  2
*D4
 70
     1
 10
0.0
 20
0.0
 30
0.0
  3
*D4
  1

  0
LINE
  5
4D
  8
0
  6
BYBLOCK
 62
     9
 10
8010.0
 20
48850.000007
 30
0.0
 11
8381.407732
 21
48850.000007
 31
0.0
  0
LINE
  5
4E
  8
0
  6
BYBLOCK
 62
     9
 10
8090.0
 20
48589.999604
 30
0.0
 11
8381.407732
 21
48589.999604
 31
0.0
  0
LINE
  5
4F
  8
0
  6
BYBLOCK
 62
     9
 10
8380.407732
 20
48830.000007
 30
0.0
 11
8380.407732
 21
48778.749805
 31
0.0
  0
LINE
  5
50
  8
0
  6
BYBLOCK
 62
     9
 10
8380.407732
 20
48609.999604
 30
0.0
 11
8380.407732
 21
48661.249805
 31
0.0
  0
SOLID
  5
51
  8
0
  6
BYBLOCK
 62
     9
 10
8377.074399
 20
48830.000007
 30
0.0
 11
8383.741065
 21
48830.000007
 31
0.0
 12
8380.407732
 22
48850.000007
 32
0.0
 13
8380.407732
 23
48850.000007
 33
0.0
  0
SOLID
  5
52
  8
0
  6
BYBLOCK
 62
     9
 10
8377.074399
 20
48609.999604
 30
0.0
 11
8383.741065
 21
48609.999604
 31
0.0
 12
8380.407732
 22
48589.999604
 32
0.0
 13
8380.407732
 23
48589.999604
 33
0.0
  0
TEXT
  5
53
  8
0
  6
BYBLOCK
 62
    11
 10
8397.907732
 20
48683.680416
 30
0.0
 40
35.0
  1
260
 50
90.0
  0
POINT
  5
54
  8
DEFPOINTS
  6
BYBLOCK
 62
     0
 10
8000.0
 20
48850.000007
 30
0.0
  0
POINT
  5
55
  8
DEFPOINTS
  6
BYBLOCK
 62
     0
 10
8080.0
 20
48589.999604
 30
0.0
  0
POINT
  5
56
  8
DEFPOINTS
  6
BYBLOCK
 62
     0
 10
8380.407732
 20
48589.999604
 30
0.0
  0
ENDBLK
  5
58
  8
0
  0
BLOCK
  8
0
  2
*D5
 70
     1
 10
0.0
 20
0.0
 30
0.0
  3
*D5
  1

  0
LINE
  5
3F
  8
0
  6
BYBLOCK
 62
     9
 10
8010.0
 20
48850.000007
 30
0.0
 11
8431.34092
 21
48850.000007
 31
0.0
  0
LINE
  5
40
  8
0
  6
BYBLOCK
 62
     9
 10
8040.0
 20
48540.0
 30
0.0
 11
8431.34092
 21
48540.0
 31
0.0
  0
LINE
  5
41
  8
0
  6
BYBLOCK
 62
     9
 10
8430.34092
 20
48830.000007
 30
0.0
 11
8430.34092
 21
48747.91667
 31
0.0
  0
LINE
  5
42
  8
0
  6
BYBLOCK
 62
     9
 10
8430.34092
 20
48560.0
 30
0.0
 11
8430.34092
 21
48642.083337
 31
0.0
  0
SOLID
  5
43
  8
0
  6
BYBLOCK
 62
     9
 10
8427.007587
 20
48830.000007
 30
0.0
 11
8433.674254
 21
48830.000007
 31
0.0
 12
8430.34092
 22
48850.000007
 32
0.0
 13
8430.34092
 23
48850.000007
 33
0.0
  0
SOLID
  5
44
  8
0
  6
BYBLOCK
 62
     9
 10
8427.007587
 20
48560.0
 30
0.0
 11
8433.674254
 21
48560.0
 31
0.0
 12
8430.34092
 22
48540.0
 32
0.0
 13
8430.34092
 23
48540.0
 33
0.0
  0
TEXT
  5
45
  8
0
  6
BYBLOCK
 62
    11
 10
8447.84092
 20
48661.736224
 30
0.0
 40
35.0
  1
310
 50
90.0
  0
POINT
  5
46
  8
DEFPOINTS
  6
BYBLOCK
 62
     0
 10
8000.0
 20
48850.000007
 30
0.0
  0
POINT
  5
47
  8
DEFPOINTS
  6
BYBLOCK
 62
     0
 10
8030.0
 20
48540.0
 30
0.0
  0
POINT
  5
48
  8
DEFPOINTS
  6
BYBLOCK
 62
     0
 10
8430.34092
 20
48540.0
 30
0.0
  0
ENDBLK
  5
4A
  8
0
  0
BLOCK
  8
0
  2
*D6
 70
     1
 10
0.0
 20
0.0
 30
0.0
  3
*D6
  1

  0
LINE
  5
85
  8
0
  6
BYBLOCK
 62
     9
 10
8010.0
 20
48850.000007
 30
0.0
 11
8333.276945
 21
48850.000007
 31
0.0
  0
LINE
  5
86
  8
0
  6
BYBLOCK
 62
     9
 10
8035.605
 20
48650.000007
 30
0.0
 11
8333.276945
 21
48650.000007
 31
0.0
  0
LINE
  5
87
  8
0
  6
BYBLOCK
 62
     9
 10
8332.276945
 20
48830.000007
 30
0.0
 11
8332.276945
 21
48808.33334
 31
0.0
  0
LINE
  5
88
  8
0
  6
BYBLOCK
 62
     9
 10
8332.276945
 20
48670.000007
 30
0.0
 11
8332.276945
 21
48696.666674
 31
0.0
  0
TEXT
  5
89
  8
0
  6
BYBLOCK
 62
    11
 10
8349.776945
 20
48716.180617
 30
0.0
 40
35.0
  1
200
 50
90.0
  0
SOLID
  5
8A
  8
0
  6
BYBLOCK
 62
     9
 10
8328.943611
 20
48830.000007
 30
0.0
 11
8335.610278
 21
48830.000007
 31
0.0
 12
8332.276945
 22
48850.000007
 32
0.0
 13
8332.276945
 23
48850.000007
 33
0.0
  0
SOLID
  5
8B
  8
0
  6
BYBLOCK
 62
     9
 10
8328.943611
 20
48670.000007
 30
0.0
 11
8335.610278
 21
48670.000007
 31
0.0
 12
8332.276945
 22
48650.000007
 32
0.0
 13
8332.276945
 23
48650.000007
 33
0.0
  0
POINT
  5
8C
  8
DEFPOINTS
  6
BYBLOCK
 62
     0
 10
8000.0
 20
48850.000007
 30
0.0
  0
POINT
  5
8D
  8
DEFPOINTS
  6
BYBLOCK
 62
     0
 10
8025.605
 20
48650.000007
 30
0.0
  0
POINT
  5
8E
  8
DEFPOINTS
  6
BYBLOCK
 62
     0
 10
8332.276945
 20
48650.000007
 30
0.0
  0
ENDBLK
  5
90
  8
0
  0
BLOCK
  8
0
  2
*D7
 70
     1
 10
0.0
 20
0.0
 30
0.0
  3
*D7
  1

  0
LINE
  5
31
  8
0
  6
BYBLOCK
 62
     9
 10
8010.0
 20
48850.000007
 30
0.0
 11
8476.214546
 21
48850.000007
 31
0.0
  0
LINE
  5
32
  8
0
  6
BYBLOCK
 62
     9
 10
8010.0
 20
48000.0
 30
0.0
 11
8476.214546
 21
48000.0
 31
0.0
  0
LINE
  5
33
  8
0
  6
BYBLOCK
 62
     9
 10
8475.214546
 20
48830.000007
 30
0.0
 11
8475.214546
 21
48483.750004
 31
0.0
  0
LINE
  5
34
  8
0
  6
BYBLOCK
 62
     9
 10
8475.214546
 20
48020.0
 30
0.0
 11
8475.214546
 21
48366.250004
 31
0.0
  0
SOLID
  5
35
  8
0
  6
BYBLOCK
 62
     9
 10
8471.881213
 20
48830.000007
 30
0.0
 11
8478.54788
 21
48830.000007
 31
0.0
 12
8475.214546
 22
48850.000007
 32
0.0
 13
8475.214546
 23
48850.000007
 33
0.0
  0
SOLID
  5
36
  8
0
  6
BYBLOCK
 62
     9
 10
8471.881213
 20
48020.0
 30
0.0
 11
8478.54788
 21
48020.0
 31
0.0
 12
8475.214546
 22
48000.0
 32
0.0
 13
8475.214546
 23
48000.0
 33
0.0
  0
TEXT
  5
37
  8
0
  6
BYBLOCK
 62
    11
 10
8492.714546
 20
48388.236224
 30
0.0
 40
35.0
  1
850
 50
90.0
  0
POINT
  5
38
  8
DEFPOINTS
  6
BYBLOCK
 62
     0
 10
8000.0
 20
48850.000007
 30
0.0
  0
POINT
  5
39
  8
DEFPOINTS
  6
BYBLOCK
 62
     0
 10
8000.0
 20
48000.0
 30
0.0
  0
POINT
  5
3A
  8
DEFPOINTS
  6
BYBLOCK
 62
     0
 10
8475.214546
 20
48000.0
 30
0.0
  0
ENDBLK
  5
3C
  8
0
  0
ENDSEC
  0
SECTION
  2
ENTITIES
  0
DIMENSION
  5
20
  8
TEAM-MAS
  2
*D1
 10
60.0
 20
427.906345
 30
0.0
 11
-0.54213
 21
451.959953
 31
0.0
 12
-8000.0
 22
-48000.0
 32
0.0
 70
   128
 13
-60.0
 23
589.999604
 33
0.0
 14
60.0
 24
589.999604
 34
0.0
1001
ACAD
1000
DSTYLE
1002
{
1070
    40
1040
1.0
1002
}
  0
DIMENSION
  5
2F
  8
TEAM-MAS
  2
*D7
 10
475.214546
 20
0.0
 30
0.0
 11
475.214546
 21
425.000004
 31
0.0
 12
-8000.0
 22
-48000.0
 32
0.0
 13
0.0
 23
850.000007
 33
0.0
 14
0.0
 24
0.0
 34
0.0
 50
90.0
1001
ACAD
1000
DSTYLE
1002
{
1070
    40
1040
1.0
1002
}
  0
DIMENSION
  5
3D
  8
TEAM-MAS
  2
*D5
 10
430.34092
 20
540.0
 30
0.0
 11
430.34092
 21
695.000004
 31
0.0
 12
-8000.0
 22
-48000.0
 32
0.0
 13
0.0
 23
850.000007
 33
0.0
 14
30.0
 24
540.0
 34
0.0
 50
90.0
1001
ACAD
1000
DSTYLE
1002
{
1070
    40
1040
1.0
1002
}
  0
DIMENSION
  5
4B
  8
TEAM-MAS
  2
*D4
 10
380.407732
 20
589.999604
 30
0.0
 11
380.407732
 21
719.999805
 31
0.0
 12
-8000.0
 22
-48000.0
 32
0.0
 13
0.0
 23
850.000007
 33
0.0
 14
80.0
 24
589.999604
 34
0.0
 50
90.0
1001
ACAD
1000
DSTYLE
1002
{
1070
    40
1040
1.0
1002
}
  0
DIMENSION
  5
59
  8
TEAM-MAS
  2
*D3
 10
430.34092
 20
0.0
 30
0.0
 11
430.34092
 21
270.0
 31
0.0
 12
-8000.0
 22
-48000.0
 32
0.0
 13
30.0
 23
540.0
 33
0.0
 14
0.0
 24
0.0
 34
0.0
 50
90.0
1001
ACAD
1000
DSTYLE
1002
{
1070
    40
1040
1.0
1002
}
  0
DIMENSION
  5
67
  8
TEAM-MAS
  2
*D2
 10
380.407732
 20
0.0
 30
0.0
 11
380.407732
 21
294.999802
 31
0.0
 12
-8000.0
 22
-48000.0
 32
0.0
 13
60.0
 23
589.999604
 33
0.0
 14
0.0
 24
0.0
 34
0.0
 50
90.0
1001
ACAD
1000
DSTYLE
1002
{
1070
    40
1040
1.0
1002
}
  0
DIMENSION
  5
75
  8
TEAM-MAS
  2
*D0
 10
274.99998
 20
911.959113
 30
0.0
 11
-0.00002
 21
911.959113
 31
0.0
 12
-8000.0
 22
-48000.0
 32
0.0
 13
-275.00002
 23
834.239964
 33
0.0
 14
274.99998
 24
834.239964
 34
0.0
1001
ACAD
1000
DSTYLE
1002
{
1070
    40
1040
1.0
1002
}
  0
DIMENSION
  5
83
  8
TEAM-MAS
  2
*D6
 10
332.276945
 20
650.000007
 30
0.0
 11
332.276945
 21
752.500007
 31
0.0
 12
-8000.0
 22
-48000.0
 32
0.0
 70
   128
 13
0.0
 23
850.000007
 33
0.0
 14
25.605
 24
650.000007
 34
0.0
 50
90.0
1001
ACAD
1000
DSTYLE
1002
{
1070
    40
1040
1.0
1002
}
  0
POLYLINE
  5
91
  8
TEAM-BODY
 66
     1
 10
0.0
 20
0.0
 30
0.0
 70
   128
  0
VERTEX
  5
123
  8
TEAM-BODY
 10
-240.0
 20
834.97992
 30
0.0
  0
VERTEX
  5
124
  8
TEAM-BODY
 10
-238.107528
 20
813.847151
 30
0.0
  0
VERTEX
  5
125
  8
TEAM-BODY
 10
-232.459959
 20
793.047658
 30
0.0
  0
VERTEX
  5
126
  8
TEAM-BODY
 10
-223.146357
 20
772.909461
 30
0.0
  0
VERTEX
  5
127
  8
TEAM-BODY
 10
-210.313603
 20
753.750153
 30
0.0
  0
VERTEX
  5
128
  8
TEAM-BODY
 10
-194.164079
 20
735.871887
 30
0.0
  0
VERTEX
  5
129
  8
TEAM-BODY
 10
-174.952471
 20
719.556614
 30
0.0
  0
VERTEX
  5
12A
  8
TEAM-BODY
 10
-152.981758
 20
705.061635
 30
0.0
  0
VERTEX
  5
12B
  8
TEAM-BODY
 10
-128.598431
 20
692.615546
 30
0.0
  0
VERTEX
  5
12C
  8
TEAM-BODY
 10
-102.18703
 20
682.414627
 30
0.0
  0
VERTEX
  5
12D
  8
TEAM-BODY
 10
-74.164079
 20
674.619754
 30
0.0
  0
VERTEX
  5
12E
  8
TEAM-BODY
 10
-44.971516
 20
669.353857
 30
0.0
  0
VERTEX
  5
12F
  8
TEAM-BODY
 10
-15.069725
 20
666.699982
 30
0.0
  0
VERTEX
  5
130
  8
TEAM-BODY
 10
15.069725
 20
666.699982
 30
0.0
  0
VERTEX
  5
131
  8
TEAM-BODY
 10
44.971516
 20
669.353857
 30
0.0
  0
VERTEX
  5
132
  8
TEAM-BODY
 10
74.164079
 20
674.619754
 30
0.0
  0
VERTEX
  5
133
  8
TEAM-BODY
 10
102.18703
 20
682.414627
 30
0.0
  0
VERTEX
  5
134
  8
TEAM-BODY
 10
128.598431
 20
692.615546
 30
0.0
  0
VERTEX
  5
135
  8
TEAM-BODY
 10
152.981758
 20
705.061635
 30
0.0
  0
VERTEX
  5
136
  8
TEAM-BODY
 10
174.952471
 20
719.556614
 30
0.0
  0
VERTEX
  5
137
  8
TEAM-BODY
 10
194.164079
 20
735.871887
 30
0.0
  0
VERTEX
  5
138
  8
TEAM-BODY
 10
210.313603
 20
753.750153
 30
0.0
  0
VERTEX
  5
139
  8
TEAM-BODY
 10
223.146357
 20
772.909461
 30
0.0
  0
VERTEX
  5
13A
  8
TEAM-BODY
 10
232.459959
 20
793.047658
 30
0.0
  0
VERTEX
  5
13B
  8
TEAM-BODY
 10
238.107528
 20
813.847151
 30
0.0
  0
VERTEX
  5
13C
  8
TEAM-BODY
 10
240.0
 20
834.97992
 30
0.0
  0
SEQEND
  5
13D
  8
TEAM-BODY
  0
LINE
  5
93
  8
TEAM-AXE
 10
40.0
 20
589.999604
 30
0.0
 11
80.0
 21
589.999604
 31
0.0
  0
CIRCLE
  5
96
  8
TEAM-COLD
 10
60.0
 20
589.999604
 30
0.0
 40
15.0
  0
LINE
  5
98
  8
TEAM-BODY
 10
-268.00001
 20
850.000007
 30
0.0
 11
268.00001
 21
850.000007
 31
0.0
  0
LINE
  5
99
  8
TEAM-DET1
 10
-268.00001
 20
870.000007
 30
0.0
 11
268.00001
 21
870.000007
 31
0.0
  0
LINE
  5
9B
  8
TEAM-BODY
 10
-275.00002
 20
834.97992
 30
0.0
 11
274.99998
 21
834.97992
 31
0.0
  0
TEXT
  5
9C
  8
TEAM-TXT
 10
-90.235134
 20
740.315541
 30
0.0
 40
30.0
  1
team 232065
 41
0.8
 51
15.0
  7
TEAM
  0
LINE
  5
9F
  8
TEAM-AXE
 10
0.0
 20
850.000007
 30
0.0
 11
0.0
 21
504.223731
 31
0.0
210
0.0
220
-0.0
230
-1.0
  0
CIRCLE
  5
A0
  8
TEAM-KAN
 10
0.0
 20
540.0
 30
0.0
 40
20.0
  0
LINE
  5
A2
  8
TEAM-AXE
 10
-30.0
 20
540.0
 30
0.0
 11
30.0
 21
540.0
 31
0.0
  0
LINE
  5
A3
  8
TEAM-AXE
 10
-80.0
 20
589.999604
 30
0.0
 11
-40.0
 21
589.999604
 31
0.0
  0
LINE
  5
A4
  8
TEAM-AXE
 10
-60.0
 20
569.999604
 30
0.0
 11
-60.0
 21
609.999604
 31
0.0
  0
CIRCLE
  5
A5
  8
TEAM-WARM
 10
-60.0
 20
589.999604
 30
0.0
 40
15.0
  0
CIRCLE
  5
A7
  8
TEAM-INSP
 10
0.0
 20
0.0
 30
0.0
 40
10.0
  0
ARC
  5
A9
  8
TEAM-BODY
 10
-268.00003
 20
843.000027
 30
0.0
 40
6.99998
 50
89.999788
 51
179.999899
  0
LINE
  5
AA
  8
TEAM-BODY
 10
-275.00002
 20
840.000007
 30
0.0
 11
-275.00002
 21
843.000037
 31
0.0
  0
LINE
  5
AB
  8
TEAM-DET1
 10
-275.00002
 20
843.000037
 30
0.0
 11
-275.00002
 21
863.000037
 31
0.0
  0
ARC
  5
AC
  8
TEAM-DET1
 10
-268.00003
 20
863.000027
 30
0.0
 40
6.99998
 50
89.999788
 51
179.999899
  0
LINE
  5
AD
  8
TEAM-BODY
 10
-275.00002
 20
840.000007
 30
0.0
 11
-275.00002
 21
834.97992
 31
0.0
  0
POLYLINE
  5
AE
  8
TEAM-HIDE
 66
     1
 10
0.0
 20
0.0
 30
0.0
  0
VERTEX
  5
13E
  8
TEAM-HIDE
 10
37.064101
 20
668.390085
 30
0.0
  0
VERTEX
  5
13F
  8
TEAM-HIDE
 10
35.546873
 20
654.762906
 30
0.0
 42
-0.397128
  0
VERTEX
  5
140
  8
TEAM-HIDE
 10
30.562919
 20
650.048273
 30
0.0
  0
VERTEX
  5
141
  8
TEAM-HIDE
 10
-28.937133
 20
649.954309
 30
0.0
 42
-0.398043
  0
VERTEX
  5
142
  8
TEAM-HIDE
 10
-33.936879
 20
654.668942
 30
0.0
  0
VERTEX
  5
143
  8
TEAM-HIDE
 10
-35.439316
 20
668.215661
 30
0.0
  0
SEQEND
  5
144
  8
TEAM-HIDE
  0
LINE
  5
B1
  8
TEAM-AXE
 10
60.0
 20
569.999604
 30
0.0
 11
60.0
 21
609.999604
 31
0.0
  0
ARC
  5
B2
  8
TEAM-BODY
 10
268.0
 20
843.000027
 30
0.0
 40
6.99998
 50
0.000101
 51
89.999899
  0
LINE
  5
B3
  8
TEAM-BODY
 10
274.99998
 20
840.000007
 30
0.0
 11
274.99998
 21
843.000037
 31
0.0
  0
POINT
  5
B4
  8
TEAM-HIDE
 10
235.341978
 20
850.000007
 30
0.0
  0
LINE
  5
B5
  8
TEAM-DET1
 10
274.99998
 20
843.00004
 30
0.0
 11
274.99998
 21
863.000037
 31
0.0
  0
POINT
  5
B6
  8
TEAM-DET1
 10
235.341978
 20
870.000007
 30
0.0
  0
ARC
  5
B7
  8
TEAM-DET1
 10
268.0
 20
863.000027
 30
0.0
 40
6.99998
 50
0.000101
 51
89.999899
  0
LINE
  5
B8
  8
TEAM-BODY
 10
274.99998
 20
840.000007
 30
0.0
 11
274.99998
 21
834.97992
 31
0.0
  0
ENDSEC
  0
EOF
